osu file format v14

[General]
AudioFilename: Gu gu tto work.mp3
AudioLeadIn: 0
PreviewTime: 3572
Countdown: 0
SampleSet: Normal
StackLeniency: 0.7
Mode: 1
LetterboxInBreaks: 0
WidescreenStoryboard: 0

[Editor]
Bookmarks: 8518,18840,19002
DistanceSpacing: 1
BeatDivisor: 2
GridSize: 32
TimelineZoom: 2.1

[Metadata]
Title:Gugutto Work*
TitleUnicode:ググッとワーク☆彡
Artist:fourfolium
ArtistUnicode:fourfolium
Creator:komasy
Version:Futsuu
Source:NEW GAME! -THE CHALLENGE STAGE!-
Tags:Yuuki Takada Ai Yamaguchi Megumi Toda Ayumi Takeo Aoba Suzukaze Hifumi Takimoto Hajime Shinoda Yun Iijima 涼風青葉 高田憂希 滝本ひふみ 山口愛 篠田はじめ 戸田めぐみ 飯島ゆん 竹尾歩美 Now Singing♪♪♪♪ フォーフォリウム ニューゲーム
BeatmapID:1233528
BeatmapSetID:582493

[Difficulty]
HPDrainRate:8
CircleSize:2
OverallDifficulty:4
ApproachRate:5
SliderMultiplier:1.4
SliderTickRate:1

[Events]
//Background and Video events
0,0,"78342cdc_waifu2x_art_noise2_scale_tta22_1.jpg",0,0
//Break Periods
//Storyboard Layer 0 (Background)
//Storyboard Layer 1 (Fail)
//Storyboard Layer 2 (Pass)
//Storyboard Layer 3 (Foreground)
//Storyboard Sound Samples

[TimingPoints]
21,322.58064516129,4,1,0,80,1,0
3650,-100,4,1,0,90,0,0
3730,-100,4,1,0,90,0,1
24537,-100,4,1,0,90,0,0
24590,-100,4,1,0,80,0,0
34752,-100,4,1,0,60,0,0
36257,-100,4,1,0,90,0,0

[HitObjects]
352,160,504,5,0,0:0:0:0:
320,288,665,5,8,0:0:0:0:
128,64,988,1,8,0:0:0:0:
384,320,1149,1,0,0:0:0:0:
384,288,1794,1,8,0:0:0:0:
384,320,2117,1,0,0:0:0:0:
384,320,2439,1,8,0:0:0:0:
384,320,3084,1,8,0:0:0:0:
288,96,3407,1,8,0:0:0:0:
416,352,3730,1,4,0:0:0:0:
288,96,4213,1,8,0:0:0:0:
320,96,4536,1,0,0:0:0:0:
288,96,4859,1,8,0:0:0:0:
256,128,5020,1,8,0:0:0:0:
288,224,5342,1,0,0:0:0:0:
288,192,5504,1,8,0:0:0:0:
288,192,5665,1,0,0:0:0:0:
288,192,5826,1,8,0:0:0:0:
288,128,6311,1,4,0:0:0:0:
288,96,6794,1,8,0:0:0:0:
320,96,7117,1,8,0:0:0:0:
256,96,7440,1,0,0:0:0:0:
256,96,7601,1,8,0:0:0:0:
288,224,7923,1,0,0:0:0:0:
288,192,8085,1,8,0:0:0:0:
288,192,8246,1,8,0:0:0:0:
288,192,8407,1,0,0:0:0:0:
288,128,8891,1,4,0:0:0:0:
288,96,9375,1,8,0:0:0:0:
320,96,9698,1,0,0:0:0:0:
288,96,10021,1,8,0:0:0:0:
320,96,10182,1,0,0:0:0:0:
288,224,10504,1,0,0:0:0:0:
288,192,10666,1,8,0:0:0:0:
288,192,10827,1,0,0:0:0:0:
288,128,11472,1,4,0:0:0:0:
352,128,11956,1,12,0:0:0:0:
352,128,12279,1,12,0:0:0:0:
352,128,12762,1,12,0:0:0:0:
416,352,14053,1,4,0:0:0:0:
288,96,14536,1,8,0:0:0:0:
320,96,14859,1,0,0:0:0:0:
288,96,15182,1,8,0:0:0:0:
352,128,15343,1,8,0:0:0:0:
288,224,15665,1,0,0:0:0:0:
288,192,15827,1,8,0:0:0:0:
288,192,15988,1,0,0:0:0:0:
288,192,16149,1,8,0:0:0:0:
288,96,16633,1,4,0:0:0:0:
288,96,17117,1,8,0:0:0:0:
320,96,17440,1,8,0:0:0:0:
288,96,17763,1,0,0:0:0:0:
384,160,17924,1,8,0:0:0:0:
288,224,18246,1,0,0:0:0:0:
288,192,18408,1,0,0:0:0:0:
288,192,18569,1,8,0:0:0:0:
288,192,18730,1,0,0:0:0:0:
288,96,19214,1,4,0:0:0:0:
288,96,19698,1,8,0:0:0:0:
320,96,20021,1,8,0:0:0:0:
288,96,20344,1,0,0:0:0:0:
320,96,20505,1,8,0:0:0:0:
288,224,20827,1,8,0:0:0:0:
288,192,20989,1,0,0:0:0:0:
288,192,21150,1,8,0:0:0:0:
288,128,21795,1,4,0:0:0:0:
352,128,22279,1,12,0:0:0:0:
352,128,22602,1,12,0:0:0:0:
352,128,23085,1,12,0:0:0:0:
288,128,23730,1,8,0:0:0:0:
192,192,24053,1,0,0:0:0:0:
224,128,24214,1,8,0:0:0:0:
384,256,24537,5,0,0:0:0:0:
256,160,24860,1,8,0:0:0:0:
320,96,25182,1,0,0:0:0:0:
256,96,25827,1,0,0:0:0:0:
256,64,26150,1,8,0:0:0:0:
288,96,26473,1,0,0:0:0:0:
192,128,26633,1,0,0:0:0:0:
288,96,26795,1,0,0:0:0:0:
384,256,27118,1,0,0:0:0:0:
256,160,27441,1,8,0:0:0:0:
288,128,27762,1,8,0:0:0:0:
256,96,28408,1,0,0:0:0:0:
256,64,28731,1,8,0:0:0:0:
288,96,29053,1,8,0:0:0:0:
256,96,29214,1,8,0:0:0:0:
288,96,29376,1,8,0:0:0:0:
384,256,29698,1,0,0:0:0:0:
256,160,30021,1,8,0:0:0:0:
192,96,30343,1,8,0:0:0:0:
192,128,30988,1,0,0:0:0:0:
256,64,31311,1,8,0:0:0:0:
288,96,31634,1,0,0:0:0:0:
256,96,31795,1,0,0:0:0:0:
288,96,31956,1,0,0:0:0:0:
384,256,32279,1,0,0:0:0:0:
256,160,32602,1,8,0:0:0:0:
288,128,32924,1,8,0:0:0:0:
320,128,33408,1,4,0:0:0:0:
256,64,33892,1,8,0:0:0:0:
192,160,34214,1,8,0:0:0:0:
352,160,34537,1,8,0:0:0:0:
320,128,34698,1,4,0:0:0:0:
256,192,35182,1,8,0:0:0:0:
256,192,35505,1,8,0:0:0:0:
288,192,35827,1,0,0:0:0:0:
288,192,35989,1,0,0:0:0:0:
320,160,36311,1,4,0:0:0:0:
320,160,36634,1,12,0:0:0:0:
