osu file format v14

[General]
AudioFilename: Gu gu tto work.mp3
AudioLeadIn: 0
PreviewTime: 3572
Countdown: 0
SampleSet: Normal
StackLeniency: 0.7
Mode: 1
LetterboxInBreaks: 0
WidescreenStoryboard: 0

[Editor]
Bookmarks: 2147,2792,2953,26905,26986,29486,29566,32066,32147,32792
DistanceSpacing: 1
BeatDivisor: 4
GridSize: 32
TimelineZoom: 2.4

[Metadata]
Title:Gugutto Work*
TitleUnicode:ググッとワーク☆彡
Artist:fourfolium
ArtistUnicode:fourfolium
Creator:komasy
Version:Oni
Source:NEW GAME! -THE CHALLENGE STAGE!-
Tags:Yuuki Takada Ai Yamaguchi Megumi Toda Ayumi Takeo Aoba Suzukaze Hifumi Takimoto Hajime Shinoda Yun Iijima 涼風青葉 高田憂希 滝本ひふみ 山口愛 篠田はじめ 戸田めぐみ 飯島ゆん 竹尾歩美 Now Singing♪♪♪♪ フォーフォリウム ニューゲーム
BeatmapID:1233540
BeatmapSetID:582493

[Difficulty]
HPDrainRate:7
CircleSize:2
OverallDifficulty:5.5
ApproachRate:5
SliderMultiplier:1.4
SliderTickRate:1

[Events]
//Background and Video events
0,0,"78342cdc_waifu2x_art_noise2_scale_tta22_1.jpg",0,0
//Break Periods
//Storyboard Layer 0 (Background)
//Storyboard Layer 1 (Fail)
//Storyboard Layer 2 (Pass)
//Storyboard Layer 3 (Foreground)
//Storyboard Sound Samples

[TimingPoints]
21,322.58064516129,4,1,0,80,1,0
3650,-100,4,1,0,90,0,0
3730,-100,4,1,0,90,0,1
24537,-100,4,1,0,90,0,0
24590,-100,4,1,0,80,0,0
34752,-100,4,1,0,60,0,0
36257,-100,4,1,0,90,0,0

[HitObjects]
320,288,504,5,0,0:0:0:0:
320,288,665,1,8,0:0:0:0:
128,64,826,1,0,0:0:0:0:
192,128,907,1,8,0:0:0:0:
160,64,988,1,8,0:0:0:0:
384,320,1149,1,0,0:0:0:0:
384,288,1472,1,0,0:0:0:0:
384,288,1633,1,8,0:0:0:0:
384,288,1794,1,8,0:0:0:0:
384,320,2117,1,0,0:0:0:0:
256,96,2197,1,0,0:0:0:0:
384,320,2278,1,8,0:0:0:0:
384,320,2439,1,8,0:0:0:0:
288,128,2762,1,0,0:0:0:0:
384,320,2842,1,8,0:0:0:0:
384,320,2923,1,8,0:0:0:0:
384,320,3085,1,8,0:0:0:0:
416,352,3246,1,0,0:0:0:0:
288,96,3407,1,8,0:0:0:0:
256,128,3488,1,8,0:0:0:0:
416,352,3568,1,8,0:0:0:0:
416,352,3730,1,4,0:0:0:0:
288,96,4052,1,0,0:0:0:0:
288,96,4213,1,8,0:0:0:0:
288,128,4375,1,0,0:0:0:0:
320,96,4536,1,8,0:0:0:0:
288,96,4617,1,8,0:0:0:0:
288,96,4697,1,0,0:0:0:0:
288,96,4859,1,8,0:0:0:0:
320,96,5020,1,0,0:0:0:0:
288,192,5101,1,0,0:0:0:0:
288,192,5182,1,8,0:0:0:0:
288,224,5342,1,0,0:0:0:0:
288,192,5504,1,8,0:0:0:0:
288,192,5665,1,0,0:0:0:0:
288,192,5826,1,8,0:0:0:0:
320,64,5988,1,8,0:0:0:0:
320,64,6068,1,8,0:0:0:0:
320,64,6149,1,8,0:0:0:0:
288,128,6310,1,4,0:0:0:0:
288,96,6633,1,0,0:0:0:0:
288,96,6794,1,8,0:0:0:0:
288,128,6956,1,0,0:0:0:0:
320,96,7117,1,8,0:0:0:0:
288,128,7198,1,0,0:0:0:0:
288,96,7278,1,0,0:0:0:0:
288,96,7440,1,8,0:0:0:0:
320,96,7601,1,0,0:0:0:0:
256,224,7682,1,8,0:0:0:0:
288,224,7762,1,8,0:0:0:0:
288,224,7923,1,0,0:0:0:0:
288,192,8085,1,8,0:0:0:0:
288,192,8246,1,0,0:0:0:0:
288,192,8407,1,8,0:0:0:0:
416,160,8488,1,8,0:0:0:0:
416,128,8569,1,0,0:0:0:0:
416,160,8650,1,8,0:0:0:0:
416,160,8730,1,8,0:0:0:0:
288,128,8891,1,4,0:0:0:0:
288,96,9214,1,0,0:0:0:0:
288,96,9375,1,8,0:0:0:0:
288,128,9537,1,0,0:0:0:0:
320,96,9698,1,8,0:0:0:0:
288,96,9779,1,8,0:0:0:0:
288,96,9859,1,0,0:0:0:0:
288,96,10021,1,8,0:0:0:0:
320,96,10182,1,0,0:0:0:0:
288,224,10262,1,0,0:0:0:0:
256,224,10343,1,8,0:0:0:0:
288,224,10504,1,0,0:0:0:0:
288,192,10666,1,8,0:0:0:0:
288,192,10827,1,0,0:0:0:0:
320,96,11150,1,0,0:0:0:0:
256,96,11230,1,0,0:0:0:0:
320,96,11311,1,8,0:0:0:0:
288,128,11472,1,4,0:0:0:0:
320,128,11795,1,0,0:0:0:0:
352,128,11956,1,12,0:0:0:0:
256,96,12117,1,0,0:0:0:0:
352,128,12279,1,12,0:0:0:0:
256,96,12440,1,0,0:0:0:0:
352,128,12601,1,12,0:0:0:0:
352,128,12762,1,12,0:0:0:0:
288,160,13085,1,8,0:0:0:0:
288,128,13166,1,8,0:0:0:0:
288,128,13246,1,8,0:0:0:0:
288,128,13408,1,8,0:0:0:0:
288,128,13569,1,0,0:0:0:0:
352,224,13730,1,8,0:0:0:0:
352,224,13891,1,8,0:0:0:0:
416,352,14053,1,4,0:0:0:0:
288,96,14375,1,0,0:0:0:0:
288,96,14536,1,8,0:0:0:0:
288,128,14698,1,0,0:0:0:0:
320,96,14859,1,8,0:0:0:0:
288,96,14940,1,8,0:0:0:0:
288,96,15020,1,0,0:0:0:0:
288,96,15182,1,8,0:0:0:0:
320,96,15343,1,0,0:0:0:0:
256,224,15424,1,0,0:0:0:0:
288,224,15504,1,8,0:0:0:0:
288,224,15665,1,0,0:0:0:0:
288,192,15827,1,8,0:0:0:0:
288,192,15988,1,0,0:0:0:0:
288,192,16149,1,8,0:0:0:0:
320,64,16311,1,8,0:0:0:0:
320,64,16391,1,8,0:0:0:0:
320,64,16472,1,8,0:0:0:0:
288,128,16633,1,4,0:0:0:0:
288,96,16956,1,0,0:0:0:0:
288,96,17117,1,8,0:0:0:0:
288,128,17279,1,0,0:0:0:0:
320,96,17440,1,8,0:0:0:0:
288,128,17521,1,0,0:0:0:0:
288,96,17601,1,0,0:0:0:0:
288,96,17763,1,8,0:0:0:0:
320,96,17924,1,0,0:0:0:0:
256,224,18005,1,8,0:0:0:0:
288,224,18085,1,8,0:0:0:0:
288,224,18246,1,0,0:0:0:0:
288,192,18408,1,8,0:0:0:0:
288,192,18569,1,0,0:0:0:0:
288,192,18730,1,8,0:0:0:0:
288,96,18811,1,8,0:0:0:0:
288,96,18891,1,0,0:0:0:0:
288,96,18972,1,0,0:0:0:0:
320,64,19053,1,8,0:0:0:0:
288,128,19214,1,4,0:0:0:0:
288,96,19537,1,0,0:0:0:0:
288,96,19698,1,8,0:0:0:0:
288,128,19860,1,0,0:0:0:0:
320,96,20021,1,8,0:0:0:0:
288,96,20101,1,8,0:0:0:0:
288,96,20182,1,0,0:0:0:0:
288,96,20344,1,8,0:0:0:0:
320,96,20505,1,4,0:0:0:0:
288,224,20827,1,0,0:0:0:0:
320,160,20908,1,0,0:0:0:0:
288,192,20989,1,0,0:0:0:0:
288,192,21150,1,8,0:0:0:0:
320,96,21473,1,0,0:0:0:0:
256,96,21553,1,0,0:0:0:0:
320,96,21634,1,8,0:0:0:0:
288,128,21795,1,4,0:0:0:0:
320,128,22118,1,0,0:0:0:0:
352,128,22279,1,12,0:0:0:0:
256,96,22440,1,0,0:0:0:0:
352,128,22602,1,12,0:0:0:0:
256,96,22763,1,0,0:0:0:0:
352,128,22924,1,12,0:0:0:0:
352,128,23085,1,12,0:0:0:0:
288,160,23408,5,8,0:0:0:0:
288,128,23489,1,8,0:0:0:0:
288,128,23569,1,8,0:0:0:0:
288,128,23731,1,8,0:0:0:0:
288,128,23892,1,0,0:0:0:0:
352,224,24214,1,8,0:0:0:0:
352,224,24376,1,0,0:0:0:0:
416,192,24456,1,0,0:0:0:0:
384,256,24537,5,0,0:0:0:0:
256,160,24860,1,8,0:0:0:0:
256,128,25182,1,0,0:0:0:0:
288,160,25343,1,0,0:0:0:0:
320,128,25505,1,8,0:0:0:0:
288,128,25666,1,8,0:0:0:0:
256,96,25989,1,0,0:0:0:0:
256,64,26150,1,8,0:0:0:0:
256,96,26311,1,0,0:0:0:0:
288,96,26392,1,0,0:0:0:0:
288,96,26473,1,8,0:0:0:0:
288,96,26634,1,8,0:0:0:0:
288,96,26795,1,0,0:0:0:0:
384,256,27118,1,0,0:0:0:0:
256,160,27441,1,8,0:0:0:0:
256,128,27763,1,8,0:0:0:0:
288,160,27924,1,0,0:0:0:0:
320,128,28086,1,8,0:0:0:0:
288,128,28246,1,8,0:0:0:0:
288,128,28327,1,8,0:0:0:0:
288,128,28407,1,0,0:0:0:0:
256,96,28570,1,0,0:0:0:0:
256,64,28731,1,8,0:0:0:0:
256,96,28811,1,8,0:0:0:0:
288,96,28891,1,0,0:0:0:0:
352,96,28972,1,0,0:0:0:0:
288,96,29053,1,8,0:0:0:0:
288,96,29215,1,8,0:0:0:0:
288,96,29376,1,8,0:0:0:0:
384,256,29698,1,0,0:0:0:0:
256,160,30021,1,8,0:0:0:0:
256,128,30343,1,8,0:0:0:0:
288,160,30504,1,0,0:0:0:0:
320,128,30666,1,8,0:0:0:0:
288,128,30827,1,8,0:0:0:0:
256,96,31150,1,0,0:0:0:0:
256,64,31311,1,8,0:0:0:0:
256,96,31472,1,0,0:0:0:0:
288,96,31553,1,0,0:0:0:0:
288,96,31634,1,8,0:0:0:0:
288,96,31795,1,8,0:0:0:0:
288,96,31956,1,0,0:0:0:0:
384,256,32279,1,0,0:0:0:0:
256,160,32602,1,8,0:0:0:0:
256,128,32924,1,8,0:0:0:0:
288,160,33085,1,0,0:0:0:0:
320,128,33247,1,8,0:0:0:0:
288,128,33408,1,4,0:0:0:0:
256,96,33731,1,0,0:0:0:0:
256,64,33892,1,8,0:0:0:0:
256,96,34053,1,8,0:0:0:0:
192,128,34133,1,8,0:0:0:0:
192,128,34214,1,0,0:0:0:0:
192,128,34295,1,0,0:0:0:0:
192,128,34375,1,8,0:0:0:0:
288,96,34537,1,8,0:0:0:0:
320,128,34698,1,4,0:0:0:0:
256,192,35021,1,0,0:0:0:0:
256,192,35182,1,8,0:0:0:0:
256,192,35343,1,0,0:0:0:0:
256,192,35505,1,8,0:0:0:0:
256,192,35666,1,8,0:0:0:0:
288,192,35827,1,0,0:0:0:0:
288,192,35989,1,0,0:0:0:0:
320,160,36311,1,4,0:0:0:0:
320,160,36473,1,4,0:0:0:0:
320,160,36634,1,12,0:0:0:0:
