osu file format v14

[General]
AudioFilename: Gu gu tto work.mp3
AudioLeadIn: 0
PreviewTime: 3572
Countdown: 0
SampleSet: Normal
StackLeniency: 0.7
Mode: 1
LetterboxInBreaks: 0
WidescreenStoryboard: 0

[Editor]
Bookmarks: 8518,18840,19002
DistanceSpacing: 1
BeatDivisor: 1
GridSize: 32
TimelineZoom: 2.1

[Metadata]
Title:Gugutto Work*
TitleUnicode:ググッとワーク☆彡
Artist:fourfolium
ArtistUnicode:fourfolium
Creator:komasy
Version:Kantan
Source:NEW GAME! -THE CHALLENGE STAGE!-
Tags:Yuuki Takada Ai Yamaguchi Megumi Toda Ayumi Takeo Aoba Suzukaze Hifumi Takimoto Hajime Shinoda Yun Iijima 涼風青葉 高田憂希 滝本ひふみ 山口愛 篠田はじめ 戸田めぐみ 飯島ゆん 竹尾歩美 Now Singing♪♪♪♪ フォーフォリウム ニューゲーム
BeatmapID:1233529
BeatmapSetID:582493

[Difficulty]
HPDrainRate:9
CircleSize:2
OverallDifficulty:3
ApproachRate:5
SliderMultiplier:1.4
SliderTickRate:1

[Events]
//Background and Video events
0,0,"78342cdc_waifu2x_art_noise2_scale_tta22_1.jpg",0,0
//Break Periods
//Storyboard Layer 0 (Background)
//Storyboard Layer 1 (Fail)
//Storyboard Layer 2 (Pass)
//Storyboard Layer 3 (Foreground)
//Storyboard Sound Samples

[TimingPoints]
21,322.58064516129,4,1,0,80,1,0
3650,-100,4,1,0,90,0,0
3730,-100,4,1,0,90,0,1
24537,-100,4,1,0,90,0,0
24590,-100,4,1,0,80,0,0
34752,-100,4,1,0,60,0,0
36257,-100,4,1,0,90,0,0

[HitObjects]
384,320,1150,5,0,0:0:0:0:
384,288,1795,1,8,0:0:0:0:
384,320,2440,1,0,0:0:0:0:
384,320,3085,1,8,0:0:0:0:
416,352,3730,1,4,0:0:0:0:
320,128,5182,1,0,0:0:0:0:
224,32,5504,1,0,0:0:0:0:
288,192,5826,1,8,0:0:0:0:
288,128,6311,1,4,0:0:0:0:
160,128,7762,1,8,0:0:0:0:
256,128,8085,1,0,0:0:0:0:
288,192,8408,1,8,0:0:0:0:
288,128,8891,1,4,0:0:0:0:
320,96,10343,1,0,0:0:0:0:
192,96,10666,1,8,0:0:0:0:
192,96,10988,1,8,0:0:0:0:
288,128,11472,1,4,0:0:0:0:
352,128,12279,1,12,0:0:0:0:
352,128,12762,1,12,0:0:0:0:
416,352,14053,1,4,0:0:0:0:
320,96,14859,1,8,0:0:0:0:
352,128,15504,1,0,0:0:0:0:
224,32,15827,1,0,0:0:0:0:
288,192,16149,1,8,0:0:0:0:
288,128,16633,1,4,0:0:0:0:
320,96,17440,1,8,0:0:0:0:
288,96,18085,1,8,0:0:0:0:
288,224,18408,1,0,0:0:0:0:
288,192,18730,1,8,0:0:0:0:
288,128,19214,1,4,0:0:0:0:
320,96,20021,1,8,0:0:0:0:
288,96,20666,1,0,0:0:0:0:
288,192,20989,1,0,0:0:0:0:
224,64,21311,1,8,0:0:0:0:
288,128,21795,1,4,0:0:0:0:
352,128,22602,1,12,0:0:0:0:
352,128,23085,1,12,0:0:0:0:
288,128,23892,1,0,0:0:0:0:
352,160,24214,1,0,0:0:0:0:
384,256,24537,5,0,0:0:0:0:
160,128,25182,1,8,0:0:0:0:
256,96,25827,1,0,0:0:0:0:
384,256,27118,1,0,0:0:0:0:
288,96,27762,1,8,0:0:0:0:
320,96,28408,1,0,0:0:0:0:
288,128,29053,1,8,0:0:0:0:
288,96,29376,1,8,0:0:0:0:
384,256,29698,1,0,0:0:0:0:
256,128,30343,1,8,0:0:0:0:
288,96,30988,1,0,0:0:0:0:
384,256,32279,1,0,0:0:0:0:
256,128,32924,1,8,0:0:0:0:
320,128,33408,1,4,0:0:0:0:
256,64,33892,1,8,0:0:0:0:
192,160,34214,1,8,0:0:0:0:
320,128,34698,1,4,0:0:0:0:
288,192,35988,1,0,0:0:0:0:
320,160,36311,1,4,0:0:0:0:
320,160,36634,1,12,0:0:0:0:
