osu file format v14

[General]
AudioFilename: audio.mp3
AudioLeadIn: 0
PreviewTime: 56621
Countdown: 0
SampleSet: Drum
StackLeniency: 0.7
Mode: 3
LetterboxInBreaks: 0
SpecialStyle: 0
WidescreenStoryboard: 1

[Editor]
DistanceSpacing: 3.3
BeatDivisor: 4
GridSize: 32
TimelineZoom: 2.4

[Metadata]
Title:Gugutto Work* (Short Ver.)
TitleUnicode:ググッとワーク☆彡 (Short Ver.)
Artist:fourfolium
ArtistUnicode:fourfolium
Creator:ML-ysg
Version:Easy
Source:NEW GAME! -THE CHALLENGE STAGE!-
Tags:フォーフォリウム ニューゲーム ザ チャレンジステージ opening game size takada yuuki 高田憂希 suzukaze aoba 涼風青葉 yamaguchi megumi 山口愛 takimoto hifumi 滝本ひふみ toda megumi 戸田めぐみ shinoda hajime 篠田はじめ ayumi takeo 竹尾歩美 ijima yun 飯島ゆん video game japanese j-pop jpop
BeatmapID:2297602
BeatmapSetID:1099840

[Difficulty]
HPDrainRate:7
CircleSize:4
OverallDifficulty:7
ApproachRate:5
SliderMultiplier:1.6
SliderTickRate:1

[Events]
//Background and Video events
0,0,"newgame.jpg",0,0
//Break Periods
//Storyboard Layer 0 (Background)
//Storyboard Layer 1 (Fail)
//Storyboard Layer 2 (Pass)
//Storyboard Layer 3 (Foreground)
//Storyboard Layer 4 (Overlay)
//Storyboard Sound Samples

[TimingPoints]
9,322.58064516129,4,3,1,60,1,0
3718,-100,4,3,1,60,0,1
14202,-100,4,3,1,60,0,0
56621,-100,4,3,1,60,0,1
77428,-100,4,3,1,60,0,0

[HitObjects]
192,192,492,128,2,815:0:0:0:0:
320,192,815,128,2,1138:0:0:0:0:
448,192,1138,1,0,0:0:0:50:drum-hitfinish1.wav
64,192,1138,1,2,0:0:0:0:
320,192,1621,1,8,0:0:0:0:
64,192,1783,1,0,0:0:0:50:drum-hitfinish1.wav
448,192,1783,1,2,0:0:0:0:
192,192,2267,1,8,0:0:0:0:
64,192,2428,1,0,0:0:0:50:drum-hitfinish1.wav
448,192,2428,1,2,0:0:0:0:
192,192,2750,1,2,0:0:0:0:
320,192,2912,1,8,0:0:0:0:
64,192,3234,1,8,0:0:0:0:
320,192,3557,1,8,0:0:0:0:
448,192,3718,1,0,0:0:0:50:drum-hitfinish1.wav
64,192,3718,1,8,0:0:0:0:
320,192,4041,1,2,0:0:0:0:
192,192,4202,1,12,0:0:0:0:
320,192,4525,1,12,0:0:0:0:
64,192,4847,1,12,0:0:0:0:
320,192,5170,1,12,0:0:0:0:
192,192,5492,1,12,0:0:0:0:
448,192,5815,128,12,6138:0:0:0:0:
192,192,6138,1,8,0:0:0:0:
320,192,6299,1,8,0:0:0:0:
64,192,6299,1,0,0:0:0:50:drum-hitfinish1.wav
448,192,6621,1,2,0:0:0:0:
320,192,6783,1,12,0:0:0:0:
64,192,7105,1,12,0:0:0:0:
320,192,7428,1,12,0:0:0:0:
64,192,7750,1,12,0:0:0:0:
448,192,8073,1,12,0:0:0:0:
320,192,8396,128,12,8718:0:0:0:0:
192,192,8718,1,8,0:0:0:0:
448,192,8879,1,0,0:0:0:50:drum-hitfinish1.wav
64,192,8879,1,2,0:0:0:0:
320,192,9202,1,2,0:0:0:0:
64,192,9363,1,12,0:0:0:0:
320,192,9686,1,6,0:0:0:0:
64,192,10008,1,8,0:0:0:0:
192,192,10170,1,2,0:0:0:0:
448,192,10170,1,0,0:0:0:50:drum-hitfinish1.wav
320,192,10492,1,2,0:0:0:0:
192,192,10654,1,12,0:0:0:0:
448,192,10976,1,6,0:0:0:0:
192,192,11299,1,8,0:0:0:0:
64,192,11460,1,0,0:0:0:50:drum-hitfinish1.wav
448,192,11460,1,2,0:0:0:0:
192,192,11783,1,2,0:0:0:0:
320,192,11944,128,12,12267:0:0:0:0:
192,192,12267,128,6,12589:0:0:0:0:
448,192,12589,1,8,0:0:0:0:
320,192,12750,1,2,0:0:0:0:
64,192,12750,1,0,0:0:0:50:drum-hitfinish1.wav
192,192,13073,1,8,0:0:0:0:
320,192,13396,1,8,0:0:0:0:
192,192,13718,1,2,0:0:0:0:
64,192,14041,1,2,0:0:0:0:
320,192,14202,1,12,0:0:0:0:
448,192,14525,1,12,0:0:0:0:
320,192,14847,1,12,0:0:0:0:
64,192,15008,1,2,0:0:0:0:
448,192,15170,1,12,0:0:0:0:
192,192,15492,1,12,0:0:0:0:
320,192,15815,1,12,0:0:0:0:
192,192,16138,1,12,0:0:0:0:
64,192,16299,1,2,0:0:0:0:
448,192,16460,1,12,0:0:0:0:
192,192,16783,1,12,0:0:0:0:
64,192,17105,1,12,0:0:0:0:
192,192,17428,1,12,0:0:0:0:
448,192,17589,1,2,0:0:0:0:
64,192,17750,1,12,0:0:0:0:
320,192,18073,1,12,0:0:0:0:
192,192,18396,1,12,0:0:0:0:
320,192,18718,1,12,0:0:0:0:
64,192,18879,1,2,0:0:0:0:
448,192,19041,1,12,0:0:0:0:
320,192,19363,1,12,0:0:0:0:
64,192,19686,1,12,0:0:0:0:
448,192,20008,1,12,0:0:0:0:
192,192,20170,1,2,0:0:0:0:
64,192,20331,1,12,0:0:0:0:
320,192,20654,1,12,0:0:0:0:
192,192,20976,1,12,0:0:0:0:
320,192,21299,1,12,0:0:0:0:
448,192,21460,1,2,0:0:0:0:
64,192,21621,1,12,0:0:0:0:
448,192,21944,1,12,0:0:0:0:
320,192,22267,1,12,0:0:0:0:
64,192,22589,1,12,0:0:0:0:
192,192,22912,1,12,0:0:0:0:
64,192,23073,128,2,23396:0:0:0:0:
448,192,23073,1,0,0:0:0:50:drum-hitfinish1.wav
320,192,23396,1,8,0:0:0:0:
448,192,23557,128,8,23879:0:0:0:0:
192,192,23879,128,8,24202:0:0:0:0:
448,192,24202,1,8,0:0:0:0:
64,192,24363,1,0,0:0:0:50:drum-hitfinish1.wav
320,192,24363,1,2,0:0:0:0:
192,192,24686,1,2,0:0:0:0:
448,192,24847,1,12,0:0:0:0:
320,192,25170,1,6,0:0:0:0:
64,192,25492,1,12,0:0:0:0:
448,192,25654,1,2,0:0:0:0:
320,192,25976,1,2,0:0:0:0:
64,192,26138,1,12,0:0:0:0:
192,192,26460,1,6,0:0:0:0:
448,192,26783,1,12,0:0:0:0:
64,192,26944,1,2,0:0:0:0:
192,192,27267,1,2,0:0:0:0:
320,192,27428,1,12,0:0:0:0:
64,192,27750,1,6,0:0:0:0:
320,192,28073,1,8,0:0:0:0:
448,192,28234,1,0,0:0:0:50:drum-hitfinish1.wav
64,192,28234,1,2,0:0:0:0:
320,192,28557,1,2,0:0:0:0:
192,192,28718,1,12,0:0:0:0:
448,192,29041,1,6,0:0:0:0:
64,192,29363,1,8,0:0:0:0:
192,192,29525,1,0,0:0:0:50:drum-hitfinish1.wav
448,192,29525,1,2,0:0:0:0:
64,192,29847,1,2,0:0:0:0:
192,192,30008,1,12,0:0:0:0:
448,192,30331,1,6,0:0:0:0:
320,192,30654,1,12,0:0:0:0:
64,192,30815,1,2,0:0:0:0:
448,192,31138,1,2,0:0:0:0:
320,192,31299,1,12,0:0:0:0:
64,192,31621,1,6,0:0:0:0:
192,192,31944,1,12,0:0:0:0:
448,192,32105,1,2,0:0:0:0:
192,192,32428,1,2,0:0:0:0:
320,192,32589,1,12,0:0:0:0:
64,192,32912,1,6,0:0:0:0:
320,192,33234,1,8,0:0:0:0:
64,192,33396,1,2,0:0:0:0:
448,192,33396,1,0,0:0:0:50:drum-hitfinish1.wav
192,192,33718,1,2,0:0:0:0:
320,192,33879,1,8,0:0:0:0:
448,192,34202,1,8,0:0:0:0:
192,192,34525,1,8,0:0:0:0:
64,192,34686,1,0,0:0:0:50:drum-hitfinish1.wav
448,192,34686,1,2,0:0:0:0:
320,192,35008,1,2,0:0:0:0:
64,192,35170,1,12,0:0:0:0:
192,192,35492,1,6,0:0:0:0:
320,192,35815,1,8,0:0:0:0:
64,192,35976,1,2,0:0:0:0:
448,192,35976,1,0,0:0:0:50:drum-hitfinish1.wav
192,192,36460,1,8,0:0:0:0:
448,192,36621,1,2,0:0:0:0:
64,192,36621,1,0,0:0:0:50:drum-hitfinish1.wav
448,192,37105,1,8,0:0:0:0:
64,192,37267,1,0,0:0:0:50:drum-hitfinish1.wav
320,192,37267,1,2,0:0:0:0:
192,192,37589,1,2,0:0:0:0:
448,192,37750,1,12,0:0:0:0:
320,192,38073,1,6,0:0:0:0:
64,192,38396,1,8,0:0:0:0:
192,192,38557,1,2,0:0:0:0:
448,192,38557,1,0,0:0:0:50:drum-hitfinish1.wav
448,192,39041,1,8,0:0:0:0:
320,192,39202,1,2,0:0:0:0:
64,192,39202,1,0,0:0:0:50:drum-hitfinish1.wav
64,192,39686,1,8,0:0:0:0:
448,192,39847,1,0,0:0:0:50:drum-hitfinish1.wav
192,192,39847,1,2,0:0:0:0:
320,192,40170,1,2,0:0:0:0:
64,192,40331,1,12,0:0:0:0:
448,192,40654,1,6,0:0:0:0:
320,192,40976,1,8,0:0:0:0:
64,192,41138,1,2,0:0:0:0:
192,192,41138,1,0,0:0:0:50:drum-hitfinish1.wav
192,192,41621,1,8,0:0:0:0:
320,192,41783,1,0,0:0:0:50:drum-hitfinish1.wav
448,192,41783,1,2,0:0:0:0:
320,192,42267,1,8,0:0:0:0:
64,192,42428,1,0,0:0:0:50:drum-hitfinish1.wav
448,192,42428,1,2,0:0:0:0:
192,192,42750,1,2,0:0:0:0:
320,192,42912,1,12,0:0:0:0:
192,192,43234,1,6,0:0:0:0:
448,192,43557,1,8,0:0:0:0:
320,192,43718,1,2,0:0:0:0:
64,192,43718,1,0,0:0:0:50:drum-hitfinish1.wav
192,192,44041,1,2,0:0:0:0:
320,192,44202,1,8,0:0:0:0:
64,192,44525,1,8,0:0:0:0:
320,192,44847,1,0,0:0:0:50:LR_Tom Hit 2.wav
448,192,45008,1,2,0:0:0:0:
64,192,45008,1,0,0:0:0:50:drum-hitfinish1.wav
320,192,45331,1,2,0:0:0:0:
64,192,45492,1,12,0:0:0:0:
192,192,45815,1,6,0:0:0:0:
320,192,46138,1,8,0:0:0:0:
64,192,46299,1,0,0:0:0:50:drum-hitfinish1.wav
448,192,46299,1,2,0:0:0:0:
192,192,46783,1,8,0:0:0:0:
64,192,46944,1,0,0:0:0:50:drum-hitfinish1.wav
448,192,46944,1,2,0:0:0:0:
320,192,47428,1,8,0:0:0:0:
64,192,47589,1,2,0:0:0:0:
448,192,47589,1,0,0:0:0:50:drum-hitfinish1.wav
192,192,47912,1,2,0:0:0:0:
320,192,48073,1,12,0:0:0:0:
64,192,48396,1,6,0:0:0:0:
320,192,48718,1,8,0:0:0:0:
192,192,48879,1,2,0:0:0:0:
448,192,48879,1,0,0:0:0:50:drum-hitfinish1.wav
320,192,49202,1,2,0:0:0:0:
192,192,49363,1,8,0:0:0:0:
64,192,49686,1,8,0:0:0:0:
448,192,50008,1,8,0:0:0:0:
192,192,50331,1,2,0:0:0:0:
320,192,50331,1,0,0:0:0:50:drum-hitfinish1.wav
64,192,50654,1,12,0:0:0:0:
320,192,50976,1,6,0:0:0:0:
192,192,51299,1,8,0:0:0:0:
64,192,51460,1,0,0:0:0:50:drum-hitfinish1.wav
448,192,51460,1,2,0:0:0:0:
320,192,51944,1,8,0:0:0:0:
64,192,52105,1,0,0:0:0:50:drum-hitfinish1.wav
448,192,52105,1,2,0:0:0:0:
320,192,52589,1,8,0:0:0:0:
64,192,52750,1,0,0:0:0:50:drum-hitfinish1.wav
192,192,52750,1,2,0:0:0:0:
448,192,53073,1,2,0:0:0:0:
320,192,53234,1,8,0:0:0:0:
64,192,53557,1,8,0:0:0:0:
320,192,53879,1,8,0:0:0:0:
192,192,54041,1,0,0:0:0:50:drum-hitfinish1.wav
448,192,54041,1,2,0:0:0:0:
192,192,54525,1,8,0:0:0:0:
320,192,54686,1,0,0:0:0:50:drum-hitfinish1.wav
64,192,54686,1,2,0:0:0:0:
192,192,55008,1,8,0:0:0:0:
320,192,55170,1,8,0:0:0:0:
448,192,55331,1,0,0:0:0:50:drum-hitfinish1.wav
64,192,55331,1,2,0:0:0:0:
320,192,55654,1,8,0:0:0:0:
64,192,55815,1,8,0:0:0:0:
192,192,56138,1,8,0:0:0:0:
320,192,56460,1,0,0:0:0:50:LR_Tom Hit 2.wav
448,192,56621,1,0,0:0:0:50:drum-hitfinish1.wav
64,192,56621,1,2,0:0:0:0:
192,192,56944,1,2,0:0:0:0:
320,192,57105,1,12,0:0:0:0:
448,192,57428,1,12,0:0:0:0:
320,192,57750,1,12,0:0:0:0:
192,192,58073,1,12,0:0:0:0:
448,192,58396,1,12,0:0:0:0:
192,192,58718,128,12,59041:0:0:0:0:
320,192,59041,1,8,0:0:0:0:
448,192,59202,1,8,0:0:0:0:
64,192,59202,1,0,0:0:0:50:drum-hitfinish1.wav
320,192,59525,1,2,0:0:0:0:
192,192,59686,1,12,0:0:0:0:
64,192,60008,1,12,0:0:0:0:
320,192,60331,1,12,0:0:0:0:
192,192,60654,1,12,0:0:0:0:
448,192,60976,1,12,0:0:0:0:
64,192,61299,128,12,61621:0:0:0:0:
448,192,61621,1,8,0:0:0:0:
192,192,61783,1,0,0:0:0:50:drum-hitfinish1.wav
320,192,61783,1,2,0:0:0:0:
64,192,62105,1,2,0:0:0:0:
320,192,62267,1,12,0:0:0:0:
448,192,62589,1,6,0:0:0:0:
320,192,62912,1,8,0:0:0:0:
64,192,63073,1,2,0:0:0:0:
448,192,63396,1,2,0:0:0:0:
192,192,63557,1,12,0:0:0:0:
64,192,63879,1,6,0:0:0:0:
448,192,64202,1,8,0:0:0:0:
64,192,64363,1,0,0:0:0:50:drum-hitfinish1.wav
320,192,64363,1,2,0:0:0:0:
192,192,64686,1,2,0:0:0:0:
320,192,64847,128,12,65170:0:0:0:0:
64,192,65170,128,12,65492:0:0:0:0:
448,192,65492,1,8,0:0:0:0:
192,192,65654,1,2,0:0:0:0:
320,192,65654,1,0,0:0:0:50:drum-hitfinish1.wav
64,192,65976,1,2,0:0:0:0:
320,192,66138,1,8,0:0:0:0:
448,192,66299,128,0,66621:0:0:0:50:LR_Tom Hit 2.wav
64,192,66621,1,8,0:0:0:0:
320,192,66783,1,8,0:0:0:0:
192,192,66944,1,2,0:0:0:0:
448,192,66944,1,0,0:0:0:50:drum-hitfinish1.wav
320,192,67267,1,2,0:0:0:0:
64,192,67428,1,12,0:0:0:0:
448,192,67750,5,12,0:0:0:0:
192,192,68073,1,12,0:0:0:0:
448,192,68396,1,12,0:0:0:0:
64,192,68718,1,12,0:0:0:0:
320,192,69041,128,12,69363:0:0:0:0:
64,192,69363,1,8,0:0:0:0:
192,192,69525,1,8,0:0:0:0:
448,192,69525,1,0,0:0:0:50:drum-hitfinish1.wav
320,192,69847,1,2,0:0:0:0:
192,192,70008,1,12,0:0:0:0:
64,192,70331,1,12,0:0:0:0:
448,192,70654,1,12,0:0:0:0:
320,192,70976,1,12,0:0:0:0:
64,192,71299,1,12,0:0:0:0:
192,192,71621,128,12,71944:0:0:0:0:
448,192,71944,1,8,0:0:0:0:
64,192,72105,1,2,0:0:0:0:
320,192,72105,1,0,0:0:0:50:drum-hitfinish1.wav
192,192,72428,1,2,0:0:0:0:
320,192,72589,1,12,0:0:0:0:
64,192,72912,1,6,0:0:0:0:
320,192,73234,1,8,0:0:0:0:
192,192,73396,1,0,0:0:0:50:drum-hitfinish1.wav
448,192,73396,1,2,0:0:0:0:
320,192,73718,1,2,0:0:0:0:
192,192,73879,1,12,0:0:0:0:
64,192,74202,1,6,0:0:0:0:
448,192,74525,1,8,0:0:0:0:
320,192,74686,1,0,0:0:0:50:drum-hitfinish1.wav
64,192,74686,1,2,0:0:0:0:
448,192,75008,1,2,0:0:0:0:
192,192,75170,128,12,75492:0:0:0:0:
448,192,75492,128,12,75815:0:0:0:0:
192,192,75815,1,8,0:0:0:0:
64,192,75976,1,0,0:0:0:50:drum-hitfinish1.wav
320,192,75976,1,2,0:0:0:0:
448,192,76299,1,8,0:0:0:0:
192,192,76621,1,8,0:0:0:0:
64,192,76944,1,0,0:0:0:50:LR_Tom Hit 1.wav
448,192,77267,1,0,0:0:0:50:LR_Tom Hit 3.wav
192,192,77428,1,12,0:0:0:0:
64,192,77750,1,12,0:0:0:0:
192,192,78073,1,12,0:0:0:0:
448,192,78234,1,2,0:0:0:0:
64,192,78396,1,12,0:0:0:0:
320,192,78718,1,12,0:0:0:0:
192,192,79041,1,12,0:0:0:0:
320,192,79363,1,12,0:0:0:0:
448,192,79525,1,2,0:0:0:0:
192,192,79686,1,12,0:0:0:0:
64,192,80008,1,12,0:0:0:0:
192,192,80331,1,12,0:0:0:0:
320,192,80654,1,12,0:0:0:0:
64,192,80815,1,2,0:0:0:0:
448,192,80976,1,12,0:0:0:0:
192,192,81299,1,12,0:0:0:0:
320,192,81621,1,12,0:0:0:0:
192,192,81944,1,12,0:0:0:0:
448,192,82105,1,2,0:0:0:0:
320,192,82267,1,12,0:0:0:0:
64,192,82589,1,12,0:0:0:0:
448,192,82912,1,12,0:0:0:0:
64,192,83234,1,12,0:0:0:0:
320,192,83396,1,2,0:0:0:0:
448,192,83557,1,12,0:0:0:0:
192,192,83879,1,12,0:0:0:0:
320,192,84202,1,12,0:0:0:0:
192,192,84525,1,12,0:0:0:0:
448,192,84686,1,2,0:0:0:0:
320,192,84847,1,12,0:0:0:0:
64,192,85170,1,12,0:0:0:0:
192,192,85492,1,12,0:0:0:0:
448,192,85815,1,12,0:0:0:0:
320,192,86138,1,8,0:0:0:0:
64,192,86299,1,0,0:0:0:50:drum-hitfinish1.wav
448,192,86299,128,2,86621:0:0:0:0:
192,192,86621,128,8,86944:0:0:0:0:
448,192,86944,128,8,87267:0:0:0:0:
64,192,87267,1,8,0:0:0:0:
320,192,87428,1,8,0:0:0:0:
192,192,87589,128,2,88718:0:0:0:0:
448,192,87589,1,0,0:0:0:50:drum-hitfinish1.wav
320,192,88718,1,8,0:0:0:0:
64,192,88879,1,2,0:0:0:0:
448,192,88879,1,0,0:0:0:50:drum-hitfinish1.wav
192,192,89202,1,8,0:0:0:0:
448,192,89363,1,8,0:0:0:0:
320,192,89525,128,2,90331:0:0:0:0:
64,192,89525,1,0,0:0:0:50:drum-hitfinish1.wav
