osu file format v14

[General]
AudioFilename: work.mp3
AudioLeadIn: 0
PreviewTime: 56912
Countdown: 0
SampleSet: Soft
StackLeniency: 0.7
Mode: 0
LetterboxInBreaks: 0
WidescreenStoryboard: 0

[Editor]
Bookmarks: 4153,14637,57056,67298,67379,77863
DistanceSpacing: 3.3
BeatDivisor: 4
GridSize: 32
TimelineZoom: 1.7

[Metadata]
Title:Gugutto Work* (Short Ver.)
TitleUnicode:ググッとワーク☆彡 (Short Ver.)
Artist:fourfolium
ArtistUnicode:fourfolium
Creator:Doormat
Version:Pentori's Insane
Source:NEW GAME! -THE CHALLENGE STAGE!-
Tags:Narcissu Pentori Evanescent- joker- Irohas MugiwaraSekai [C_u_r_i] Curi フォーフォリウム ニューゲーム ザ チャレンジステージ opening game size takada yuuki 高田憂希 suzukaze aoba 涼風青葉 yamaguchi megumi 山口愛 takimoto hifumi 滝本ひふみ toda megumi 戸田めぐみ shinoda hazime 篠田はじめ ayumi takeo 竹尾歩美 iizima yun 飯島ゆん
BeatmapID:1206116
BeatmapSetID:568914

[Difficulty]
HPDrainRate:5.9
CircleSize:4
OverallDifficulty:7.1
ApproachRate:9
SliderMultiplier:1.46
SliderTickRate:1

[Events]
//Background and Video events
0,0,"newgame_background.png",0,0
//Break Periods
//Storyboard Layer 0 (Background)
//Storyboard Layer 1 (Fail)
//Storyboard Layer 2 (Pass)
//Storyboard Layer 3 (Foreground)
//Storyboard Sound Samples

[TimingPoints]
380,322.58064516129,4,2,1,60,1,0
863,-111.111111111111,4,2,1,60,0,0
1509,-100,4,2,1,65,0,0
2154,-100,4,2,1,70,0,0
2799,-100,4,2,1,75,0,0
3444,-100,4,2,1,80,0,0
4089,-100,4,2,1,85,0,1
14573,-100,4,2,1,85,0,0
24734,-111.111111111111,4,2,1,60,0,0
45379,-111.111111111111,4,2,1,50,0,0
53121,-111.111111111111,4,2,1,60,0,0
55057,-100,4,2,1,60,0,0
56992,-100,4,2,1,85,0,1
67234,-100,4,2,1,85,0,0
67315,-100,4,2,1,85,0,1
77799,-100,4,2,1,85,0,0
87960,-111.111111111111,4,2,1,60,0,0
89250,-111.111111111111,4,2,1,85,0,0
90541,-111.111111111111,4,2,1,5,0,0

[Colours]
Combo1 : 247,190,101
Combo2 : 247,150,229
Combo3 : 252,246,181
Combo4 : 78,184,238

[HitObjects]
174,218,863,6,0,L|167:302,1,65.6999979949952,0|8,1:0|0:0,0:0:0:0:
87,154,1186,2,0,L|80:238,1,65.6999979949952,0|8,1:0|0:0,0:0:0:0:
9,102,1509,6,0,P|63:63|143:79,1,146,4|0,0:0|1:0,0:0:0:0:
200,136,1992,1,8,0:0:0:0:
287,43,2154,6,0,L|301:212,1,146,4|0,0:0|1:0,0:0:0:0:
240,257,2638,1,8,0:0:0:0:
396,279,2799,6,0,B|348:271|348:271|304:281|304:281|246:271,1,146,4|0,0:0|1:0,0:0:0:0:
355,360,3283,1,8,0:0:0:0:
491,248,3444,6,0,P|501:210|492:174,2,73,4|8|10,0:0|0:0|0:0,0:0:0:0:
491,248,3928,1,10,0:0:0:0:
392,140,4089,6,0,P|466:151|519:102,1,146,6|0,0:0|0:0,0:0:0:0:
434,12,4573,2,0,P|394:16|351:24,1,73,8|0,0:0|0:0,0:0:0:0:
245,104,4896,2,0,P|209:97|172:94,1,73,8|0,0:0|0:0,0:0:0:0:
247,14,5218,1,8,0:0:0:0:
326,154,5379,6,0,P|317:225|307:322,1,146,0|0,0:0|0:0,0:0:0:0:
435,376,5863,2,0,P|430:327|426:282,1,73,8|2,0:0|0:0,0:0:0:0:
419,214,6186,1,8,0:0:0:0:
298,308,6347,1,2,0:0:0:0:
407,222,6509,1,8,0:0:0:0:
251,148,6670,6,0,P|187:136|117:202,1,146,6|0,0:0|0:0,0:0:0:0:
184,320,7154,2,0,P|189:276|193:229,1,73,8|0,0:0|0:0,0:0:0:0:
31,184,7476,2,0,P|34:220|38:256,1,73,8|0,0:0|0:0,0:0:0:0:
130,191,7799,1,8,0:0:0:0:
108,365,7960,6,0,L|280:345,1,146,0|0,0:0|0:0,0:0:0:0:
372,384,8444,2,0,P|394:353|398:308,1,73,8|0,0:0|0:0,0:0:0:0:
384,226,8767,1,8,0:0:0:0:
221,248,8928,2,0,L|294:256,1,73,0|8,0:0|0:0,0:0:0:0:
184,166,9250,6,0,P|138:215|148:299,1,146,6|0,0:0|0:0,0:0:0:0:
301,265,9734,2,0,P|302:229|307:187,1,73,8|0,0:0|0:0,0:0:0:0:
377,114,10057,2,0,P|331:97|292:87,1,73,8|0,0:0|0:0,0:0:0:0:
219,140,10379,1,8,0:0:0:0:
425,196,10541,6,0,L|418:47,1,146,4|0,0:0|0:0,0:0:0:0:
293,35,11025,1,8,0:0:0:0:
219,140,11186,2,0,B|176:152|131:128|131:128|107:163|55:169,1,146,0|0,0:0|0:0,0:0:0:0:
59,80,11670,1,8,0:0:0:0:
151,223,11831,6,0,L|144:368,1,146,6|0,0:0|0:0,0:0:0:0:
242,320,12315,2,0,P|284:321|317:339,1,73,10|0,0:0|0:0,0:0:0:0:
405,294,12638,2,0,P|425:330|426:368,1,73,10|0,0:0|0:0,0:0:0:0:
494,255,12960,1,10,0:0:0:0:
364,191,13121,6,0,B|277:177|277:177|207:210,1,146,4|0,0:0|3:0,0:0:0:0:
224,201,13525,1,0,3:0:0:0:
224,201,13605,1,0,3:0:0:0:
184,300,13767,1,0,3:0:0:0:
136,149,13928,2,0,P|133:195|130:241,1,73,8|0,0:0|0:0,0:0:0:0:
297,335,14250,2,0,P|295:307|292:262,1,73,8|0,0:0|0:0,0:0:0:0:
276,96,14573,6,0,P|329:59|426:91,1,146,4|10,0:0|0:1,0:0:0:0:
411,81,15218,2,0,L|404:162,1,73,8|2,0:0|0:1,0:0:0:0:
512,134,15541,1,10,0:1:0:0:
480,307,15702,2,0,L|473:234,1,73,2|8,0:1|0:0,0:0:0:0:
366,254,16025,5,2,0:1:0:0:
296,172,16186,2,0,P|245:159|198:182,1,73,10|2,0:1|0:1,0:0:0:0:
148,96,16509,2,0,P|111:133|107:185,1,73,10|2,0:1|0:1,0:0:0:0:
156,307,16831,2,0,L|163:234,1,73,10|0,0:1|0:0,0:0:0:0:
10,133,17154,6,0,L|22:278,1,146,4|10,0:0|0:1,0:0:0:0:
17,287,17799,2,0,P|60:273|101:288,1,73,10|2,0:1|0:1,0:0:0:0:
179,363,18121,1,10,0:1:0:0:
179,363,18283,2,0,P|222:377|263:362,1,73,2|8,0:1|0:0,0:0:0:0:
322,291,18605,5,2,0:1:0:0:
417,380,18767,2,0,P|413:336|407:292,1,73,10|2,0:1|0:1,0:0:0:0:
453,169,19089,1,10,0:1:0:0:
512,260,19250,1,2,0:1:0:0:
351,205,19412,2,0,P|303:202|258:227,1,73,10|0,0:1|0:0,0:0:0:0:
96,125,19734,6,0,P|156:147|242:91,1,146,4|10,0:0|0:1,0:0:0:0:
232,122,20379,2,0,L|239:41,1,73,10|2,0:1|0:1,0:0:0:0:
318,0,20702,1,10,0:1:0:0:
391,107,20863,2,0,P|351:97|310:91,1,73,2|8,0:1|0:0,0:0:0:0:
150,78,21186,5,2,0:1:0:0:
238,49,21347,2,0,L|231:130,1,73,10|2,0:1|0:1,0:0:0:0:
278,267,21670,1,10,0:1:0:0:
278,267,21831,1,2,0:1:0:0:
134,215,21992,2,0,P|185:202|224:220,1,73,10|0,0:1|0:0,0:0:0:0:
100,300,22315,6,0,P|55:260|52:174,1,146,4|10,0:0|0:1,0:0:0:0:
50,178,22960,1,10,0:1:0:0:
125,124,23121,1,2,0:1:0:0:
134,215,23283,1,10,0:1:0:0:
41,87,23444,6,0,L|197:72,1,146,4|0,1:2|1:0,0:0:0:0:
322,74,23928,1,0,1:0:0:0:
251,0,24089,1,0,1:0:0:0:
293,172,24250,1,0,1:0:0:0:
421,50,24412,1,0,1:0:0:0:
462,221,24573,1,0,1:0:0:0:
293,172,24734,6,0,B|258:178|229:160|229:160|202:180|161:178,1,131.39999598999,4|0,0:0|0:0,0:0:0:0:
93,123,25218,2,0,P|55:161|54:220,1,98.5499969924928,8|8,0:0|0:0,0:0:0:0:
69,216,25541,2,0,P|63:264|58:302,1,65.6999979949952,2|0,0:0|0:0,0:0:0:0:
131,351,25863,1,8,0:0:0:0:
220,262,26025,6,0,P|279:235|352:269,1,131.39999598999,2|0,0:0|0:0,0:0:0:0:
423,332,26509,2,0,L|438:221,1,98.5499969924928,8|8,0:0|0:0,0:0:0:0:
455,221,26831,2,0,L|446:149,1,65.6999979949952,2|0,0:0|0:0,0:0:0:0:
428,47,27154,1,8,0:0:0:0:
461,146,27315,6,0,L|305:131,1,131.39999598999,2|0,0:0|0:0,0:0:0:0:
185,169,27799,1,8,0:0:0:0:
244,91,27960,2,0,L|250:51,2,32.8499989974976,0|8|2,0:0|0:0|0:0,0:0:0:0:
271,211,28283,2,0,L|258:303,1,65.6999979949952,0|8,0:0|0:0,0:0:0:0:
59,323,28605,6,0,P|113:282|182:297,1,131.39999598999,6|0,0:0|0:0,0:0:0:0:
132,364,29089,1,8,0:0:0:0:
59,323,29250,2,0,P|46:283|53:243,1,65.6999979949952,0|2,0:0|0:0,0:0:0:0:
148,205,29573,2,0,P|161:165|154:125,1,65.6999979949952,0|8,0:0|0:0,0:0:0:0:
0,56,29896,6,0,B|79:38|57:81|141:58,1,131.39999598999,6|0,0:0|0:0,0:0:0:0:
214,17,30379,2,0,P|263:7|322:52,1,98.5499969924928,8|8,0:0|0:0,0:0:0:0:
312,49,30702,2,0,P|301:98|314:133,1,65.6999979949952,2|0,0:0|0:0,0:0:0:0:
397,138,31025,1,8,0:0:0:0:
486,77,31186,6,0,P|520:128|501:201,1,131.39999598999,2|0,0:0|0:0,0:0:0:0:
416,233,31670,2,0,B|370:220|370:220|297:235,1,98.5499969924928,8|8,0:0|0:0,0:0:0:0:
307,249,31992,2,0,P|310:296|313:337,1,65.6999979949952,2|0,0:0|0:0,0:0:0:0:
374,384,32315,1,8,0:0:0:0:
210,353,32476,6,0,P|213:290|220:204,1,131.39999598999,2|0,0:0|0:0,0:0:0:0:
161,98,32960,1,8,0:0:0:0:
128,189,33121,2,0,L|69:182,2,32.8499989974976,0|8|2,0:0|0:0|0:0,0:0:0:0:
252,131,33444,2,0,P|249:98|247:65,1,65.6999979949952,0|8,0:0|0:0,0:0:0:0:
459,93,33767,6,0,B|414:86|414:86|378:96|378:96|320:88,1,131.39999598999,6|0,0:0|0:0,0:0:0:0:
421,170,34250,1,8,0:0:0:0:
368,12,34412,1,0,0:0:0:0:
252,131,34573,2,0,P|239:182|250:214,2,65.6999979949952,8|4|8,0:0|0:3|0:0,0:0:0:0:
303,242,35057,6,0,L|143:222,1,131.39999598999,6|0,0:0|0:0,0:0:0:0:
85,273,35541,1,8,0:0:0:0:
19,199,35702,2,0,L|25:156,2,32.8499989974976,0|8|2,0:0|0:0|0:0,0:0:0:0:
92,280,36025,2,0,P|95:312|98:345,1,65.6999979949952,0|8,0:0|0:0,0:0:0:0:
223,306,36347,6,0,P|282:289|349:332,1,131.39999598999,6|0,0:0|0:0,0:0:0:0:
410,249,36831,1,8,0:0:0:0:
497,352,36992,2,0,P|502:297|514:213,1,131.39999598999,6|0,0:0|0:0,0:0:0:0:
491,124,37476,1,8,0:0:0:0:
367,159,37638,6,0,B|336:147|296:140|296:140|270:152|227:170,1,131.39999598999,6|0,0:0|0:0,0:0:0:0:
308,229,38121,2,0,L|297:326,1,98.5499969924928,8|8,0:0|0:0,0:0:0:0:
310,345,38444,1,2,0:0:0:0:
194,294,38605,2,0,L|117:307,1,65.6999979949952,0|8,0:0|0:0,0:0:0:0:
308,229,38928,6,0,L|437:251,1,131.39999598999,6|0,0:0|0:0,0:0:0:0:
509,165,39412,1,8,0:0:0:0:
423,71,39573,2,0,P|412:118|427:160,1,65.6999979949952,6|0,0:0|0:0,0:0:0:0:
308,229,39896,2,0,P|310:196|299:165,1,65.6999979949952,0|8,0:0|0:0,0:0:0:0:
104,153,40218,6,0,P|165:107|239:123,1,131.39999598999,6|0,0:0|0:0,0:0:0:0:
299,165,40702,1,8,0:0:0:0:
379,108,40863,2,0,L|418:112,2,32.8499989974976,0|8|2,0:0|0:0|0:0,0:0:0:0:
303,16,41186,2,0,L|212:25,1,65.6999979949952,0|8,0:0|0:0,0:0:0:0:
86,96,41509,6,0,L|235:112,1,131.39999598999,6|0,0:0|0:0,0:0:0:0:
279,185,41992,1,8,0:0:0:0:
192,318,42154,2,0,P|163:268|200:182,1,131.39999598999,6|0,0:0|0:0,0:0:0:0:
285,176,42638,1,8,0:0:0:0:
377,271,42799,6,0,L|228:250,1,131.39999598999,6|0,0:0|0:0,0:0:0:0:
116,353,43283,2,0,L|108:247,1,98.5499969924928,8|8,0:0|0:0,0:0:0:0:
124,237,43605,1,2,0:0:0:0:
15,158,43767,2,0,P|52:137|100:147,1,65.6999979949952,0|8,0:0|0:0,0:0:0:0:
241,240,44089,6,0,P|279:196|272:116,1,131.39999598999,6|0,0:0|0:0,0:0:0:0:
169,48,44573,2,0,P|176:94|181:144,1,65.6999979949952,8|0,0:0|0:0,0:0:0:0:
390,77,44896,2,0,P|383:123|378:173,1,65.6999979949952,8|4,0:0|0:3,0:0:0:0:
241,240,45218,1,8,0:0:0:0:
326,363,45379,6,0,B|350:321|350:321|338:224,1,131.39999598999,6|0,0:0|0:0,0:0:0:0:
453,314,45863,1,8,0:0:0:0:
509,233,46025,2,0,P|472:228|423:224,1,65.6999979949952,2|0,0:0|0:0,0:0:0:0:
259,304,46347,2,0,P|222:299|173:295,1,65.6999979949952,0|8,0:0|0:0,0:0:0:0:
91,109,46670,6,0,P|130:156|97:242,1,131.39999598999,6|0,0:0|0:0,0:0:0:0:
4,144,47154,1,8,0:0:0:0:
145,33,47315,2,0,L|293:47,1,131.39999598999,6|0,0:0|0:0,0:0:0:0:
395,4,47799,1,8,0:0:0:0:
348,221,47960,6,0,B|355:173|355:173|346:141|346:141|353:91,1,131.39999598999,6|0,0:0|0:0,0:0:0:0:
269,181,48444,1,8,0:0:0:0:
432,131,48605,2,0,P|468:127|501:138,1,65.6999979949952,2|0,0:0|0:0,0:0:0:0:
262,189,48928,2,0,P|230:197|198:193,1,65.6999979949952,0|8,0:0|0:0,0:0:0:0:
98,20,49250,6,0,P|104:70|114:166,1,131.39999598999,6|0,0:0|0:0,0:0:0:0:
12,262,49734,2,0,P|17:229|20:196,1,65.6999979949952,10|0,0:0|0:0,0:0:0:0:
190,262,50057,1,10,1:2:0:0:
106,162,50218,1,0,1:2:0:0:
52,341,50379,2,0,P|104:336|148:329,1,65.6999979949952,14|2,1:2|1:2,0:0:0:0:
285,383,50702,6,0,P|311:339|281:249,1,131.39999598999,6|8,0:0|0:0,0:0:0:0:
374,199,51186,2,0,P|406:203|439:205,1,65.6999979949952,2|0,0:0|0:0,0:0:0:0:
287,97,51509,2,0,L|277:175,1,65.6999979949952,0|8,0:0|0:0,0:0:0:0:
358,40,51831,6,0,P|300:7|228:29,1,131.39999598999,6|0,0:0|0:0,0:0:0:0:
166,169,52315,1,8,0:0:0:0:
58,79,52476,2,0,L|208:89,1,131.39999598999,6|0,0:0|0:0,0:0:0:0:
287,97,52960,1,8,0:0:0:0:
196,282,53121,6,0,P|156:230|170:161,1,131.39999598999,6|0,0:0|0:0,0:0:0:0:
302,255,53605,2,0,P|297:301|295:352,1,65.6999979949952,8|0,0:0|0:0,0:0:0:0:
381,202,53928,1,8,0:0:0:0:
479,276,54089,2,0,P|476:243|472:210,1,65.6999979949952,0|8,0:0|0:0,0:0:0:0:
512,357,54412,6,0,P|468:321|379:337,1,131.39999598999,4|0,0:0|0:0,0:0:0:0:
312,378,54896,1,8,0:0:0:0:
239,225,55057,6,0,P|247:153|257:66,1,146,4|0,0:0|0:0,0:0:0:0:
148,168,55541,1,8,0:0:0:0:
340,136,55702,6,0,P|378:141|429:147,1,73,4|0,0:0|0:0,0:0:0:0:
256,80,56025,1,0,0:0:0:0:
390,35,56187,1,8,0:3:0:0:
325,232,56347,1,8,0:3:0:0:
509,187,56509,1,8,0:3:0:0:
509,187,56589,1,8,0:3:0:0:
509,187,56670,2,0,P|504:151|499:115,1,73,8|8,0:3|0:3,0:0:0:0:
447,343,56992,6,0,L|302:325,1,146,6|0,0:0|0:0,0:0:0:0:
134,370,57476,2,0,P|129:327|119:282,1,73,8|0,0:0|0:0,0:0:0:0:
274,203,57799,1,8,0:0:0:0:
219,283,57960,1,0,0:0:0:0:
137,160,58121,1,8,0:0:0:0:
369,138,58283,6,0,P|362:173|358:210,1,73,0|8,0:0|0:0,0:0:0:0:
468,114,58605,1,0,0:0:0:0:
312,50,58767,2,0,L|408:42,1,73,8|2,0:0|0:0,0:0:0:0:
265,144,59089,1,8,0:0:0:0:
169,11,59250,2,0,P|176:46|180:83,1,73,2|8,0:0|0:0,0:0:0:0:
61,232,59573,6,0,B|137:208|137:252|217:228,1,146,6|0,0:0|0:0,0:0:0:0:
265,144,60057,2,0,P|306:137|345:152,1,73,8|0,0:0|0:0,0:0:0:0:
413,308,60379,2,0,P|420:263|431:212,1,73,8|0,0:0|0:0,0:0:0:0:
496,157,60702,1,8,0:0:0:0:
390,30,60863,6,0,P|346:58|340:155,1,146,0|0,0:0|0:0,0:0:0:0:
258,34,61347,1,8,0:0:0:0:
410,111,61509,1,2,0:0:0:0:
267,204,61670,2,0,L|172:185,1,73,8|2,0:0|0:0,0:0:0:0:
120,111,61992,1,8,0:0:0:0:
38,287,62154,6,0,B|64:271|96:269|96:269|137:298|191:282,1,146,6|0,0:0|0:0,0:0:0:0:
267,204,62638,2,0,P|282:247|272:288,1,73,8|0,0:0|0:0,0:0:0:0:
180,148,62960,2,0,P|209:113|250:101,1,73,8|0,0:0|0:0,0:0:0:0:
336,124,63283,1,8,0:0:0:0:
433,18,63444,6,0,L|423:178,1,146,0|0,0:0|0:0,0:0:0:0:
512,103,63928,1,8,0:0:0:0:
368,226,64089,2,0,P|425:192|505:217,1,146,0|0,0:0|0:0,0:0:0:0:
440,280,64573,1,8,0:0:0:0:
276,155,64734,6,0,L|286:315,1,146,6|0,0:0|0:0,0:0:0:0:
104,322,65218,1,10,0:0:0:0:
155,223,65379,1,0,0:0:0:0:
190,376,65541,2,0,P|192:339|195:303,1,73,10|0,0:0|0:0,0:0:0:0:
66,239,65863,1,10,0:0:0:0:
231,142,66025,6,0,P|193:138|147:134,1,73,4|0,0:0|0:0,0:0:0:0:
315,232,66347,2,0,P|353:228|399:224,1,73,0|8,0:0|0:3,0:0:0:0:
487,149,66670,1,8,0:3:0:0:
461,314,66831,1,8,0:3:0:0:
394,130,66992,1,2,0:0:0:0:
511,238,67154,1,2,0:0:0:0:
282,316,67315,6,0,P|236:274|234:194,1,146,6|0,0:0|0:0,0:0:0:0:
182,352,67799,1,8,0:0:0:0:
315,232,67960,1,0,0:0:0:0:
145,176,68121,2,0,P|109:180|65:190,1,73,8|0,0:0|0:0,0:0:0:0:
117,89,68444,1,8,0:0:0:0:
37,264,68605,6,0,P|28:179|19:88,1,146,0|0,0:0|0:0,0:0:0:0:
131,6,69089,2,0,P|92:6|59:27,1,73,8|2,0:0|0:0,0:0:0:0:
145,176,69412,1,8,0:0:0:0:
224,36,69573,1,2,0:0:0:0:
117,89,69734,1,8,0:0:0:0:
277,172,69896,6,0,B|321:178|362:149|362:149|390:181|443:180,1,146,6|0,0:0|0:0,0:0:0:0:
512,200,70379,2,0,P|508:159|500:105,1,73,8|0,0:0|0:0,0:0:0:0:
352,249,70702,2,0,P|347:285|343:321,1,73,8|0,0:0|0:0,0:0:0:0:
419,384,71025,1,8,0:0:0:0:
244,318,71186,6,0,P|171:306|112:356,1,146,0|0,0:0|0:0,0:0:0:0:
48,241,71670,2,0,P|40:196|57:153,1,73,8|0,0:0|0:0,0:0:0:0:
141,74,71992,1,8,0:0:0:0:
240,185,72154,2,0,L|161:170,1,73,0|8,0:0|0:0,0:0:0:0:
291,261,72476,6,0,P|324:218|312:130,1,146,6|0,0:0|0:0,0:0:0:0:
454,73,72960,2,0,P|448:118|442:170,1,73,8|0,0:0|0:0,0:0:0:0:
512,267,73283,2,0,P|466:272|415:280,1,73,8|0,0:0|0:0,0:0:0:0:
291,261,73605,1,8,0:0:0:0:
409,357,73767,6,0,P|400:284|390:212,1,146,4|0,0:0|0:0,0:0:0:0:
283,270,74250,1,8,0:0:0:0:
195,132,74412,2,0,P|245:91|338:107,1,146,0|0,0:0|0:0,0:0:0:0:
411,51,74896,1,8,0:0:0:0:
277,182,75057,6,0,L|99:165,1,146,6|0,0:0|0:0,0:0:0:0:
10,16,75541,2,0,P|15:61|20:115,1,73,10|0,0:0|0:0,0:0:0:0:
37,270,75863,1,10,0:0:0:0:
123,181,76025,1,0,0:0:0:0:
0,167,76186,1,10,0:0:0:0:
143,287,76347,6,0,B|180:283|206:256|206:256|240:271|278:258,1,146,4|0,0:0|3:0,0:0:0:0:
278,257,76750,1,0,3:0:0:0:
278,257,76831,1,0,3:0:0:0:
356,195,76992,1,0,3:0:0:0:
245,107,77154,2,0,B|238:147|238:147|252:195,1,73,8|0,0:3|0:0,0:0:0:0:
435,233,77476,2,0,B|444:201|444:201|437:161,1,73,4|0,0:3|0:0,0:0:0:0:
509,19,77799,6,0,P|454:56|368:23,1,146,4|10,0:0|0:1,0:0:0:0:
375,27,78444,2,0,P|389:78|372:121,1,73,8|2,0:0|0:1,0:0:0:0:
323,155,78767,1,10,0:1:0:0:
230,69,78928,2,0,L|318:74,1,73,2|8,0:1|0:0,0:0:0:0:
405,177,79250,5,2,0:1:0:0:
295,241,79412,2,0,P|259:221|235:167,1,73,10|2,0:1|0:1,0:0:0:0:
137,128,79734,2,0,P|132:164|130:200,1,73,10|2,0:1|0:1,0:0:0:0:
30,259,80057,2,0,P|27:222|23:186,1,73,10|0,0:1|0:0,0:0:0:0:
20,364,80379,6,0,B|78:343|78:343|172:362,1,146,4|10,0:0|0:1,0:0:0:0:
170,353,81025,2,0,P|173:316|177:280,1,73,10|2,0:1|0:1,0:0:0:0:
209,155,81347,1,10,0:1:0:0:
260,246,81509,2,0,P|211:196|120:210,1,146,2|2,0:1|0:1,0:0:0:0:
18,95,81992,6,0,L|104:86,1,73,10|2,0:1|0:1,0:0:0:0:
209,155,82315,1,10,0:1:0:0:
159,23,82476,1,2,0:1:0:0:
48,181,82638,2,0,L|55:270,1,73,10|0,0:1|0:0,0:0:0:0:
209,155,82960,6,0,B|286:131|286:175|365:151,1,146,4|10,0:0|0:1,0:0:0:0:
359,144,83605,2,0,P|380:180|377:222,1,73,10|2,0:1|0:1,0:0:0:0:
307,284,83928,1,10,0:1:0:0:
431,328,84089,2,0,L|521:318,1,73,2|8,0:1|0:0,0:0:0:0:
512,153,84412,5,2,0:1:0:0:
452,218,84573,2,0,L|362:208,1,73,10|2,0:1|0:1,0:0:0:0:
278,183,84896,2,0,P|266:142|289:89,1,73,10|2,0:1|0:1,0:0:0:0:
307,284,85218,2,0,L|304:381,1,73,10|0,0:1|0:0,0:0:0:0:
81,333,85541,6,0,B|134:324|134:324|177:336|177:336|246:327,1,146,4|10,0:0|0:1,0:0:0:0:
233,321,86186,2,0,P|245:280|222:227,1,73,10|2,0:1|0:1,0:0:0:0:
164,161,86509,1,10,0:1:0:0:
328,193,86670,6,0,B|410:175|410:175|476:198,1,146,4|0,1:2|1:0,0:0:0:0:
332,104,87154,1,0,1:0:0:0:
404,263,87315,1,0,1:0:0:0:
506,122,87476,1,0,1:0:0:0:
328,193,87638,1,0,1:0:0:0:
491,284,87799,1,0,1:0:0:0:
284,288,87960,6,0,P|353:294|416:245,1,131.39999598999,4|0,0:0|0:0,0:0:0:0:
431,175,88444,2,0,L|421:96,1,65.6999979949952,0|0,0:0|0:0,0:0:0:0:
476,24,88767,2,0,P|446:9|394:17,1,65.6999979949952,0|0,0:0|0:0,0:0:0:0:
331,66,89089,5,8,0:0:0:0:
156,21,89250,1,4,0:0:0:0:
320,210,89573,5,0,1:0:0:0:
244,44,89734,1,0,1:0:0:0:
139,193,89896,1,4,1:2:0:0:
