osu file format v14

[General]
AudioFilename: work.mp3
AudioLeadIn: 0
PreviewTime: 56912
Countdown: 0
SampleSet: Soft
StackLeniency: 0.7
Mode: 0
LetterboxInBreaks: 0
WidescreenStoryboard: 0

[Editor]
DistanceSpacing: 1.1
BeatDivisor: 2
GridSize: 4
TimelineZoom: 0.8999999

[Metadata]
Title:Gugutto Work* (Short Ver.)
TitleUnicode:ググッとワーク☆彡 (Short Ver.)
Artist:fourfolium
ArtistUnicode:fourfolium
Creator:Doormat
Version:Narcissu's Normal
Source:NEW GAME! -THE CHALLENGE STAGE!-
Tags:Narcissu Pentori Evanescent- joker- Irohas MugiwaraSekai [C_u_r_i] Curi フォーフォリウム ニューゲーム ザ チャレンジステージ opening game size takada yuuki 高田憂希 suzukaze aoba 涼風青葉 yamaguchi megumi 山口愛 takimoto hifumi 滝本ひふみ toda megumi 戸田めぐみ shinoda hazime 篠田はじめ ayumi takeo 竹尾歩美 iizima yun 飯島ゆん
BeatmapID:1206115
BeatmapSetID:568914

[Difficulty]
HPDrainRate:3
CircleSize:3
OverallDifficulty:4
ApproachRate:5
SliderMultiplier:1
SliderTickRate:1

[Events]
//Background and Video events
0,0,"newgame_background.png",0,0
//Break Periods
//Storyboard Layer 0 (Background)
//Storyboard Layer 1 (Fail)
//Storyboard Layer 2 (Pass)
//Storyboard Layer 3 (Foreground)
//Storyboard Sound Samples

[TimingPoints]
380,322.58064516129,4,2,1,60,1,0
1509,-100,4,2,1,65,0,0
2154,-100,4,2,1,70,0,0
2799,-100,4,2,1,75,0,0
3444,-100,4,2,1,80,0,0
4089,-100,4,2,1,85,0,1
14573,-100,4,2,1,85,0,0
24734,-111.111111111111,4,2,1,60,0,0
45379,-111.111111111111,4,2,1,50,0,0
53121,-111.111111111111,4,2,1,60,0,0
56992,-100,4,2,1,85,0,1
67234,-100,4,2,1,85,0,0
67315,-100,4,2,1,85,0,1
77799,-100,4,2,1,85,0,0
87960,-100,4,2,1,60,0,0
89250,-100,4,2,1,85,0,0
90541,-100,4,2,1,5,0,0

[Colours]
Combo1 : 247,190,101
Combo2 : 247,150,229
Combo3 : 252,246,181
Combo4 : 78,184,238

[HitObjects]
64,284,863,5,0,1:0:0:0:
64,284,1025,2,0,L|180:280,1,100,8|8,0:0|0:0,0:0:0:0:
204,316,1509,6,0,P|260:268|352:276,1,150,4|8,0:0|0:0,0:0:0:0:
372,308,2154,2,0,L|488:300,1,99.9999999999999,4|0,0:0|1:0,0:0:0:0:
416,204,2799,2,0,L|412:40,1,150,4|8,0:0|0:0,0:0:0:0:
364,84,3444,2,0,P|308:84|256:56,1,99.9999999999999,4|10,0:0|0:0,0:0:0:0:
164,100,4089,6,0,P|84:100|24:160,1,150,6|8,0:0|0:0,0:0:0:0:
124,203,4896,1,8,0:0:0:0:
88,308,5218,1,8,0:0:0:0:
88,308,5379,2,0,L|264:300,1,150,0|8,0:0|0:0,0:0:0:0:
324,236,6186,1,8,0:0:0:0:
420,292,6509,1,8,0:0:0:0:
420,292,6670,6,0,P|464:260|480:160,1,150,6|8,0:0|0:0,0:0:0:0:
416,84,7476,2,0,L|308:76,1,99.9999999999999,8|8,0:0|0:0,0:0:0:0:
272,44,7960,2,0,B|168:48|168:48|120:80,1,150,0|8,0:0|0:0,0:0:0:0:
128,184,8767,1,8,0:0:0:0:
24,220,9089,1,8,0:0:0:0:
24,220,9250,6,0,L|16:376,1,150,6|8,0:0|0:0,0:0:0:0:
120,332,10057,1,8,0:0:0:0:
224,360,10379,1,8,0:0:0:0:
224,360,10541,2,0,P|304:328|336:264,1,150,4|8,0:0|0:0,0:0:0:0:
304,228,11186,2,0,L|312:128,1,99.9999999999999,0|0,0:0|0:0,0:0:0:0:
364,32,11831,6,0,P|440:20|512:64,1,150,6|10,0:0|0:0,0:0:0:0:
420,124,12638,1,10,0:0:0:0:
496,204,12960,1,10,0:0:0:0:
496,204,13121,2,0,L|500:320,1,99.9999999999999,4|0,0:0|3:0,0:0:0:0:
396,344,13767,2,0,P|336:304|236:328,1,150,0|8,3:0|0:0,0:0:0:0:
152,300,14573,6,0,L|144:200,1,99.9999999999999,4|10,0:0|0:1,0:0:0:0:
36,180,15218,2,0,L|28:80,1,99.9999999999999,8|10,0:0|0:1,0:0:0:0:
120,20,15863,1,8,0:0:0:0:
200,96,16186,1,10,0:1:0:0:
312,92,16509,1,10,0:1:0:0:
380,4,16831,1,10,0:1:0:0:
484,44,17154,6,0,P|504:96|500:168,1,99.9999999999999,4|10,0:0|0:1,0:0:0:0:
444,232,17799,2,0,P|435:287|395:347,1,99.9999999999999,10|10,0:1|0:1,0:0:0:0:
308,304,18444,1,8,0:0:0:0:
201,275,18767,1,10,0:1:0:0:
230,169,19089,1,10,0:1:0:0:
336,197,19412,1,10,0:1:0:0:
444,176,19734,6,0,B|473:126|473:126|483:74,1,99.9999999999999,4|10,0:0|0:1,0:0:0:0:
408,0,20379,2,0,B|378:49|378:49|368:101,1,99.9999999999999,10|10,0:1|0:1,0:0:0:0:
336,197,21025,1,8,0:0:0:0:
264,112,21347,1,10,0:1:0:0:
152,112,21670,1,10,0:1:0:0:
84,196,21992,1,10,0:1:0:0:
116,300,22315,6,0,L|220:296,1,99.9999999999999,4|10,0:0|0:1,0:0:0:0:
312,352,22960,2,0,L|424:332,1,99.9999999999999,10|10,0:1|0:1,0:0:0:0:
456,308,23444,2,0,P|484:232|460:132,1,150,4|0,1:2|1:0,0:0:0:0:
372,128,24250,1,0,1:0:0:0:
384,20,24573,1,0,1:0:0:0:
384,20,24734,6,0,L|224:28,1,134.999995880127,4|8,0:0|0:0,0:0:0:0:
216,120,25541,2,0,P|180:148|108:156,1,89.999997253418,2|8,0:0|0:0,0:0:0:0:
88,152,26025,2,0,P|40:200|40:296,1,134.999995880127,2|8,0:0|0:0,0:0:0:0:
92,340,26831,2,0,L|192:336,1,89.999997253418,2|8,0:0|0:0,0:0:0:0:
212,296,27315,6,0,L|376:304,1,134.999995880127,2|8,0:0|0:0,0:0:0:0:
444,312,28121,1,2,0:0:0:0:
404,220,28444,1,8,0:0:0:0:
404,220,28605,2,0,L|408:100,1,89.999997253418,6|0,0:0|0:0,0:0:0:0:
312,104,29250,2,0,L|308:224,1,89.999997253418,0|0,0:0|0:0,0:0:0:0:
212,212,29896,6,0,L|216:64,1,134.999995880127,6|8,0:0|0:0,0:0:0:0:
120,56,30702,2,0,P|80:76|56:128,1,89.999997253418,2|8,0:0|0:0,0:0:0:0:
80,160,31186,2,0,L|88:316,1,134.999995880127,2|8,0:0|0:0,0:0:0:0:
168,352,31992,2,0,L|276:340,1,89.999997253418,2|8,0:0|0:0,0:0:0:0:
268,292,32476,6,0,P|316:248|412:260,1,134.999995880127,2|8,0:0|0:0,0:0:0:0:
464,300,33283,1,2,0:0:0:0:
468,200,33605,1,8,0:0:0:0:
468,200,33767,2,0,L|472:80,1,89.999997253418,6|0,0:0|0:0,0:0:0:0:
400,40,34412,2,0,P|360:24|288:32,1,89.999997253418,0|4,0:0|0:3,0:0:0:0:
340,120,35057,6,0,P|292:148|200:140,1,134.999995880127,6|8,0:0|0:0,0:0:0:0:
128,100,35863,2,0,P|119:145|132:200,1,89.999997253418,2|8,0:0|0:0,0:0:0:0:
160,228,36347,2,0,L|168:332,1,89.999997253418,6|0,0:0|0:0,0:0:0:0:
264,344,36992,2,0,L|268:240,1,89.999997253418,6|0,0:0|0:0,0:0:0:0:
360,292,37638,6,0,B|452:280|452:280|496:244,1,134.999995880127,6|8,0:0|0:0,0:0:0:0:
408,188,38444,2,0,P|420:144|416:88,1,89.999997253418,2|8,0:0|0:0,0:0:0:0:
384,64,38928,2,0,L|260:56,1,89.999997253418,6|0,0:0|0:0,0:0:0:0:
220,124,39573,2,0,L|116:128,1,89.999997253418,6|0,0:0|0:0,0:0:0:0:
68,52,40218,6,0,P|36:104|60:200,1,134.999995880127,6|8,0:0|0:0,0:0:0:0:
76,212,40863,2,0,L|68:320,1,89.999997253418,0|0,0:0|0:0,0:0:0:0:
164,332,41509,2,0,P|228:304|300:320,1,134.999995880127,6|8,0:0|0:0,0:0:0:0:
328,348,42154,2,0,P|368:352|444:324,1,89.999997253418,6|0,0:0|0:0,0:0:0:0:
368,256,42799,6,0,L|372:96,1,134.999995880127,6|8,0:0|0:0,0:0:0:0:
424,36,43605,1,2,0:0:0:0:
504,92,43928,1,8,0:0:0:0:
504,92,44089,2,0,L|512:220,1,89.999997253418,6|0,0:0|0:0,0:0:0:0:
472,216,44573,2,0,L|464:372,1,134.999995880127,8|4,0:0|0:3,0:0:0:0:
376,308,45379,6,0,P|328:308|272:332,1,89.999997253418,6|0,0:0|0:0,0:0:0:0:
192,308,46025,2,0,P|148:324|80:316,1,89.999997253418,2|0,0:0|0:0,0:0:0:0:
20,276,46670,2,0,L|12:128,1,134.999995880127,6|8,0:0|0:0,0:0:0:0:
8,92,47315,2,0,L|100:100,1,89.999997253418,6|0,0:0|0:0,0:0:0:0:
176,160,47960,6,0,P|228:148|264:104,1,89.999997253418,6|0,0:0|0:0,0:0:0:0:
288,32,48605,2,0,L|400:36,1,89.999997253418,2|0,0:0|0:0,0:0:0:0:
460,88,49250,2,0,L|472:236,1,134.999995880127,6|10,0:0|0:0,0:0:0:0:
416,304,50057,1,10,1:2:0:0:
324,264,50379,1,14,1:2:0:0:
240,316,50702,6,0,P|188:320|124:296,1,89.999997253418,6|8,0:0|0:0,0:0:0:0:
108,284,51186,2,0,L|100:180,1,89.999997253418,2|0,0:0|0:0,0:0:0:0:
8,164,51831,2,0,P|52:108|144:108,1,134.999995880127,6|8,0:0|0:0,0:0:0:0:
156,116,52476,2,0,L|280:104,1,89.999997253418,6|0,0:0|0:0,0:0:0:0:
308,32,53121,6,0,P|376:24|440:76,1,134.999995880127,6|8,0:0|0:0,0:0:0:0:
416,156,53928,2,0,L|420:208,1,44.999998626709,8|0,0:0|0:0,0:0:0:0:
428,300,54412,2,0,L|304:296,1,89.999997253418,4|0,0:0|0:0,0:0:0:0:
264,232,55057,2,0,L|140:228,1,89.999997253418,4|0,0:0|0:0,0:0:0:0:
112,308,55702,6,0,B|80:272|80:272|68:164,1,134.999995880127,4|8,0:0|0:3,0:0:0:0:
104,92,56509,1,8,0:3:0:0:
200,120,56831,1,0,0:0:0:0:
200,120,56992,6,0,P|284:104|328:40,1,150,6|8,0:0|0:0,0:0:0:0:
432,72,57799,1,8,0:0:0:0:
364,160,58121,1,8,0:0:0:0:
364,160,58283,2,0,L|372:332,1,150,0|8,0:0|0:0,0:0:0:0:
264,332,59089,2,0,L|268:220,1,99.9999999999999,8|8,0:0|0:0,0:0:0:0:
212,228,59573,6,0,L|40:224,1,150,6|8,0:0|0:0,0:0:0:0:
0,132,60379,1,8,0:0:0:0:
60,40,60702,1,8,0:0:0:0:
60,40,60863,2,0,P|128:72|212:68,1,150,0|8,0:0|0:0,0:0:0:0:
296,12,61670,1,8,0:0:0:0:
396,52,61992,1,8,0:0:0:0:
396,52,62154,6,0,L|400:224,1,150,6|8,0:0|0:0,0:0:0:0:
500,244,62960,2,0,P|508:304|484:364,1,99.9999999999999,8|8,0:0|0:0,0:0:0:0:
444,340,63444,2,0,L|304:336,1,99.9999999999999,0|0,0:0|0:0,0:0:0:0:
252,276,64089,2,0,L|152:284,1,99.9999999999999,0|0,0:0|0:0,0:0:0:0:
56,336,64734,6,0,P|16:284|20:176,1,150,6|10,0:0|0:0,0:0:0:0:
68,108,65541,1,10,0:0:0:0:
172,148,65863,1,10,0:0:0:0:
172,148,66025,2,0,L|284:144,1,99.9999999999999,4|0,0:0|0:0,0:0:0:0:
324,48,66670,1,8,0:3:0:0:
432,48,66992,1,2,0:0:0:0:
492,140,67315,6,0,L|476:320,1,150,6|8,0:0|0:0,0:0:0:0:
372,312,68121,2,0,L|364:196,1,99.9999999999999,8|8,0:0|0:0,0:0:0:0:
376,160,68605,2,0,P|336:112|236:116,1,150,0|8,0:0|0:0,0:0:0:0:
172,180,69412,1,8,0:0:0:0:
68,152,69734,1,8,0:0:0:0:
68,152,69896,6,0,L|76:316,1,150,6|8,0:0|0:0,0:0:0:0:
176,348,70702,1,8,0:0:0:0:
276,296,71025,1,8,0:0:0:0:
276,296,71186,2,0,L|432:292,1,150,0|8,0:0|0:0,0:0:0:0:
496,208,71992,2,0,P|508:156|484:84,1,99.9999999999999,8|8,0:0|0:0,0:0:0:0:
452,80,72476,6,0,L|288:72,1,150,6|8,0:0|0:0,0:0:0:0:
200,112,73283,1,8,0:0:0:0:
100,64,73605,1,8,0:0:0:0:
100,64,73767,2,0,B|76:92|76:92|68:172,1,99.9999999999999,4|0,0:0|0:0,0:0:0:0:
60,264,74412,2,0,L|176:256,1,99.9999999999999,0|0,0:0|0:0,0:0:0:0:
244,332,75057,6,0,P|296:284|396:284,1,150,6|10,0:0|0:0,0:0:0:0:
468,332,75863,1,10,0:0:0:0:
468,220,76186,1,10,0:0:0:0:
468,220,76347,2,0,L|468:108,1,99.9999999999999,4|0,0:0|3:0,0:0:0:0:
368,164,76992,2,0,L|196:152,1,150,0|4,3:0|0:3,0:0:0:0:
148,68,77799,6,0,P|96:60|48:76,1,99.9999999999999,4|10,0:0|0:1,0:0:0:0:
108,168,78444,2,0,P|75:209|64:258,1,99.9999999999999,8|10,0:0|0:1,0:0:0:0:
128,344,79089,1,8,0:0:0:0:
240,344,79412,1,10,0:1:0:0:
292,248,79734,1,10,0:1:0:0:
400,256,80057,1,10,0:1:0:0:
496,312,80379,6,0,L|512:188,1,99.9999999999999,4|10,0:0|0:1,0:0:0:0:
436,132,81025,2,0,L|428:12,1,99.9999999999999,10|10,0:1|0:1,0:0:0:0:
332,84,81670,1,8,0:0:0:0:
228,48,81992,1,10,0:1:0:0:
132,104,82315,1,10,0:1:0:0:
24,76,82638,1,10,0:1:0:0:
44,184,82960,6,0,P|40:240|25:282,1,99.9999999999999,4|10,0:0|0:1,0:0:0:0:
100,360,83605,2,0,P|137:326|164:285,1,99.9999999999999,10|10,0:1|0:1,0:0:0:0:
164,175,84250,1,8,0:0:0:0:
269,141,84573,1,10,0:1:0:0:
333,230,84896,1,10,0:1:0:0:
269,319,85218,1,10,0:1:0:0:
164,285,85541,6,0,L|44:280,1,99.9999999999999,4|10,0:0|0:1,0:0:0:0:
24,176,86186,2,0,L|136:168,1,99.9999999999999,10|10,0:1|0:1,0:0:0:0:
152,120,86670,2,0,P|228:92|328:116,1,150,4|0,1:2|1:0,0:0:0:0:
388,160,87476,1,0,1:0:0:0:
465,76,87799,1,0,1:0:0:0:
465,76,87960,6,0,P|456:251|285:211,1,400,4|4,0:0|0:0,0:0:0:0:
176,208,89573,1,0,1:0:0:0:
68,200,89896,1,4,1:2:0:0:
