osu file format v14

[General]
AudioFilename: work.mp3
AudioLeadIn: 0
PreviewTime: 56912
Countdown: 0
SampleSet: Soft
StackLeniency: 0.7
Mode: 0
LetterboxInBreaks: 0
WidescreenStoryboard: 0

[Editor]
Bookmarks: 41509
DistanceSpacing: 1.2
BeatDivisor: 4
GridSize: 4
TimelineZoom: 1.7

[Metadata]
Title:Gugutto Work* (Short Ver.)
TitleUnicode:ググッとワーク☆彡 (Short Ver.)
Artist:fourfolium
ArtistUnicode:fourfolium
Creator:Doormat
Version:Evanescent's Extra
Source:NEW GAME! -THE CHALLENGE STAGE!-
Tags:Narcissu Pentori Evanescent- joker- Irohas MugiwaraSekai [C_u_r_i] Curi フォーフォリウム ニューゲーム ザ チャレンジステージ opening game size takada yuuki 高田憂希 suzukaze aoba 涼風青葉 yamaguchi megumi 山口愛 takimoto hifumi 滝本ひふみ toda megumi 戸田めぐみ shinoda hazime 篠田はじめ ayumi takeo 竹尾歩美 iizima yun 飯島ゆん
BeatmapID:1206113
BeatmapSetID:568914

[Difficulty]
HPDrainRate:7
CircleSize:3.3
OverallDifficulty:8
ApproachRate:9.2
SliderMultiplier:1.76
SliderTickRate:1

[Events]
//Background and Video events
0,0,"cropped-1920-1080-710186.jpg",0,0
//Break Periods
//Storyboard Layer 0 (Background)
//Storyboard Layer 1 (Fail)
//Storyboard Layer 2 (Pass)
//Storyboard Layer 3 (Foreground)
//Storyboard Sound Samples

[TimingPoints]
380,322.58064516129,4,2,1,60,1,0
863,-100,4,2,1,45,0,0
1509,-100,4,2,1,70,0,0
4089,-100,4,2,1,70,0,1
5863,-100,4,2,1,70,0,1
8444,-100,4,2,1,70,0,1
13605,-100,4,2,1,70,0,1
14250,-100,4,2,1,70,0,1
14573,-90.9090909090909,4,2,1,70,0,0
14815,-90.9090909090909,4,2,1,5,0,0
14896,-90.9090909090909,4,2,1,70,0,0
17396,-90.9090909090909,4,2,1,5,0,0
17476,-90.9090909090909,4,2,1,70,0,0
19734,-90.9090909090909,4,2,1,70,0,0
19976,-90.9090909090909,4,2,1,5,0,0
20057,-90.9090909090909,4,2,1,70,0,0
22234,-100,4,2,1,5,0,0
22315,-90.9090909090909,4,2,1,70,0,0
22557,-90.9090909090909,4,2,1,5,0,0
22638,-90.9090909090909,4,2,1,70,0,0
24734,-125,4,2,1,40,0,0
35057,-111.111111111111,4,2,1,55,0,0
45379,-125,4,2,1,45,0,0
49250,-125,4,2,1,70,0,0
53121,-100,4,2,1,50,0,0
56509,-76.9230769230769,4,2,1,50,0,0
56992,-100,4,2,1,70,0,1
66509,-100,4,2,1,70,0,0
67315,-100,4,2,1,70,0,1
77799,-90.9090909090909,4,2,1,70,0,0
78041,-90.9090909090909,4,2,1,5,0,0
78121,-90.9090909090909,4,2,1,70,0,0
80621,-90.9090909090909,4,2,1,5,0,0
80702,-90.9090909090909,4,2,1,70,0,0
83202,-90.9090909090909,4,2,1,5,0,0
83283,-90.9090909090909,4,2,1,70,0,0
85783,-90.9090909090909,4,2,1,5,0,0
85863,-90.9090909090909,4,2,1,70,0,0
87960,-133.333333333333,4,2,1,70,0,0
89896,-200,4,2,1,70,0,0
90541,-200,4,2,1,5,0,0

[Colours]
Combo1 : 253,239,191
Combo2 : 128,0,3
Combo3 : 255,146,47
Combo4 : 78,184,238

[HitObjects]
156,80,863,5,2,0:0:0:0:
180,328,1025,1,8,0:0:0:0:
280,176,1186,1,0,0:0:0:0:
280,176,1267,1,0,0:0:0:0:
280,176,1347,2,0,L|220:168,1,44,8|0,0:0|0:0,0:0:0:0:
84,200,1509,6,0,B|96:348|96:348|120:300,1,176,4|0,0:0|0:0,0:0:0:0:
280,176,1992,1,8,0:0:0:0:
188,32,2154,6,0,B|180:104|180:104|196:136|196:136|188:224,1,176,4|0,0:0|0:0,0:0:0:0:
292,88,2638,1,8,0:0:0:0:
108,240,2799,6,0,P|179:293|265:255,1,176,4|0,0:0|0:0,0:0:0:0:
364,164,3283,1,0,0:0:0:0:
396,356,3444,1,0,0:0:0:0:
268,240,3605,5,8,0:0:0:0:
476,204,3767,1,8,0:0:0:0:
396,356,3928,1,8,0:0:0:0:
404,136,4089,6,0,B|308:100|316:176|224:136,1,176,4|0,0:0|0:0,0:0:0:0:
144,44,4573,1,8,0:0:0:0:
192,240,4734,1,0,0:0:0:0:
12,148,4896,2,0,P|72:152|110:154,1,88,8|0,0:0|0:0,0:0:0:0:
272,60,5218,1,8,0:0:0:0:
464,208,5379,6,0,L|360:216,1,88,0|8,0:0|0:0,0:0:0:0:
300,360,5702,1,0,0:0:0:0:
104,264,5863,2,0,L|204:272,1,88,8|0,0:0|0:0,0:0:0:0:
272,60,6186,2,0,P|280:112|268:168,2,88,8|0|8,0:0|0:0|0:0,0:0:0:0:
60,224,6670,6,0,B|152:192|132:272|240:232,1,176
376,68,7154,1,8,0:0:0:0:
336,280,7315,1,0,0:0:0:0:
188,144,7476,2,0,B|180:100|180:100|188:52,1,88,8|0,0:0|0:0,0:0:0:0:
352,192,7799,1,8,0:0:0:0:
184,272,7960,6,0,L|80:264,1,88,0|8,0:0|0:0,0:0:0:0:
296,360,8283,1,0,0:0:0:0:
396,208,8444,2,0,L|500:200,1,88,8|0,0:0|0:0,0:0:0:0:
296,360,8767,2,0,P|284:304|300:264,1,88,8|0,0:0|0:0,0:0:0:0:
336,88,9089,1,8,0:0:0:0:
336,88,9250,6,0,P|312:104|208:20,1,176,4|0,0:0|0:0,0:0:0:0:
464,32,9734,2,0,P|476:84|464:136,1,88,8|0,0:0|0:0,0:0:0:0:
360,216,10057,1,0,0:0:0:0:
284,28,10218,1,0,0:0:0:0:
360,216,10379,1,8,0:0:0:0:
204,304,10541,6,0,B|136:308|136:308|92:336|92:336|20:340,1,176
228,112,11025,1,8,0:0:0:0:
360,216,11186,2,0,P|439:242|503:187,1,176
336,88,11670,1,8,0:0:0:0:
164,168,11831,6,0,P|108:196|16:120,1,176,4|0,0:0|0:0,0:0:0:0:
264,80,12315,1,8,0:0:0:0:
208,260,12476,1,0,0:0:0:0:
100,112,12638,2,0,P|88:68|100:24,1,88,8|0,0:0|0:0,0:0:0:0:
172,72,12879,1,0,0:0:0:0:
172,72,12960,1,8,0:0:0:0:
280,220,13121,6,0,B|320:240|320:240|456:208,1,176
488,200,13525,1,0,0:0:0:0:
488,200,13605,1,8,0:0:0:0:
288,132,13767,2,0,P|216:152|196:256,1,176
304,360,14250,2,0,P|312:308|296:260,1,88,8|0,0:0|0:0,0:0:0:0:
24,148,14573,6,0,B|60:172|60:172|188:156,1,145.200004431152,12|0,0:0|0:0,0:0:0:0:
224,100,14896,2,0,P|244:148|236:200,1,96.8000029541017,8|0,0:0|0:0,0:0:0:0:
160,300,15218,1,8,0:0:0:0:
116,68,15379,1,0,0:0:0:0:
328,224,15541,1,8,0:0:0:0:
284,16,15702,1,0,0:0:0:0:
496,132,15863,6,0,L|396:120,1,96.8000029541017,8|0,0:0|0:0,0:0:0:0:
216,296,16186,2,0,L|312:284,1,96.8000029541017,8|0,0:0|0:0,0:0:0:0:
440,208,16509,1,8,0:0:0:0:
376,376,16670,1,0,0:0:0:0:
268,164,16831,1,8,0:0:0:0:
468,64,16992,1,0,0:0:0:0:
468,64,17073,1,0,0:0:0:0:
468,64,17154,6,0,P|412:84|332:36,1,145.200004431152,12|0,0:0|0:0,0:0:0:0:
264,0,17476,2,0,P|252:48|268:104,1,96.8000029541017,8|0,0:0|0:0,0:0:0:0:
328,280,17799,1,8,0:0:0:0:
392,96,17960,1,0,0:0:0:0:
128,204,18121,2,0,P|184:200|232:196,1,96.8000029541017,8|0,0:0|0:0,0:0:0:0:
328,280,18444,5,8,0:0:0:0:
248,104,18605,1,0,0:0:0:0:
172,348,18767,1,8,0:0:0:0:
376,168,18928,1,0,0:0:0:0:
76,100,19089,5,8,0:0:0:0:
268,256,19250,1,0,0:0:0:0:
212,32,19412,1,8,0:0:0:0:
56,272,19573,1,0,0:0:0:0:
60,292,19654,1,0,0:0:0:0:
64,312,19734,6,0,P|120:336|208:280,1,145.200004431152,12|0,0:0|0:0,0:0:0:0:
268,256,20057,2,0,P|280:302|272:352,1,96.8000029541017,8|0,0:0|0:0,0:0:0:0:
192,156,20379,1,8,0:0:0:0:
385,220,20541,1,0,0:0:0:0:
193,304,20702,1,8,0:0:0:0:
248,52,20863,1,0,0:0:0:0:
482,227,21025,6,0,L|376:219,1,96.8000029541017,8|0,0:0|0:0,0:0:0:0:
304,112,21347,1,8,0:0:0:0:
400,320,21509,1,0,0:0:0:0:
472,52,21670,1,8,0:0:0:0:
280,248,21831,1,0,0:0:0:0:
252,24,21992,1,8,0:0:0:0:
396,176,22154,1,0,0:0:0:0:
124,80,22315,6,0,B|100:120|100:120|112:236,1,145.200004431152,8|0,0:0|0:0,0:0:0:0:
120,264,22638,1,8,0:0:0:0:
232,184,22799,1,0,0:0:0:0:
24,240,22960,1,8,0:0:0:0:
208,360,23121,1,0,0:0:0:0:
272,92,23283,1,8,0:0:0:0:
488,316,23444,6,0,P|444:344|340:272,1,193.600005908203
448,84,23928,1,8,0:0:0:0:
428,260,24089,1,8,0:0:0:0:
428,260,24170,1,8,0:0:0:0:
428,260,24250,1,8,0:0:0:0:
240,124,24412,1,8,0:0:0:0:
264,324,24573,1,8,0:0:0:0:
20,140,24734,6,0,L|172:132,1,140.8,4|0,0:0|0:0,0:0:0:0:
272,184,25218,1,8,0:0:0:0:
164,40,25379,1,0,0:0:0:0:
164,40,25460,1,0,0:0:0:0:
164,40,25541,1,0,0:0:0:0:
184,232,25702,1,0,0:0:0:0:
288,84,25863,1,8,0:0:0:0:
448,280,26025,6,0,P|392:232|320:256,1,140.8
252,296,26509,1,8,0:0:0:0:
360,360,26670,1,0,0:0:0:0:
360,360,26750,1,0,0:0:0:0:
360,360,26831,1,0,0:0:0:0:
240,196,26992,1,0,0:0:0:0:
160,380,27154,1,0,0:0:0:0:
99,206,27315,6,0,L|267:194,1,140.8
284,104,27799,1,8,0:0:0:0:
184,288,27960,1,0,0:0:0:0:
184,288,28041,1,0,0:0:0:0:
184,288,28121,1,0,0:0:0:0:
164,96,28283,1,0,0:0:0:0:
328,212,28444,1,8,0:0:0:0:
488,36,28605,6,0,P|432:28|380:112,1,140.8,4|0,0:0|0:0,0:0:0:0:
432,256,29089,1,8,0:0:0:0:
280,112,29250,1,0,0:0:0:0:
280,112,29331,1,0,0:0:0:0:
280,112,29412,1,0,0:0:0:0:
320,272,29573,1,0,0:0:0:0:
464,128,29734,1,8,0:0:0:0:
400,316,29896,6,0,P|344:360|260:340,1,140.8,4|0,0:0|0:0,0:0:0:0:
200,224,30379,1,8,0:0:0:0:
152,376,30541,1,0,0:0:0:0:
152,376,30621,1,0,0:0:0:0:
152,376,30702,1,0,0:0:0:0:
320,272,30863,1,0,0:0:0:0:
128,176,31025,1,8,0:0:0:0:
256,36,31186,6,0,L|244:208,1,140.8
360,360,31670,2,0,L|352:280,1,70.4,8|0,0:0|0:0,0:0:0:0:
352,289,31912,1,0,0:0:0:0:
352,289,31992,1,0,0:0:0:0:
365,162,32154,1,0,0:0:0:0:
244,280,32315,1,8,0:0:0:0:
496,184,32476,6,0,B|464:156|464:156|336:164,1,140.8
264,104,32960,1,8,0:0:0:0:
412,252,33121,1,0,0:0:0:0:
412,252,33202,1,0,0:0:0:0:
412,252,33283,1,0,0:0:0:0:
376,48,33444,1,0,0:0:0:0:
228,184,33605,1,8,0:0:0:0:
336,336,33767,6,0,B|388:332|388:332|428:352|428:352|488:348,1,140.8,4|0,0:0|0:0,0:0:0:0:
272,168,34250,1,8,0:0:0:0:
224,368,34412,1,0,0:0:0:0:
183,167,34573,5,8,0:0:0:0:
288,296,34734,1,0,0:0:0:0:
120,336,34896,1,8,0:0:0:0:
33,141,35057,6,0,B|121:121|101:189|193:165,1,158.399995166016,4|0,0:0|0:0,0:0:0:0:
344,108,35541,1,8,0:0:0:0:
304,296,35702,1,0,0:0:0:0:
304,296,35783,1,0,0:0:0:0:
304,296,35863,1,0,0:0:0:0:
156,88,36025,1,0,0:0:0:0:
176,260,36186,1,0,0:0:0:0:
388,200,36347,6,0,L|400:376,1,158.399995166016,4|0,0:0|0:0,0:0:0:0:
280,240,36831,1,8,0:0:0:0:
512,144,36992,2,0,B|424:164|448:100|352:120,1,158.399995166016,4|0,0:0|0:0,0:0:0:0:
224,184,37476,1,8,0:0:0:0:
16,104,37638,6,0,P|68:52|160:76,1,158.399995166016,4|0,0:0|0:0,0:0:0:0:
224,184,38121,1,8,0:0:0:0:
272,44,38283,1,0,0:0:0:0:
272,44,38363,1,0,0:0:0:0:
272,44,38444,1,0,0:0:0:0:
100,132,38605,1,0,0:0:0:0:
280,240,38767,1,8,0:0:0:0:
184,176,38928,6,0,L|172:356,1,158.399995166016,4|0,0:0|0:0,0:0:0:0:
280,240,39412,1,8,0:0:0:0:
47,178,39573,2,0,P|99:210|187:170,1,158.399995166016,4|0,0:0|0:0,0:0:0:0:
280,60,40057,1,8,0:0:0:0:
492,288,40218,6,0,B|404:260|420:332|324:304,1,158.399995166016,4|0,0:0|0:0,0:0:0:0:
364,144,40702,2,0,P|356:192|372:240,1,79.1999975830079,8|0,0:0|0:0,0:0:0:0:
440,184,40944,1,8,0:0:0:0:
440,184,41025,1,0,0:0:0:0:
324,48,41186,1,0,0:0:0:0:
248,248,41347,1,8,0:0:0:0:
36,120,41509,6,0,B|72:84|72:84|200:100,1,158.399995166016,4|0,0:0|0:0,0:0:0:0:
248,248,41992,1,8,0:0:0:0:
416,136,42154,2,0,L|428:312,1,158.399995166016,4|0,0:0|0:0,0:0:0:0:
312,356,42638,1,8,0:0:0:0:
488,232,42799,6,0,P|420:204|352:256,1,158.399995166016,4|0,0:0|0:0,0:0:0:0:
264,360,43283,1,8,0:0:0:0:
220,208,43444,1,0,0:0:0:0:
216,184,43525,1,0,0:0:0:0:
212,160,43605,1,0,0:0:0:0:
124,312,43767,1,0,0:0:0:0:
352,212,43928,1,8,0:0:0:0:
240,80,44089,6,0,B|156:60|172:120|84:104,1,158.399995166016
212,160,44573,1,8,0:0:0:0:
112,24,44734,1,0,0:0:0:0:
56,276,44896,5,8,0:0:0:0:
212,160,45057,1,0,0:0:0:0:
44,88,45218,1,8,0:0:0:0:
180,292,45379,6,0,L|340:280,1,140.8,4|0,0:0|0:0,0:0:0:0:
448,172,45863,2,0,P|404:168|368:156,1,70.4,8|0,0:0|0:0,0:0:0:0:
344,144,46105,1,8,0:0:0:0:
344,144,46186,1,0,0:0:0:0:
428,304,46347,1,0,0:0:0:0:
488,80,46509,1,8,0:0:0:0:
240,96,46670,6,0,P|260:140|352:136,1,140.8,4|0,0:0|0:0,0:0:0:0:
132,36,47154,1,8,0:0:0:0:
56,132,47315,2,0,L|68:284,1,140.8,4|0,0:0|0:0,0:0:0:0:
208,216,47799,1,8,0:0:0:0:
320,352,47960,6,0,B|288:324|288:324|172:336,1,140.8,4|0,0:0|0:0,0:0:0:0:
84,204,48444,2,0,P|124:212|160:212,1,70.4,8|0,0:0|0:0,0:0:0:0:
208,216,48686,1,8,0:0:0:0:
208,216,48767,1,0,0:0:0:0:
288,76,48928,1,0,0:0:0:0:
368,248,49089,1,8,0:0:0:0:
460,36,49250,6,0,L|472:204,1,140.8,4|0,0:0|0:0,0:0:0:0:
476,216,49654,1,0,0:0:0:0:
476,216,49734,1,8,0:0:0:0:
288,148,49896,1,0,0:0:0:0:
292,120,49976,1,0,0:0:0:0:
296,92,50057,1,8,0:0:0:0:
384,272,50218,1,0,0:0:0:0:
388,300,50299,1,0,0:0:0:0:
392,328,50379,1,8,0:0:0:0:
151,194,50541,5,0,0:0:0:0:
155,166,50621,1,8,0:0:0:0:
160,141,50702,6,0,P|233:119|300:165,1,140.8,4|8,0:0|0:0,0:0:0:0:
220,300,51186,1,0,0:0:0:0:
220,300,51267,1,8,0:0:0:0:
220,300,51347,1,0,0:0:0:0:
48,188,51509,1,0,0:0:0:0:
68,372,51670,1,8,0:0:0:0:
272,232,51831,6,0,P|196:216|136:272,1,140.8,4|0,0:0|0:0,0:0:0:0:
320,360,52315,1,8,0:0:0:0:
444,260,52476,2,0,L|432:108,1,140.8,4|0,0:0|0:0,0:0:0:0:
348,24,52960,1,8,0:0:0:0:
168,124,53121,6,0,B|264:100|244:176|348:144,1,176
500,64,53605,1,8,0:0:0:0:
456,232,53767,1,0,0:0:0:0:
339,62,53928,2,0,P|327:110|339:154,1,88,8|0,0:0|0:0,0:0:0:0:
352,180,54170,1,0,0:0:0:0:
352,180,54250,1,8,0:0:0:0:
496,352,54412,6,0,P|448:304|340:332,1,176,4|0,0:0|0:0,0:0:0:0:
272,156,54896,1,8,0:0:0:0:
44,228,55057,2,0,P|100:260|192:188,1,176,4|0,0:0|0:0,0:0:0:0:
272,72,55541,1,8,0:0:0:0:
116,8,55702,6,0,B|96:48|96:48|112:188,1,176,4|0,0:0|0:0,0:0:0:0:
280,80,56186,1,8,0:0:0:0:
280,80,56267,1,0,0:0:0:0:
280,80,56347,1,0,0:0:0:0:
220,244,56509,6,0,P|256:272|288:280,1,57.1999973815919,8|0,0:0|0:0,0:0:0:0:
428,88,56670,2,0,P|382:93|354:110,1,57.1999973815919,8|0,0:0|0:0,0:0:0:0:
448,356,56831,2,0,P|475:320|484:287,1,57.1999973815919,8|0,0:0|0:0,0:0:0:0:
336,196,56992,6,0,P|384:224|484:148,1,176,4|0,0:0|0:0,0:0:0:0:
244,24,57476,2,0,P|236:68|244:116,1,88,8|0,0:0|0:0,0:0:0:0:
300,248,57799,1,8,0:0:0:0:
344,68,57960,1,0,0:0:0:0:
148,152,58121,1,8,0:0:0:0:
384,348,58283,6,0,P|427:344|471:341,1,88,0|8,0:0|0:0,0:0:0:0:
320,160,58605,1,0,0:0:0:0:
192,288,58767,2,0,P|148:284|104:281,1,88,8|0,0:0|0:0,0:0:0:0:
320,160,59089,2,0,P|332:208|320:252,1,88,8|0,0:0|0:0,0:0:0:0:
224,204,59412,1,8,0:0:0:0:
504,336,59573,6,0,B|432:328|432:328|392:344|392:344|316:332,1,176,4|0,0:0|0:0,0:0:0:0:
240,121,60057,2,0,B|232:169|232:169|240:209,1,88,8|0,0:0|0:0,0:0:0:0:
276,360,60379,1,8,0:0:0:0:
348,184,60541,1,0,0:0:0:0:
136,252,60702,1,8,0:0:0:0:
276,40,60863,6,0,L|372:48,1,88,0|8,0:0|0:0,0:0:0:0:
224,220,61186,1,0,0:0:0:0:
108,120,61347,2,8,L|0:128,1,88,8|0,0:0|0:0,0:0:0:0:
227,304,61670,2,0,P|235:260|219:212,1,88,8|0,0:0|0:0,0:0:0:0:
96,272,61992,1,8,0:0:0:0:
332,356,62154,6,0,L|348:160,1,176,4|0,0:0|0:0,0:0:0:0:
232,48,62638,2,0,P|276:60|332:40,1,88,8|0,0:0|0:0,0:0:0:0:
512,132,62960,2,0,P|468:120|412:140,1,88
292,208,63283,1,8,0:0:0:0:
424,356,63444,6,0,P|480:312|404:320,1,176
252,348,63928,1,8,0:0:0:0:
56,176,64089,2,0,B|156:144|140:216|236:184,1,176
328,48,64573,1,8,0:0:0:0:
496,244,64734,6,0,P|464:188|356:216,1,176,4|0,0:0|0:0,0:0:0:0:
284,360,65218,2,0,P|276:304|288:260,1,88,8|0,0:0|0:0,0:0:0:0:
420,84,65541,2,0,P|428:140|416:184,1,88,8|0,0:0|0:0,0:0:0:0:
240,24,65863,1,8,0:0:0:0:
240,24,66025,6,0,L|252:232,1,176
100,360,66509,5,8,0:3:0:0:
96,328,66589,1,8,0:3:0:0:
92,296,66670,1,8,0:3:0:0:
88,264,66750,1,8,0:3:0:0:
84,232,66831,6,0,L|76:176,1,44,0|0,0:3|0:3,0:3:0:0:
260,120,66992,2,0,L|253:163,1,44,8|0,0:3|0:3,0:3:0:0:
232,352,67154,2,0,L|225:308,1,44,8|0,0:3|0:3,0:3:0:0:
504,200,67315,6,0,B|468:164|468:164|328:176,1,176,4|0,0:0|0:0,0:0:0:0:
232,352,67799,2,0,P|224:292|236:256,1,88,8|0,0:0|0:0,0:0:0:0:
368,152,68121,1,8,0:0:0:0:
308,312,68283,1,0,0:0:0:0:
232,88,68444,1,8,0:0:0:0:
512,240,68605,6,0,L|408:228,1,88,0|8,0:0|0:0,0:0:0:0:
356,60,68928,1,0,0:0:0:0:
292,224,69089,1,8,0:0:0:0:
456,112,69250,1,0,0:0:0:0:
368,336,69412,1,8,0:0:0:0:
175,124,69573,2,0,L|263:118,1,88,0|8,0:0|0:0,0:0:0:0:
76,376,69896,6,0,P|32:288|72:224,1,176,4|0,0:0|0:0,0:0:0:0:
236,152,70379,2,0,P|176:144|140:140,1,88,8|0,0:0|0:0,0:0:0:0:
352,80,70702,1,8,0:0:0:0:
248,268,70863,1,0,0:0:0:0:
192,16,71025,1,8,0:0:0:0:
428,124,71186,6,0,P|440:76|424:28,1,88,0|8,0:0|0:0,0:0:0:0:
312,208,71509,1,0,0:0:0:0:
428,312,71670,2,0,L|524:304,1,88,8|0,0:0|0:0,0:0:0:0:
312,208,71992,1,8,0:0:0:0:
216,360,72154,1,0,0:0:0:0:
180,112,72315,1,8,0:0:0:0:
0,252,72476,6,0,P|44:280|144:220,1,176,4|0,0:0|0:0,0:0:0:0:
184,26,72960,2,0,P|173:78|185:126,1,88,8|0,0:0|0:0,0:0:0:0:
300,268,73283,2,0,P|311:216|299:168,1,88
142,226,73605,1,8,0:0:0:0:
384,328,73767,6,0,B|320:332|320:332|288:356|288:356|208:364,1,176,4|0,0:0|0:0,0:0:0:0:
288,176,74250,1,8,0:0:0:0:
476,192,74412,2,0,B|432:284|504:288|464:380,1,176,4|0,0:0|0:0,0:0:0:0:
296,276,74896,1,8,0:0:0:0:
384,96,75057,6,0,P|436:116|508:28,1,176,4|0,0:0|0:0,0:0:0:0:
296,276,75541,2,0,P|288:228|300:180,1,88,8|0,0:0|0:0,0:0:0:0:
308,160,75783,1,0,0:0:0:0:
308,160,75863,1,8,0:0:0:0:
408,332,76025,1,0,0:0:0:0:
408,332,76105,1,0,0:0:0:0:
408,332,76186,1,8,0:0:0:0:
152,360,76347,6,0,L|164:172,1,176
172,156,76750,1,0,0:0:0:0:
172,156,76831,1,0,0:0:0:0:
36,48,76992,2,0,P|92:72|176:8,1,176
256,196,77476,2,0,P|264:148|252:108,1,88,8|0,0:0|0:0,0:0:0:0:
32,292,77799,6,0,L|188:284,1,145.200004431152,4|0,0:0|0:0,0:0:0:0:
216,284,78121,1,8,0:0:0:0:
320,136,78283,1,0,0:0:0:0:
344,360,78444,1,8,0:0:0:0:
184,184,78605,1,0,0:0:0:0:
472,260,78767,2,0,L|368:252,1,96.8000029541017,8|0,0:0|0:0,0:0:0:0:
112,128,79089,6,0,L|216:120,1,96.8000029541017,8|0,0:0|0:0,0:0:0:0:
352,52,79412,1,8,0:0:0:0:
264,240,79573,1,0,0:0:0:0:
196,20,79734,1,8,0:0:0:0:
376,160,79896,1,0,0:0:0:0:
180,288,80057,2,0,P|170:244|184:192,1,96.8000029541017,8|0,0:0|0:0,0:0:0:0:
472,128,80379,6,0,P|408:136|360:76,1,145.200004431152,12|0,0:0|0:0,0:0:0:0:
352,32,80702,1,8,0:0:0:0:
264,240,80863,1,0,0:0:0:0:
136,96,81025,2,0,L|236:108,1,96.8000029541017,8|0,0:0|0:0,0:0:0:0:
480,236,81347,2,0,L|376:248,1,96.8000029541017,8|0,0:0|0:0,0:0:0:0:
208,284,81670,5,8,0:0:0:0:
360,108,81831,1,0,0:0:0:0:
324,368,81992,1,8,0:0:0:0:
204,152,82154,1,0,0:0:0:0:
436,60,82315,2,0,P|448:112|436:160,1,96.8000029541017,8|0,0:0|0:0,0:0:0:0:
214,369,82638,2,0,P|202:317|214:269,1,96.8000029541017,8|0,0:0|0:0,0:0:0:0:
224,248,82879,1,0,0:0:0:0:
224,248,82960,6,0,L|64:260,1,145.200004431152,12|0,0:0|0:0,0:0:0:0:
40,264,83283,1,8,0:0:0:0:
220,120,83444,1,0,0:0:0:0:
108,352,83605,1,8,0:0:0:0:
56,104,83767,1,0,0:0:0:0:
320,244,83928,2,0,L|220:248,1,96.8000029541017,8|0,0:0|0:0,0:0:0:0:
480,184,84250,5,8,0:0:0:0:
384,356,84412,1,0,0:0:0:0:
264,160,84573,2,0,B|312:148|312:148|364:156,1,96.8000029541017,8|0,0:0|0:0,0:0:0:0:
488,284,84896,1,8,0:0:0:0:
436,96,85057,1,0,0:0:0:0:
311,244,85218,1,8,0:0:0:0:
272,28,85379,1,0,0:0:0:0:
32,188,85541,6,0,L|184:176,1,145.200004431152,4|0,0:0|0:0,0:0:0:0:
216,172,85863,1,8,0:0:0:0:
144,316,86025,1,0,0:0:0:0:
32,188,86186,2,0,P|24:140|36:88,1,96.8000029541017,8|0,0:0|0:0,0:0:0:0:
172,20,86509,1,8,0:0:0:0:
399,204,86670,6,0,B|295:224|335:148|215:172,1,193.600005908203,4|0,0:0|0:0,0:0:0:0:
380,116,87154,1,8,0:0:0:0:
280,352,87315,1,8,0:0:0:0:
280,352,87396,1,8,0:0:0:0:
280,352,87476,1,0,0:0:0:0:
217,172,87638,1,8,0:0:0:0:
448,288,87799,1,8,0:0:0:0:
152,100,87960,6,0,L|-8:108,1,132.000005035401
168,204,88444,1,0,0:0:0:0:
260,196,88605,1,0,0:0:0:0:
300,112,88767,1,0,0:0:0:0:
208,120,88928,1,0,0:0:0:0:
352,192,89089,1,8,0:0:0:0:
248,40,89250,5,0,0:0:0:0:
248,40,89573,5,8,0:0:0:0:
340,344,89734,1,8,0:0:0:0:
216,192,89896,6,0,P|188:172|256:168,1,176
