osu file format v14

[General]
AudioFilename: work.mp3
AudioLeadIn: 0
PreviewTime: 56912
Countdown: 0
SampleSet: Soft
StackLeniency: 0.7
Mode: 0
LetterboxInBreaks: 0
WidescreenStoryboard: 0

[Editor]
DistanceSpacing: 0.9
BeatDivisor: 4
GridSize: 4
TimelineZoom: 1.7

[Metadata]
Title:Gugutto Work* (Short Ver.)
TitleUnicode:ググッとワーク☆彡 (Short Ver.)
Artist:fourfolium
ArtistUnicode:fourfolium
Creator:Doormat
Version:Easy
Source:NEW GAME! -THE CHALLENGE STAGE!-
Tags:Narcissu Pentori Evanescent- joker- Irohas MugiwaraSekai [C_u_r_i] Curi フォーフォリウム ニューゲーム ザ チャレンジステージ opening game size takada yuuki 高田憂希 suzukaze aoba 涼風青葉 yamaguchi megumi 山口愛 takimoto hifumi 滝本ひふみ toda megumi 戸田めぐみ shinoda hazime 篠田はじめ ayumi takeo 竹尾歩美 iizima yun 飯島ゆん
BeatmapID:1206111
BeatmapSetID:568914

[Difficulty]
HPDrainRate:2
CircleSize:3
OverallDifficulty:2
ApproachRate:3
SliderMultiplier:1
SliderTickRate:1

[Events]
//Background and Video events
0,0,"newgame_background.png",0,0
//Break Periods
//Storyboard Layer 0 (Background)
//Storyboard Layer 1 (Fail)
//Storyboard Layer 2 (Pass)
//Storyboard Layer 3 (Foreground)
//Storyboard Sound Samples

[TimingPoints]
380,322.58064516129,4,2,1,60,1,0
1509,-100,4,2,1,65,0,0
2154,-100,4,2,1,70,0,0
2799,-100,4,2,1,75,0,0
3444,-100,4,2,1,80,0,0
4089,-100,4,2,1,85,0,1
14573,-100,4,2,1,85,0,0
24734,-100,4,2,1,60,0,0
45379,-100,4,2,1,50,0,0
53121,-100,4,2,1,60,0,0
54412,-100,4,2,1,60,0,0
55057,-100,4,2,1,60,0,0
55702,-100,4,2,1,60,0,0
56992,-100,4,2,1,85,0,1
67234,-100,4,2,1,85,0,0
67315,-100,4,2,1,85,0,1
77799,-100,4,2,1,85,0,0
87960,-100,4,2,1,60,0,0
89250,-100,4,2,1,85,0,0
89896,-100,4,2,1,85,0,0
90541,-100,4,2,1,5,0,0

[Colours]
Combo1 : 247,190,101
Combo2 : 247,150,229
Combo3 : 252,246,181
Combo4 : 78,184,238

[HitObjects]
184,280,1509,6,0,P|267:328|357:293,1,200,4|4,0:0|0:0,0:0:0:0:
368,112,2799,2,0,P|284:63|194:98,1,200,4|4,0:0|0:0,0:0:0:0:
40,192,4089,6,0,L|60:352,1,150,6|8,0:0|0:0,0:0:0:0:
148,364,4896,2,0,P|192:336|292:348,2,150,8|0|8,0:0|0:0|0:0,0:0:0:0:
58,340,6186,1,8,0:0:0:0:
152,244,6670,6,0,B|184:196|184:196|172:100,1,150,6|8,0:0|0:0,0:0:0:0:
252,60,7476,2,0,L|270:208,2,150,8|0|8,0:0|0:0|0:0,0:0:0:0:
173,13,8766,1,8,0:0:0:0:
72,99,9250,6,0,P|46:168|71:238,1,150,6|8,0:0|0:0,0:0:0:0:
148,284,10057,2,0,P|195:228|268:215,1,150,8|4,0:0|0:0,0:0:0:0:
348,256,10863,1,0,0:0:0:0:
427,215,11186,2,0,B|460:168|460:168|440:16,1,200,0|6,0:0|0:0,0:0:0:0:
308,0,12315,5,10,0:0:0:0:
248,64,12638,2,0,P|200:80|108:36,2,150,10|4|0,0:0|0:0|3:0,0:0:0:0:
312,124,13928,2,0,L|304:228,1,99.9999999999999,8|8,0:0|0:0,0:0:0:0:
336,307,14573,6,0,P|286:312|244:288,1,99.9999999999999,4|10,0:0|0:1,0:0:0:0:
176,227,15218,2,0,P|133:252|84:247,1,99.9999999999999,8|10,0:0|0:1,0:0:0:0:
64,160,15863,2,0,P|106:135|155:140,2,99.9999999999999,8|10|10,0:0|0:1|0:1,0:0:0:0:
0,220,16831,1,10,0:1:0:0:
60,284,17154,6,0,P|106:266|151:244,1,99.9999999999999,4|10,0:0|0:1,0:0:0:0:
228,196,17799,2,0,P|275:214|320:235,1,99.9999999999999,10|10,0:1|0:1,0:0:0:0:
408,235,18444,2,0,P|400:185|396:135,1,99.9999999999999,8|10,0:0|0:1,0:0:0:0:
352,59,19089,2,0,P|313:91|273:120,1,99.9999999999999,10|10,0:1|0:1,0:0:0:0:
184,115,19734,6,0,P|138:98|89:104,1,99.9999999999999,4|10,0:0|0:1,0:0:0:0:
77,192,20379,2,0,P|123:209|172:203,1,99.9999999999999,10|10,0:1|0:1,0:0:0:0:
257,172,21025,2,0,P|303:189|352:183,2,99.9999999999999,8|10|10,0:0|0:1|0:1,0:0:0:0:
184,115,21992,1,10,0:1:0:0:
127,187,22315,6,0,L|128:286,1,99.9999999999999,4|10,0:0|0:1,0:0:0:0:
41,260,22960,2,0,L|38:99,2,150,10|4|0,0:1|1:2|1:0,0:0:0:0:
128,286,24250,1,0,1:0:0:0:
256,240,24734,6,0,P|325:220|401:260,1,150,4|8,0:0|0:0,0:0:0:0:
449,324,25541,1,2,0:0:0:0:
508,200,26025,2,0,B|496:96|496:96|444:72,1,150,2|8,0:0|0:0,0:0:0:0:
368,104,26831,1,2,0:0:0:0:
280,207,27315,6,0,P|211:233|145:201,1,150,2|8,0:0|0:0,0:0:0:0:
148,112,28121,2,0,P|216:86|282:118,1,150,2|6,0:0|0:0,0:0:0:0:
360,164,28928,1,0,0:0:0:0:
424,99,29250,2,0,P|461:68|511:59,1,99.9999999999999,0|0,0:0|0:0,0:0:0:0:
499,147,29896,6,0,L|511:298,1,150,6|8,0:0|0:0,0:0:0:0:
434,348,30702,1,2,0:0:0:0:
308,292,31186,2,0,B|256:272|256:272|144:304,1,150,2|8,0:0|0:0,0:0:0:0:
104,364,31992,1,2,0:0:0:0:
35,247,32476,6,0,P|23:174|36:100,1,150,2|8,0:0|0:0,0:0:0:0:
124,76,33283,2,0,P|171:133|198:203,2,150,2|6|8,0:0|0:0|0:0,0:0:0:0:
58,12,34573,1,8,0:0:0:0:
192,20,35057,6,0,B|264:40|264:40|334:13,1,150,6|8,0:0|0:0,0:0:0:0:
420,40,35863,1,2,0:0:0:0:
348,152,36347,2,0,P|337:201|351:249,1,99.9999999999999,6|0,0:0|0:0,0:0:0:0:
396,329,36992,2,0,P|348:344|314:379,1,99.9999999999999,6|0,0:0|0:0,0:0:0:0:
224,364,37638,6,0,P|188:300|207:230,1,150,6|8,0:0|0:0,0:0:0:0:
284,180,38444,2,0,P|221:140|146:165,1,150,2|6,0:0|0:0,0:0:0:0:
72,120,39250,1,0,0:0:0:0:
5,59,39573,2,0,P|53:32|104:36,1,99.9999999999999,6|0,0:0|0:0,0:0:0:0:
188,48,40218,6,0,P|286:60|384:32,1,200,6|0,0:0|0:0,0:0:0:0:
468,0,41186,1,0,0:0:0:0:
504,84,41509,2,0,P|505:140|501:200,2,99.9999999999999,6|0|6,0:0|0:0|0:0,0:0:0:0:
332,32,42799,6,0,B|280:52|280:52|188:27,1,150,6|8,0:0|0:0,0:0:0:0:
100,44,43605,2,0,B|72:92|72:92|82:185,2,150,2|6|8,0:0|0:0|0:0,0:0:0:0:
189,27,44896,1,8,0:0:0:0:
196,160,45379,6,0,B|184:228|216:288|216:288|252:280|284:244,1,200,6|2,0:0|0:0,0:0:0:0:
308,172,46347,1,0,0:0:0:0:
341,89,46670,2,0,L|453:101,2,99.9999999999999,6|0|6,0:0|0:0|0:0,0:0:0:0:
172,36,47960,6,0,B|24:52|24:52|40:120,1,200,6|2,0:0|0:0,0:0:0:0:
108,156,48928,1,0,0:0:0:0:
191,128,49250,2,0,P|268:112|338:137,1,150,6|10,0:0|0:0,0:0:0:0:
424,156,50057,2,0,L|416:56,1,99.9999999999999,10|14,1:2|1:2,0:0:0:0:
504,84,50702,6,0,B|520:156|520:156|504:240,1,150,6|2,0:0|0:0,0:0:0:0:
424,272,51509,1,0,0:0:0:0:
340,244,51831,2,0,B|292:232|292:232|245:250,1,99.9999999999999,6|0,0:0|0:0,0:0:0:0:
188,320,52476,2,0,B|140:332|140:332|93:313,1,99.9999999999999,6|0,0:0|0:0,0:0:0:0:
19,260,53121,6,0,P|43:189|48:114,1,150,6|8,0:0|0:0,0:0:0:0:
124,64,53928,2,0,P|147:134|189:197,1,150,8|4,0:0|0:0,0:0:0:0:
260,252,54734,1,0,0:0:0:0:
330,197,55057,2,0,P|336:160|332:96,1,99.9999999999999,4|0,0:0|0:0,0:0:0:0:
288,20,55702,6,0,L|448:4,1,150,4|8,0:0|0:3,0:0:0:0:
512,56,56509,1,8,0:3:0:0:
439,167,56992,6,0,P|367:148|298:173,1,150,6|8,0:0|0:0,0:0:0:0:
224,228,57799,2,0,P|154:202|83:221,2,150,8|0|8,0:0|0:0|0:0,0:0:0:0:
284,296,59089,1,8,0:0:0:0:
404,356,59573,6,0,L|396:206,1,150,6|8,0:0|0:0,0:0:0:0:
484,232,60379,2,0,L|491:381,2,150,8|0|8,0:0|0:0|0:0,0:0:0:0:
464,144,61670,1,8,0:0:0:0:
364,52,62154,6,0,B|312:72|312:72|221:45,1,150,6|8,0:0|0:0,0:0:0:0:
132,56,62960,2,0,B|112:108|112:108|138:198,1,150,8|0,0:0|0:0,0:0:0:0:
176,280,63767,1,0,0:0:0:0:
252,236,64089,2,0,P|268:196|280:132,1,99.9999999999999,0|0,0:0|0:0,0:0:0:0:
364,164,64734,6,0,P|387:212|420:319,1,150,6|10,0:0|0:0,0:0:0:0:
488,252,65541,2,0,P|492:198|517:88,1,150,10|4,0:0|0:0,0:0:0:0:
504,16,66347,1,0,0:0:0:0:
419,44,66670,2,0,P|373:59|324:51,1,99.9999999999999,8|2,0:3|0:0,0:0:0:0:
244,12,67315,6,0,P|170:9|113:56,1,150,6|8,0:0|0:0,0:0:0:0:
80,140,68121,2,0,P|77:213|124:270,2,150,8|0|8,0:0|0:0|0:0,0:0:0:0:
168,128,69412,1,8,0:0:0:0:
264,220,69896,6,0,L|256:369,1,150,6|8,0:0|0:0,0:0:0:0:
344,352,70702,2,0,L|351:202,2,150,8|0|8,0:0|0:0|0:0,0:0:0:0:
428,384,71992,1,8,0:0:0:0:
492,264,72476,6,0,B|512:216|512:216|481:122,1,150,6|8,0:0|0:0,0:0:0:0:
412,60,73283,2,0,B|364:80|364:80|270:49,1,150,8|4,0:0|0:0,0:0:0:0:
184,20,74089,1,0,0:0:0:0:
100,48,74412,2,0,L|116:164,1,99.9999999999999,0|0,0:0|0:0,0:0:0:0:
147,232,75057,6,0,P|207:189|281:183,1,150,6|10,0:0|0:0,0:0:0:0:
364,216,75863,2,0,P|406:276|412:350,2,150,10|4|0,0:0|0:0|3:0,0:0:0:0:
384,128,77154,2,0,L|484:140,1,99.9999999999999,8|4,0:3|0:3,0:0:0:0:
512,56,77799,5,4,0:0:0:0:
440,4,78121,2,0,L|340:16,1,99.9999999999999,10|8,0:1|0:0,0:0:0:0:
252,36,78767,1,10,0:1:0:0:
315,99,79089,2,0,P|318:149|303:197,1,99.9999999999999,8|10,0:0|0:1,0:0:0:0:
216,208,79734,2,0,P|189:166|179:117,1,99.9999999999999,10|10,0:1|0:1,0:0:0:0:
140,36,80379,6,0,L|41:52,1,99.9999999999999,4|10,0:0|0:1,0:0:0:0:
0,136,81025,2,0,L|98:152,1,99.9999999999999,10|10,0:1|0:1,0:0:0:0:
140,236,81670,2,0,L|41:252,1,99.9999999999999,8|10,0:0|0:1,0:0:0:0:
0,336,82316,2,0,L|98:352,1,99.9999999999999,10|10,0:1|0:1,0:0:0:0:
188,364,82960,5,4,0:0:0:0:
264,312,83283,2,0,P|280:276|280:216,1,99.9999999999999,10|10,0:1|0:1,0:0:0:0:
236,136,83928,1,10,0:1:0:0:
324,136,84250,2,0,L|423:143,1,99.9999999999999,8|10,0:0|0:1,0:0:0:0:
400,56,84896,2,0,L|300:48,1,99.9999999999999,10|10,0:1|0:1,0:0:0:0:
216,16,85541,6,0,P|189:57|149:87,1,99.9999999999999,4|10,0:0|0:1,0:0:0:0:
105,164,86186,2,0,P|62:104|79:33,2,150,10|4|0,0:1|1:2|1:0,0:0:0:0:
184,208,87476,1,0,1:0:0:0:
300,140,87960,6,0,L|324:287,1,150,4|0,0:0|0:0,0:0:0:0:
408,252,88767,2,0,L|417:102,1,150,0|4,0:0|0:0,0:0:0:0:
460,20,89573,1,0,1:0:0:0:
363,24,89896,1,4,1:2:0:0:
