osu file format v14

[General]
AudioFilename: flumpool - Yoru Wa Nemureru Kai.mp3
AudioLeadIn: 0
PreviewTime: 73018
Countdown: 0
SampleSet: Soft
StackLeniency: 0.7
Mode: 0
LetterboxInBreaks: 0
WidescreenStoryboard: 1

[Editor]
DistanceSpacing: 2
BeatDivisor: 4
GridSize: 4
TimelineZoom: 3.099999

[Metadata]
Title:Yoru Wa Nemureru Kai
TitleUnicode:夜は眠れるかい
Artist:flumpool
ArtistUnicode:flumpool
Creator:-[ Nymph ]-
Version:Ultra
Source:Ajin
Tags:OP cut version
BeatmapID:901239
BeatmapSetID:415995

[Difficulty]
HPDrainRate:7
CircleSize:4.5
OverallDifficulty:8
ApproachRate:9.4
SliderMultiplier:2.4
SliderTickRate:4

[Events]
//Background and Video events
0,0,"AJIN-Camuncoli-Variant-Cover.jpg",0,0
//Break Periods
//Storyboard Layer 0 (Background)
//Storyboard Layer 1 (Fail)
//Storyboard Layer 2 (Pass)
//Storyboard Layer 3 (Foreground)
//Storyboard Sound Samples

[TimingPoints]
3326,461.538461538462,4,2,2,60,1,0
3326,-133.333333333333,4,2,2,30,0,0
4018,-133.333333333333,4,2,5,30,0,0
4133,-133.333333333333,4,2,2,30,0,0
5864,-133.333333333333,4,2,5,30,0,0
5979,-133.333333333333,4,2,2,30,0,0
7710,-133.333333333333,4,2,5,30,0,0
7826,-133.333333333333,4,2,2,30,0,0
9556,-133.333333333333,4,2,5,30,0,0
9672,-133.333333333333,4,2,2,30,0,0
12095,-200,4,2,2,60,0,0
12556,-76.9230769230769,4,2,3,70,0,0
12710,-76.9230769230769,4,2,2,70,0,0
14402,-76.9230769230769,4,2,5,70,0,0
14518,-76.9230769230769,4,2,2,70,0,0
18095,-76.9230769230769,4,2,5,70,0,0
18210,-76.9230769230769,4,2,2,70,0,0
21787,-76.9230769230769,4,2,5,70,0,0
21902,-76.9230769230769,4,2,2,70,0,0
25479,-76.9230769230769,4,2,5,70,0,0
25595,-76.9230769230769,4,2,2,70,0,0
27326,-100,4,2,2,70,0,0
41633,-100,4,2,2,70,0,0
41749,-100,4,2,2,50,0,0
41864,-100,4,2,2,20,0,0
41979,-100,4,2,2,10,0,0
42095,-100,4,2,2,70,0,0
44864,-100,4,2,5,70,0,0
44979,-100,4,2,2,70,0,0
46710,-100,4,2,5,70,0,0
46826,-100,4,2,2,70,0,0
48556,-100,4,2,5,70,0,0
48672,-100,4,2,2,70,0,0
50402,-100,4,2,5,70,0,0
50518,-100,4,2,2,70,0,0
51326,-100,4,2,5,70,0,0
51441,-100,4,2,2,70,0,0
52249,-100,4,2,5,70,0,0
52364,-100,4,2,2,70,0,0
55941,-100,4,2,5,70,0,0
56056,-100,4,2,2,70,0,0
56864,-200,4,2,2,70,0,0
57326,-100,4,2,2,70,0,0
57902,-100,4,2,1,70,0,0
58018,-100,4,2,2,70,0,0
61941,-100,4,2,6,70,0,0
62056,-100,4,2,2,70,0,0
69326,-100,4,2,6,70,0,0
69441,-100,4,2,2,70,0,0
73479,-66.6666666666667,4,2,3,70,0,1
73595,-66.6666666666667,4,2,2,70,0,1
79364,-66.6666666666667,4,2,5,70,0,1
79479,-66.6666666666667,4,2,2,70,0,1
80056,-66.6666666666667,4,2,6,70,0,1
80172,-66.6666666666667,4,2,2,70,0,1
86402,-66.6666666666667,4,2,2,70,0,0
88249,-62.5,4,2,3,70,0,1
88402,-62.5,4,2,2,70,0,1
90095,-62.5,4,2,5,70,0,1
90210,-62.5,4,2,2,70,0,1
93787,-62.5,4,2,5,70,0,1
93902,-62.5,4,2,2,70,0,1
94710,-62.5,4,2,2,70,0,0

[Colours]
Combo1 : 128,255,255
Combo2 : 255,128,128
Combo3 : 255,255,128
Combo4 : 128,255,128

[HitObjects]
152,256,3326,5,4,0:0:0:0:
120,120,3556,1,0,0:0:0:0:
72,256,3729,1,4,0:0:0:0:
64,288,3787,2,0,P|176:344|240:224,1,270.000010299683,8|0,0:0|0:0,0:0:0:0:
120,120,4710,2,0,P|75:111|24:120,1,90.0000034332277
152,256,5056,2,0,L|155:237,2,11.2500004291535,0|0|4,0:0|0:0|0:0,0:0:0:0:
152,256,5172,5,4,0:0:0:0:
120,120,5402,1,0,0:0:0:0:
304,176,5518,1,4,0:0:0:0:
244,242,5633,2,0,P|173:344|64:288,1,270.000010299683,8|0,0:0|0:0,0:0:0:0:
120,120,6556,2,0,P|163:111|208:117,1,90.0000034332277
244,242,7018,5,4,0:0:0:0:
64,288,7249,1,0,0:0:0:0:
120,120,7364,1,0,0:0:0:0:
120,120,7479,2,0,L|184:384,1,270.000010299683,8|0,0:0|0:0,0:0:0:0:
223,154,8402,2,0,L|252:276,1,90.0000034332277
243,241,8749,2,0,L|247:258,2,11.2500004291535,0|4|4,0:0|0:0|0:0,0:0:0:0:
184,304,8864,2,0,P|140:314|80:304,1,90.0000034332277,4|0,0:0|0:0,0:0:0:0:
27,217,9210,1,0,0:0:0:0:
27,217,9326,6,0,P|131:161|243:241,1,270.000010299683,8|0,0:0|0:0,0:0:0:0:
224,368,10191,1,2,0:0:0:0:
224,344,10249,2,0,B|212:309|226:280|226:280|243:245|224:200,1,135.000005149841
200,128,10710,6,0,L|64:136,1,135.000005149841,4|4,0:0|0:0,0:0:0:0:
334,120,11402,2,0,L|198:128,1,135.000005149841,4|4,0:0|0:0,0:0:0:0:
199,127,12037,1,0,0:0:0:0:
184,96,12095,2,0,B|200:128|200:128|192:208,1,100,4|0,0:0|0:0,0:0:0:0:
216,264,12556,2,0,P|256:296|312:288,1,103.999995239258,12|0,0:0|0:0,0:0:0:0:
361,235,12787,2,0,P|411:230|451:262,1,103.999995239258
432,336,13018,1,8,0:0:0:0:
432,192,13133,1,0,0:0:0:0:
384,272,13249,1,4,0:0:0:0:
264,216,13364,2,0,P|184:208|104:232,1,155.999992858887,0|8,0:0|0:0,0:0:0:0:
48,328,13710,5,4,0:0:0:0:
56,176,13826,1,0,0:0:0:0:
120,304,13941,1,8,0:0:0:0:
64,160,14056,1,0,0:0:0:0:
128,288,14172,1,0,0:0:0:0:
72,144,14287,2,0,B|64:16|64:16|56:48,1,155.999992858887
128,80,14633,5,0,0:0:0:0:
160,192,14749,1,0,0:0:0:0:
208,64,14864,1,8,0:0:0:0:
72,144,14979,1,0,0:0:0:0:
240,168,15095,1,4,0:0:0:0:
192,40,15210,2,0,L|208:200,1,155.999992858887,0|8,0:0|0:0,0:0:0:0:
112,264,15556,5,4,0:0:0:0:
256,256,15672,1,0,0:0:0:0:
216,352,15787,1,8,0:0:0:0:
152,192,15902,1,0,0:0:0:0:
136,344,16018,1,0,0:0:0:0:
280,240,16133,1,0,0:0:0:0:
152,192,16249,2,0,P|110:188|48:200,1,77.9999964294435,4|0,0:0|0:0,0:0:0:0:
37,342,16479,2,0,P|68:319|104:304,1,77.9999964294435
216,352,16710,5,8,0:0:0:0:
176,272,16826,1,0,0:0:0:0:
200,112,16941,1,4,0:0:0:0:
256,272,17056,2,0,B|313:286|313:286|432:272,1,155.999992858887,0|8,0:0|0:0,0:0:0:0:
344,176,17402,5,4,0:0:0:0:
480,232,17518,1,0,0:0:0:0:
408,120,17633,1,8,0:0:0:0:
376,280,17749,1,0,0:0:0:0:
480,152,17864,1,0,0:0:0:0:
344,64,17979,2,0,P|264:40|200:88,1,155.999992858887
160,192,18326,5,0,0:0:0:0:
280,128,18441,1,0,0:0:0:0:
104,120,18556,2,0,L|16:128,1,77.9999964294435,8|0,0:0|0:0,0:0:0:0:
176,32,18787,1,4,0:0:0:0:
248,216,18902,2,0,P|272:296|200:352,1,155.999992858887,0|8,0:0|0:0,0:0:0:0:
168,168,19249,2,0,P|128:168|80:176,1,77.9999964294435,4|0,0:0|0:0,0:0:0:0:
48,280,19479,5,8,0:0:0:0:
72,128,19595,1,0,0:0:0:0:
112,240,19710,1,0,0:0:0:0:
80,72,19826,1,0,0:0:0:0:
216,176,19941,6,0,L|328:168,1,103.999995239258,4|0,0:0|0:0,0:0:0:0:
439,95,20172,2,0,L|336:88,1,103.999995239258
256,80,20402,5,8,0:0:0:0:
320,168,20518,1,0,0:0:0:0:
200,176,20633,1,4,0:0:0:0:
336,88,20749,2,0,L|496:104,1,155.999992858887,0|8,0:0|0:0,0:0:0:0:
320,168,21095,5,4,0:0:0:0:
256,80,21210,1,0,0:0:0:0:
272,240,21326,2,0,P|266:279|264:320,1,77.9999964294435,8|0,0:0|0:0,0:0:0:0:
256,80,21556,1,0,0:0:0:0:
200,152,21672,2,0,P|128:176|64:128,1,155.999992858887
96,248,22018,5,0,0:0:0:0:
88,88,22133,1,0,0:0:0:0:
32,192,22249,1,8,0:0:0:0:
200,152,22364,1,0,0:0:0:0:
24,120,22479,1,4,0:0:0:0:
176,72,22595,2,0,P|256:88|280:168,1,155.999992858887,0|8,0:0|0:0,0:0:0:0:
400,120,22941,6,0,L|392:208,1,77.9999964294435,4|0,0:0|0:0,0:0:0:0:
312,248,23172,1,8,0:0:0:0:
200,152,23287,1,0,0:0:0:0:
392,197,23402,1,0,0:0:0:0:
224,232,23518,1,0,0:0:0:0:
312,56,23633,6,0,B|298:109|298:109|304:160,1,103.999995239258,4|0,0:0|0:0,0:0:0:0:
224,152,23864,2,0,B|218:103|218:103|232:50,1,103.999995239258
312,56,24095,1,8,0:0:0:0:
224,152,24210,1,0,0:0:0:0:
232,50,24326,1,4,0:0:0:0:
303,157,24441,2,0,P|327:229|287:301,1,155.999992858887,0|8,0:0|0:0,0:0:0:0:
192,240,24787,5,4,0:0:0:0:
224,152,24902,1,0,0:0:0:0:
292,296,25018,2,0,L|284:376,1,77.9999964294435,8|0,0:0|0:0,0:0:0:0:
368,256,25249,1,0,0:0:0:0:
288,104,25364,2,0,P|208:72|152:120,1,155.999992858887
40,80,25710,6,0,P|30:120|24:160,1,77.9999964294435
72,304,25941,1,8,0:0:0:0:
157,109,26056,1,0,0:0:0:0:
176,224,26172,1,0,0:0:0:0:
248,152,26287,1,0,0:0:0:0:
208,304,26402,5,8,0:0:0:0:
208,304,26518,1,0,0:0:0:0:
208,304,26864,1,8,0:0:0:0:
208,304,26979,1,0,0:0:0:0:
384,120,27326,6,0,L|296:112,1,60,4|0,0:0|0:0,0:0:0:0:
368,216,28018,1,0,0:0:0:0:
368,216,28133,1,0,0:0:0:0:
64,160,28479,2,0,L|256:152,1,180,4|0,0:0|0:0,0:0:0:0:
200,232,28941,2,0,L|320:240,1,120,4|0,0:0|0:0,0:0:0:0:
319,239,29402,5,0,0:0:0:0:
319,239,29864,1,0,0:0:0:0:
112,88,30326,2,0,L|104:272,1,180,4|0,0:0|0:0,0:0:0:0:
40,80,30787,2,0,P|64:32|144:24,1,120,4|0,0:0|0:0,0:0:0:0:
268,173,31249,5,0,0:0:0:0:
268,173,31710,1,0,0:0:0:0:
88,248,32172,2,0,P|160:280|240:216,1,180,4|0,0:0|0:0,0:0:0:0:
129,343,32633,2,0,P|184:344|248:313,1,120,4|0,0:0|0:0,0:0:0:0:
242,317,33095,5,0,0:0:0:0:
242,317,33556,2,0,L|216:112,1,180,4|0,0:0|0:0,0:0:0:0:
152,80,34018,2,0,P|114:76|64:88,2,60
96,248,34479,2,0,P|168:256|224:192,1,120,4|0,0:0|0:0,0:0:0:0:
204,230,34941,5,0,0:0:0:0:
204,230,35402,1,0,0:0:0:0:
204,230,35864,2,0,L|384:224,1,180,4|0,0:0|0:0,0:0:0:0:
215,306,36326,2,0,P|160:296|128:240,1,120,4|0,0:0|0:0,0:0:0:0:
263,149,36787,5,0,0:0:0:0:
263,149,37249,1,0,0:0:0:0:
88,80,37710,2,0,P|64:160|128:232,1,180,4|0,0:0|0:0,0:0:0:0:
88,312,38172,2,0,L|224:304,1,120,4|0,0:0|0:0,0:0:0:0:
207,304,38633,5,0,0:0:0:0:
207,304,39095,1,0,0:0:0:0:
207,304,39556,2,0,B|264:296|264:296|328:320|328:320|408:312,1,180,4|0,0:0|0:0,0:0:0:0:
446,250,40018,2,0,P|454:194|438:130,1,120,4|0,0:0|0:0,0:0:0:0:
439,133,40479,5,0,0:0:0:0:
439,133,40941,2,0,B|375:141|375:141|344:112|344:112|312:128|232:120,1,180,4|0,0:0|0:0,0:0:0:0:
184,120,41402,2,0,P|160:115|136:104,3,30
240,32,41633,2,0,L|237:49,14,15,8|0|0|0|0|0|0|0|0|0|0|0|0|0|0,0:0|0:0|0:0|0:0|0:0|0:0|0:0|0:0|0:0|0:0|0:0|0:0|0:0|0:0|0:0,0:0:0:0:
272,122,42095,6,0,L|288:306,1,180,4|4,0:0|0:0,0:0:0:0:
280,80,42787,2,0,L|296:264,1,180,4|4,0:0|0:0,0:0:0:0:
216,296,43249,1,0,0:0:0:0:
136,256,43364,2,0,L|112:258,2,15,0|0|4,0:0|0:0|0:0,0:0:0:0:
136,256,43479,2,0,P|136:168|56:128,1,180,8|0,0:0|0:0,0:0:0:0:
56,216,43941,6,0,P|48:240|40:296,1,60,4|0,0:0|0:0,0:0:0:0:
62,127,44172,2,0,P|85:107|111:92,1,60
136,176,44402,2,0,P|184:208|248:192,1,120,8|0,0:0|0:0,0:0:0:0:
240,104,44749,2,0,L|248:232,1,120
176,280,45095,2,0,P|143:289|96:288,1,60
320,272,45326,2,0,P|353:274|400:264,1,60,8|0,0:0|0:0,0:0:0:0:
176,192,45556,6,0,P|180:159|192:112,1,60
184,0,45787,2,0,L|208:144,1,120,4|0,0:0|0:0,0:0:0:0:
152,240,46133,1,0,0:0:0:0:
72,120,46249,2,0,P|104:112|152:112,2,60,8|0|0,0:0|0:0|0:0,0:0:0:0:
96,296,46595,2,0,P|152:320|224:272,1,120
328,336,46941,2,0,L|336:264,1,60
264,160,47172,1,8,0:0:0:0:
360,128,47287,1,0,0:0:0:0:
224,56,47402,2,0,P|168:48|120:88,1,120,0|4,0:0|0:0,0:0:0:0:
80,312,47864,5,0,0:0:0:0:
80,312,47979,1,0,0:0:0:0:
80,312,48095,2,0,L|72:224,1,60,8|0,0:0|0:0,0:0:0:0:
160,152,48326,1,0,0:0:0:0:
160,152,48441,2,0,P|208:176|272:152,1,120
136,64,48787,2,0,P|88:96|72:160,1,120,0|8,0:0|0:0,0:0:0:0:
71,153,49133,1,0,0:0:0:0:
128,272,49249,6,0,P|74:271|8:280,1,120,0|4,0:0|0:0,0:0:0:0:
272,336,49710,1,0,0:0:0:0:
272,336,49941,2,0,L|280:264,1,60,8|0,0:0|0:0,0:0:0:0:
232,64,50172,2,0,P|304:104|392:64,1,180
504,32,50633,2,0,L|512:112,1,60
384,56,50864,1,8,0:0:0:0:
215,183,51095,2,0,P|138:143|59:179,1,180
336,344,51556,6,0,L|328:256,1,60
216,184,51787,2,0,L|205:303,1,120,8|0,0:0|0:0,0:0:0:0:
256,120,52133,2,0,P|312:104|376:136,1,120
488,72,52479,2,0,L|480:144,1,60
368,128,52710,1,8,0:0:0:0:
162,159,52941,2,0,P|186:175|234:183,1,60
368,128,53172,1,4,0:0:0:0:
312,48,53287,2,0,P|286:60|255:98,2,60
147,39,53633,6,0,L|163:167,1,120,8|0,0:0|0:0,0:0:0:0:
48,224,53979,2,0,P|17:214|-16:208,1,60,0|4,0:0|0:0,0:0:0:0:
80,304,54210,1,0,0:0:0:0:
56,127,54326,2,0,P|72:103|95:84,1,60
264,82,54556,1,8,0:0:0:0:
264,82,54787,1,0,0:0:0:0:
264,82,55018,1,4,0:0:0:0:
280,208,55249,6,0,L|272:280,2,60,0|0|8,0:0|0:0|0:0,0:0:0:0:
368,304,55595,2,0,L|385:374,1,60
352,160,55826,2,0,P|288:120|232:136,1,120
160,24,56172,2,0,P|146:56|136:96,1,60
59,224,56402,2,0,P|48:196|40:168,1,60,8|0,0:0|0:0,0:0:0:0:
64,72,56633,1,0,0:0:0:0:
59,224,56749,1,0,0:0:0:0:
247,127,56864,2,0,P|299:101|367:119,1,120,4|0,0:0|0:0,0:0:0:0:
264,172,57787,5,0,0:0:0:0:
375,29,57902,1,0,0:0:0:0:
441,196,58018,1,0,0:0:0:0:
258,154,58133,1,0,0:0:0:0:
392,33,58248,1,0,0:0:0:0:
428,209,58364,1,0,0:0:0:0:
249,142,58479,1,0,0:0:0:0:
402,45,58594,1,0,0:0:0:0:
64,272,58710,6,0,P|104:288|168:272,1,80,4|0,0:0|0:0,0:0:0:0:
224,264,58941,2,0,P|263:262|300:277,1,80
32,192,59172,2,0,P|-16:256|24:352,1,180,8|0,0:0|0:0,0:0:0:0:
96,104,59633,6,0,L|208:96,1,80,4|0,0:0|0:0,0:0:0:0:
238,35,59864,2,0,L|350:27,1,80
40,176,60095,2,0,P|8:95|59:25,1,180,8|0,0:0|0:0,0:0:0:0:
311,267,60556,6,0,B|299:229|299:229|309:176,1,80,4|0,0:0|0:0,0:0:0:0:
216,200,60787,2,0,B|208:239|208:239|219:277,1,80
372,129,61018,2,0,P|292:99|224:152,1,180,8|0,0:0|0:0,0:0:0:0:
96,144,61479,2,0,L|112:288,1,120,4|0,0:0|0:0,0:0:0:0:
224,151,61826,2,0,L|237:31,1,120
109,263,62172,2,0,L|103:322,1,60
304,248,62402,6,0,P|344:264|408:256,1,80,4|0,0:0|0:0,0:0:0:0:
224,151,62633,2,0,P|184:135|120:143,1,80
330,73,62864,2,0,B|314:129|314:129|322:193|322:193|298:265,1,180,8|0,0:0|0:0,0:0:0:0:
392,128,63326,6,0,P|408:88|402:50,1,80,4|0,0:0|0:0,0:0:0:0:
240,200,63556,2,0,P|224:240|229:277,1,80
263,59,63787,2,0,P|352:56|391:131,1,180,8|0,0:0|0:0,0:0:0:0:
263,59,64249,6,0,P|224:78|184:80,1,80,4|0,0:0|0:0,0:0:0:0:
391,127,64479,2,0,P|426:108|466:105,1,80
267,208,64710,2,0,P|307:128|259:56,1,180,8|0,0:0|0:0,0:0:0:0:
267,208,65172,1,4,0:0:0:0:
267,208,65287,1,0,0:0:0:0:
64,224,65518,1,0,0:0:0:0:
64,224,65633,1,8,0:0:0:0:
336,232,65864,2,0,L|408:240,1,60
272,184,66095,6,0,P|256:224|261:265,1,80,4|0,0:0|0:0,0:0:0:0:
320,104,66326,2,0,P|293:70|255:53,1,80
368,192,66556,2,0,P|448:240|440:328,1,180,8|0,0:0|0:0,0:0:0:0:
384,112,67018,6,0,L|280:120,1,80,4|0,0:0|0:0,0:0:0:0:
376,272,67249,2,0,L|296:265,1,80
216,192,67479,2,0,L|32:200,1,180,8|0,0:0|0:0,0:0:0:0:
112,128,67941,6,0,P|123:88|120:24,1,80,4|0,0:0|0:0,0:0:0:0:
112,264,68172,2,0,P|113:305|96:367,1,80
216,192,68402,2,0,L|400:200,1,180,8|0,0:0|0:0,0:0:0:0:
168,128,68864,2,0,P|136:184|160:248,1,120,4|0,0:0|0:0,0:0:0:0:
448,264,69210,2,0,P|480:208|456:144,1,120
136,56,69556,2,0,P|102:60|48:72,1,60
24,276,69787,2,0,P|43:253|64:232,1,60,4|0,0:0|0:0,0:0:0:0:
224,176,70018,5,0,0:0:0:0:
224,176,70133,1,0,0:0:0:0:
224,176,70249,2,0,P|272:208|344:192,1,120,8|0,0:0|0:0,0:0:0:0:
184,88,70595,1,0,0:0:0:0:
184,88,70710,2,0,P|134:55|76:63,1,120,4|0,0:0|0:0,0:0:0:0:
152,304,71056,1,0,0:0:0:0:
152,304,71172,2,0,P|208:328|272:304,1,120,8|0,0:0|0:0,0:0:0:0:
104,232,71518,1,0,0:0:0:0:
104,232,71633,2,0,L|128:96,2,120,8|8|8,0:0|0:0|0:0,0:0:0:0:
256,192,72210,12,0,73249,0:0:0:0:
352,224,73479,6,0,L|360:120,1,90.0000034332277,12|0,0:0|0:0,0:0:0:0:
200,56,73710,2,0,L|206:145,1,90.0000034332277,0|4,0:0|0:0,0:0:0:0:
48,304,73941,2,0,P|128:328|200:264,1,180.000006866455,8|4,0:0|0:0,0:0:0:0:
197,271,74287,1,0,0:0:0:0:
88,128,74402,2,0,P|43:118|-16:120,2,90.0000034332277,0|8|4,0:0|0:0|0:0,0:0:0:0:
48,304,74749,1,0,0:0:0:0:
197,271,74864,2,0,L|293:279,1,90.0000034332277,8|0,0:0|0:0,0:0:0:0:
217,101,75095,2,0,L|162:180,1,90.0000034332277
353,203,75326,6,0,P|340:86|210:111,1,270.000010299683,4|4,0:0|0:0,0:0:0:0:
104,240,75787,2,0,P|53:235|8:216,1,90.0000034332277,8|0,0:0|0:0,0:0:0:0:
200,192,76018,2,0,P|232:272|192:368,1,180.000006866455,4|0,0:0|0:0,0:0:0:0:
353,203,76364,1,8,0:0:0:0:
144,72,76479,2,0,P|94:72|48:88,1,90.0000034332277,4|0,0:0|0:0,0:0:0:0:
202,357,76710,2,0,P|252:357|298:341,1,90.0000034332277,8|0,0:0|0:0,0:0:0:0:
353,203,76941,1,0,0:0:0:0:
304,96,77056,1,0,0:0:0:0:
152,192,77172,6,0,L|168:280,1,90.0000034332277,4|0,0:0|0:0,0:0:0:0:
304,96,77402,2,0,L|288:184,1,90.0000034332277,0|4,0:0|0:0,0:0:0:0:
384,336,77633,2,0,P|424:256|384:176,1,180.000006866455,8|4,0:0|0:0,0:0:0:0:
67,230,77979,2,0,P|116:305|205:310,1,180.000006866455,0|8,0:0|0:0,0:0:0:0:
316,9,78326,2,0,P|227:14|184:72,1,90.0000034332277,4|0,0:0|0:0,0:0:0:0:
112,144,78556,5,8,0:0:0:0:
72,48,78672,1,0,0:0:0:0:
80,224,78787,1,0,0:0:0:0:
144,72,78902,1,0,0:0:0:0:
96,296,79018,2,0,P|136:312|200:312,1,90.0000034332277,4|0,0:0|0:0,0:0:0:0:
184,136,79249,2,0,P|232:208|200:296,1,180.000006866455,0|8,0:0|0:0,0:0:0:0:
204,291,79595,1,0,0:0:0:0:
232,72,79710,6,0,P|280:64|336:72,1,90.0000034332277,4|0,0:0|0:0,0:0:0:0:
464,176,79941,2,0,L|448:368,1,180.000006866455,0|4,0:0|0:0,0:0:0:0:
449,355,80287,1,0,0:0:0:0:
296,256,80402,2,0,L|200:272,1,90.0000034332277,8|0,0:0|0:0,0:0:0:0:
47,118,80633,2,0,L|136:104,1,90.0000034332277
384,270,80864,6,0,L|295:255,2,90.0000034332277,4|0|0,0:0|0:0|0:0,0:0:0:0:
384,270,81210,1,4,0:0:0:0:
224,144,81326,2,0,P|136:120|64:176,1,180.000006866455,8|4,0:0|0:0,0:0:0:0:
288,240,81672,2,0,P|376:264|448:208,1,180.000006866455,0|8,0:0|0:0,0:0:0:0:
256,88,82018,2,0,P|216:64|144:56,1,90.0000034332277,4|0,0:0|0:0,0:0:0:0:
256,296,82249,2,0,P|296:320|368:328,1,90.0000034332277,8|0,0:0|0:0,0:0:0:0:
443,215,82479,5,0,0:0:0:0:
256,88,82595,1,0,0:0:0:0:
288,240,82710,2,0,P|168:280|80:184,1,270.000010299683,4|4,0:0|0:0,0:0:0:0:
288,240,83172,2,0,L|272:352,1,90.0000034332277,8|0,0:0|0:0,0:0:0:0:
152,56,83402,2,0,L|176:256,1,180.000006866455,4|0,0:0|0:0,0:0:0:0:
173,234,83749,1,8,0:0:0:0:
192,64,83864,6,0,L|288:72,1,90.0000034332277,4|0,0:0|0:0,0:0:0:0:
173,234,84095,2,0,L|77:242,1,90.0000034332277,8|0,0:0|0:0,0:0:0:0:
248,312,84326,1,0,0:0:0:0:
232,136,84441,1,0,0:0:0:0:
216,248,84556,2,0,L|312:256,1,90.0000034332277,4|0,0:0|0:0,0:0:0:0:
272,80,84787,2,0,L|361:72,1,90.0000034332277,0|4,0:0|0:0,0:0:0:0:
216,248,85018,2,0,P|168:168|208:96,1,180.000006866455,8|4,0:0|0:0,0:0:0:0:
305,255,85364,6,0,P|398:253|440:324,1,180.000006866455,0|8,0:0|0:0,0:0:0:0:
440,320,85710,1,4,0:0:0:0:
440,136,85826,1,0,0:0:0:0:
392,224,85941,1,8,0:0:0:0:
344,48,86056,1,0,0:0:0:0:
200,152,86172,1,0,0:0:0:0:
376,136,86287,1,0,0:0:0:0:
272,104,86402,1,4,0:0:0:0:
272,104,86633,6,0,B|208:96|208:96|160:112|160:112|80:96,1,180.000006866455,8|0,0:0|0:0,0:0:0:0:
96,99,86979,1,0,0:0:0:0:
192,248,87095,2,0,P|189:297|176:344,1,90.0000034332277,8|0,0:0|0:0,0:0:0:0:
128,160,87326,5,8,0:0:0:0:
288,240,87441,1,0,0:0:0:0:
184,96,87556,1,8,0:0:0:0:
216,224,87672,1,0,0:0:0:0:
248,40,87787,1,8,0:0:0:0:
275,261,87902,1,8,0:0:0:0:
360,120,88018,1,8,0:0:0:0:
144,48,88133,1,8,0:0:0:0:
152,264,88249,6,0,P|208:248|280:264,1,128,12|0,0:0|0:0,0:0:0:0:
360,120,88479,2,0,P|304:136|232:120,1,128
144,48,88710,1,8,0:0:0:0:
88,184,88826,1,0,0:0:0:0:
232,40,88941,1,4,0:0:0:0:
248,256,89056,2,0,P|344:296|424:224,1,192,0|8,0:0|0:0,0:0:0:0:
160,264,89402,5,4,0:0:0:0:
328,208,89518,1,0,0:0:0:0:
192,184,89633,1,8,0:0:0:0:
248,56,89749,1,0,0:0:0:0:
224,320,89864,1,0,0:0:0:0:
104,192,89979,2,0,P|72:104|120:16,1,192
248,56,90326,5,0,0:0:0:0:
168,256,90441,1,0,0:0:0:0:
168,80,90556,1,8,0:0:0:0:
368,160,90672,1,0,0:0:0:0:
112,168,90787,1,4,0:0:0:0:
272,144,90902,2,0,P|256:240|320:304,1,192,0|8,0:0|0:0,0:0:0:0:
368,160,91249,5,4,0:0:0:0:
208,296,91364,1,0,0:0:0:0:
336,80,91479,1,8,0:0:0:0:
256,352,91595,1,0,0:0:0:0:
272,32,91710,1,0,0:0:0:0:
328,360,91826,1,0,0:0:0:0:
256,120,91941,6,0,L|128:128,1,128,4|0,0:0|0:0,0:0:0:0:
248,208,92172,2,0,L|376:216,1,128
480,312,92402,1,8,0:0:0:0:
336,152,92518,1,0,0:0:0:0:
392,48,92633,1,4,0:0:0:0:
392,296,92749,2,0,P|304:328|216:280,1,192,0|8,0:0|0:0,0:0:0:0:
184,160,93095,5,4,0:0:0:0:
392,48,93210,1,0,0:0:0:0:
312,240,93326,1,8,0:0:0:0:
312,32,93441,1,0,0:0:0:0:
368,288,93556,1,0,0:0:0:0:
232,56,93672,2,0,P|192:144|240:224,1,192
368,288,94018,5,0,0:0:0:0:
232,56,94133,1,0,0:0:0:0:
176,280,94249,1,8,0:0:0:0:
360,176,94364,1,0,0:0:0:0:
96,176,94479,1,8,0:0:0:0:
304,336,94595,1,0,0:0:0:0:
232,56,94710,5,12,0:0:0:0:
232,56,95056,1,12,0:0:0:0:
232,56,95402,1,12,0:0:0:0:
