osu file format v14

[General]
AudioFilename: flumpool - Yoru Wa Nemureru Kai.mp3
AudioLeadIn: 0
PreviewTime: 73018
Countdown: 0
SampleSet: Soft
StackLeniency: 0.7
Mode: 0
LetterboxInBreaks: 0
WidescreenStoryboard: 1

[Editor]
DistanceSpacing: 1.2
BeatDivisor: 4
GridSize: 4
TimelineZoom: 3.099999

[Metadata]
Title:Yoru Wa Nemureru Kai
TitleUnicode:夜は眠れるかい
Artist:flumpool
ArtistUnicode:flumpool
Creator:-[ Nymph ]-
Version:Insane
Source:Ajin
Tags:OP cut version
BeatmapID:971661
BeatmapSetID:415995

[Difficulty]
HPDrainRate:6
CircleSize:4
OverallDifficulty:6
ApproachRate:9
SliderMultiplier:1.9
SliderTickRate:4

[Events]
//Background and Video events
0,0,"AJIN-Camuncoli-Variant-Cover.jpg",0,0
//Break Periods
//Storyboard Layer 0 (Background)
//Storyboard Layer 1 (Fail)
//Storyboard Layer 2 (Pass)
//Storyboard Layer 3 (Foreground)
//Storyboard Sound Samples

[TimingPoints]
3326,461.538461538462,4,2,2,30,1,0
4018,-100,4,2,5,30,0,0
4133,-100,4,2,2,30,0,0
5864,-100,4,2,5,30,0,0
5979,-100,4,2,2,30,0,0
7710,-100,4,2,5,30,0,0
7826,-100,4,2,2,30,0,0
9556,-100,4,2,5,30,0,0
9672,-100,4,2,2,30,0,0
12556,-83.3333333333333,4,2,3,60,0,0
12672,-83.3333333333333,4,2,2,60,0,0
14402,-83.3333333333333,4,2,5,60,0,0
14518,-83.3333333333333,4,2,2,60,0,0
18095,-83.3333333333333,4,2,5,60,0,0
18210,-83.3333333333333,4,2,2,60,0,0
21787,-83.3333333333333,4,2,5,60,0,0
21902,-83.3333333333333,4,2,2,60,0,0
25479,-83.3333333333333,4,2,5,60,0,0
25595,-83.3333333333333,4,2,2,60,0,0
41633,-83.3333333333333,4,2,2,60,0,0
41749,-83.3333333333333,4,2,2,60,0,0
41864,-83.3333333333333,4,2,2,40,0,0
41979,-83.3333333333333,4,2,2,30,0,0
42095,-83.3333333333333,4,2,2,70,0,0
44864,-83.3333333333333,4,2,5,70,0,0
44979,-83.3333333333333,4,2,2,70,0,0
46710,-83.3333333333333,4,2,5,70,0,0
46826,-83.3333333333333,4,2,2,70,0,0
48556,-83.3333333333333,4,2,5,70,0,0
48672,-83.3333333333333,4,2,2,70,0,0
50402,-83.3333333333333,4,2,5,70,0,0
50518,-83.3333333333333,4,2,2,70,0,0
52249,-83.3333333333333,4,2,5,70,0,0
52364,-83.3333333333333,4,2,2,70,0,0
54095,-83.3333333333333,4,2,5,70,0,0
54210,-83.3333333333333,4,2,2,70,0,0
55941,-83.3333333333333,4,2,5,70,0,0
56056,-83.3333333333333,4,2,2,70,0,0
61941,-83.3333333333333,4,2,6,70,0,0
62056,-83.3333333333333,4,2,2,70,0,0
65633,-83.3333333333333,4,2,6,70,0,0
65749,-83.3333333333333,4,2,2,70,0,0
73479,-66.6666666666667,4,2,3,70,0,1
73595,-66.6666666666667,4,2,2,70,0,1
79364,-83.3333333333333,4,2,5,70,0,0
79479,-66.6666666666667,4,2,2,70,0,1
84902,-83.3333333333333,4,2,5,70,0,1
85018,-66.6666666666667,4,2,2,70,0,1
86402,-66.6666666666667,4,2,2,70,0,0
88249,-66.6666666666667,4,2,3,70,0,1
88364,-66.6666666666667,4,2,2,70,0,1
90095,-83.3333333333333,4,2,5,70,0,1
90210,-66.6666666666667,4,2,2,70,0,1
92287,-83.3333333333333,4,2,5,70,0,1
92402,-66.6666666666667,4,2,2,70,0,1
93787,-83.3333333333333,4,2,5,70,0,1
93902,-66.6666666666667,4,2,2,70,0,1
94710,-66.6666666666667,4,2,2,70,0,0

[Colours]
Combo1 : 128,255,255
Combo2 : 255,128,128
Combo3 : 255,255,128
Combo4 : 128,255,128

[HitObjects]
208,312,3326,6,0,L|200:208,1,95,4|0,0:0|0:0,0:0:0:0:
267,150,3787,2,0,P|363:166|427:102,2,190,8|0|0,0:0|0:0|0:0,0:0:0:0:
199,82,4941,1,0,0:0:0:0:
131,149,5172,2,0,L|36:156,1,95,4|0,0:0|0:0,0:0:0:0:
194,218,5633,2,0,P|224:302|138:380,2,190,8|0|0,0:0|0:0|0:0,0:0:0:0:
136,288,6787,5,0,0:0:0:0:
253,161,7018,2,0,P|301:153|357:161,1,95,4|0,0:0|0:0,0:0:0:0:
163,129,7479,2,0,P|107:201|147:297,2,190,8|0|0,0:0|0:0|0:0,0:0:0:0:
200,344,8633,1,0,0:0:0:0:
200,344,8864,2,0,L|296:336,1,95,4|0,0:0|0:0,0:0:0:0:
362,268,9326,2,0,L|346:60,1,190,8|0,0:0|0:0,0:0:0:0:
266,34,10018,5,0,0:0:0:0:
266,34,10249,2,0,P|234:98|266:162,1,142.5
288,200,10710,2,0,L|132:179,2,142.5,4|4|4,0:0|0:0|0:0,0:0:0:0:
72,208,11749,2,0,P|72:160|104:112,1,95,4|0,0:0|0:0,0:0:0:0:
144,112,12095,2,0,P|80:112|48:32,1,142.5,12|0,0:0|0:0,0:0:0:0:
144,112,12556,6,0,L|136:216,1,56.9999982604981,12|0,0:0|0:0,0:0:0:0:
184,240,12787,2,0,L|192:344,1,56.9999982604981,0|4,0:0|0:0,0:0:0:0:
232,160,13018,2,0,P|260:155|313:158,1,56.9999982604981,8|0,0:0|0:0,0:0:0:0:
336,88,13249,1,4,0:0:0:0:
256,64,13364,2,0,P|200:80|136:56,1,113.999996520996,0|8,0:0|0:0,0:0:0:0:
344,32,13710,6,0,L|336:96,1,56.9999982604981,4|0,0:0|0:0,0:0:0:0:
424,104,13941,2,0,L|416:168,1,56.9999982604981,8|0,0:0|0:0,0:0:0:0:
293,251,14172,1,0,0:0:0:0:
212,196,14287,2,0,P|204:132|236:92,1,113.999996520996
96,136,14633,6,0,P|63:142|32:152,1,56.9999982604981,0|4,0:0|0:0,0:0:0:0:
63,297,14864,2,0,P|79:273|97:251,1,56.9999982604981,8|0,0:0|0:0,0:0:0:0:
184,227,15095,1,4,0:0:0:0:
216,312,15210,2,0,P|272:328|336:288,1,113.999996520996,0|8,0:0|0:0,0:0:0:0:
296,224,15556,2,0,L|304:160,1,56.9999982604981,4|0,0:0|0:0,0:0:0:0:
408,272,15787,2,0,L|400:208,1,56.9999982604981,8|0,0:0|0:0,0:0:0:0:
435,134,16018,1,0,0:0:0:0:
352,104,16133,1,0,0:0:0:0:
272,88,16249,6,0,P|215:82|160:128,1,113.999996520996,4|0,0:0|0:0,0:0:0:0:
80,120,16595,1,4,0:0:0:0:
80,120,16710,2,0,L|75:214,1,56.9999982604981,8|0,0:0|0:0,0:0:0:0:
120,248,16941,1,4,0:0:0:0:
64,320,17056,2,0,P|120:304|176:320,1,113.999996520996,0|8,0:0|0:0,0:0:0:0:
256,352,17402,6,0,P|288:353|320:352,1,56.9999982604981,4|0,0:0|0:0,0:0:0:0:
432,288,17633,2,0,P|404:286|376:288,1,56.9999982604981,8|0,0:0|0:0,0:0:0:0:
490,234,17864,1,0,0:0:0:0:
464,152,17979,2,0,B|456:112|456:112|464:80|464:80|456:32,1,113.999996520996
392,200,18326,2,0,P|359:201|320:216,1,56.9999982604981,0|4,0:0|0:0,0:0:0:0:
208,264,18556,2,0,P|236:263|264:256,1,56.9999982604981,8|0,0:0|0:0,0:0:0:0:
321,106,18787,1,4,0:0:0:0:
224,56,18902,2,0,L|216:200,1,113.999996520996,0|8,0:0|0:0,0:0:0:0:
264,256,19249,6,0,L|260:340,1,56.9999982604981,4|0,0:0|0:0,0:0:0:0:
336,176,19479,2,0,L|333:119,1,56.9999982604981,8|0,0:0|0:0,0:0:0:0:
192,192,19710,2,0,L|135:189,1,56.9999982604981
64,144,19941,6,0,P|56:88|80:24,1,113.999996520996,4|0,0:0|0:0,0:0:0:0:
158,78,20287,1,4,0:0:0:0:
158,78,20402,2,0,L|240:88,1,56.9999982604981,8|0,0:0|0:0,0:0:0:0:
280,144,20633,1,4,0:0:0:0:
360,112,20749,2,0,P|415:102|448:40,1,113.999996520996,0|8,0:0|0:0,0:0:0:0:
440,200,21095,6,0,L|448:272,1,56.9999982604981,4|0,0:0|0:0,0:0:0:0:
385,317,21326,2,0,L|377:389,1,56.9999982604981,8|0,0:0|0:0,0:0:0:0:
297,277,21556,1,0,0:0:0:0:
344,216,21672,2,0,P|280:200|224:248,1,113.999996520996
128,56,22018,2,0,L|136:128,1,56.9999982604981,0|4,0:0|0:0,0:0:0:0:
312,176,22249,2,0,L|305:232,1,56.9999982604981,8|0,0:0|0:0,0:0:0:0:
204,57,22479,1,4,0:0:0:0:
134,112,22595,2,0,L|150:240,1,113.999996520996,0|8,0:0|0:0,0:0:0:0:
88,288,22941,6,0,L|17:282,1,56.9999982604981,4|0,0:0|0:0,0:0:0:0:
192,160,23172,2,0,L|263:154,1,56.9999982604981,8|0,0:0|0:0,0:0:0:0:
272,72,23402,1,0,0:0:0:0:
320,8,23518,1,0,0:0:0:0:
352,80,23633,2,0,P|344:136|368:216,1,113.999996520996,4|0,0:0|0:0,0:0:0:0:
437,174,23979,1,4,0:0:0:0:
416,256,24095,6,0,L|328:280,1,56.9999982604981,8|0,0:0|0:0,0:0:0:0:
265,368,24326,1,4,0:0:0:0:
200,304,24441,2,0,P|146:284|80:296,1,113.999996520996,0|8,0:0|0:0,0:0:0:0:
64,208,24787,2,0,L|8:240,1,56.9999982604981,4|0,0:0|0:0,0:0:0:0:
81,109,25018,2,0,L|17:109,1,56.9999982604981,8|0,0:0|0:0,0:0:0:0:
143,43,25249,1,0,0:0:0:0:
224,104,25364,2,0,P|272:120|336:80,1,113.999996520996
408,80,25710,6,0,L|416:144,1,56.9999982604981,0|4,0:0|0:0,0:0:0:0:
441,260,25941,2,0,L|464:208,2,56.9999982604981,8|0|8,0:0|0:0|0:0,0:0:0:0:
368,216,26287,1,8,0:0:0:0:
296,264,26402,5,8,0:0:0:0:
296,264,26518,1,0,0:0:0:0:
104,192,26864,5,8,0:0:0:0:
104,192,26980,1,0,0:0:0:0:
331,310,27326,6,0,B|359:257|322:202|322:202|282:143|334:74,1,227.999993041992,4|0,0:0|0:0,0:0:0:0:
320,94,28018,1,0,0:0:0:0:
320,94,28133,1,0,0:0:0:0:
96,288,28479,2,0,P|152:312|256:192,1,227.999993041992,4|4,0:0|0:0,0:0:0:0:
258,210,29402,5,0,0:0:0:0:
258,210,29864,1,0,0:0:0:0:
48,112,30326,2,0,B|112:88|176:136|176:136|216:112|288:120,1,227.999993041992,4|4,0:0|0:0,0:0:0:0:
264,118,31249,5,0,0:0:0:0:
264,118,31710,1,0,0:0:0:0:
260,336,32172,2,0,B|276:280|276:280|260:224|260:224|292:160|260:112,1,227.999993041992,4|4,0:0|0:0,0:0:0:0:
263,117,33095,5,0,0:0:0:0:
263,117,33556,2,0,P|160:136|80:48,1,227.999993041992,4|0,0:0|0:0,0:0:0:0:
81,53,34479,2,0,B|90:86|112:110|112:110|88:296,1,227.999993041992,4|0,0:0|0:0,0:0:0:0:
91,271,35402,5,0,0:0:0:0:
92,272,35864,2,0,B|145:265|145:265|206:294|257:257|257:257|337:257,1,227.999993041992,4|4,0:0|0:0,0:0:0:0:
312,257,36787,5,0,0:0:0:0:
312,257,37249,1,0,0:0:0:0:
315,260,37710,2,0,P|352:160|272:56,1,227.999993041992,4|4,0:0|0:0,0:0:0:0:
290,64,38633,5,0,0:0:0:0:
290,64,39095,1,0,0:0:0:0:
290,64,39556,2,0,B|232:56|232:56|128:96|128:96|32:88,1,227.999993041992,4|4,0:0|0:0,0:0:0:0:
70,91,40479,5,0,0:0:0:0:
70,91,40941,2,0,L|296:112,1,170.999994781494,4|0,0:0|0:0,0:0:0:0:
168,252,41402,2,0,L|192:212,3,28.4999991302491
240,344,41633,2,0,L|224:344,14,14.2499995651245,8|0|0|0|0|0|0|0|0|0|0|0|0|0|0,0:0|0:0|0:0|0:0|0:0|0:0|0:0|0:0|0:0|0:0|0:0|0:0|0:0|0:0|0:0,0:0:0:0:
280,328,42095,6,0,P|312:284|312:208,1,113.999996520996,6|0,0:0|0:0,0:0:0:0:
126,144,42441,2,0,P|148:194|214:232,1,113.999996520996,6|0,0:0|0:0,0:0:0:0:
361,103,42787,2,0,P|307:97|241:135,1,113.999996520996,6|0,0:0|0:0,0:0:0:0:
240,276,43133,2,0,P|263:224|309:192,1,113.999996520996,6|4,0:0|0:0,0:0:0:0:
377,113,43479,2,0,P|404:192|376:272,1,170.999994781494,10|0,0:0|0:0,0:0:0:0:
224,64,43941,6,0,L|168:68,1,56.9999982604981,6|0,0:0|0:0,0:0:0:0:
50,132,44172,2,0,L|106:128,1,56.9999982604981
160,196,44402,2,0,P|172:252|164:308,1,113.999996520996,8|0,0:0|0:0,0:0:0:0:
248,176,44749,2,0,P|240:119|252:64,1,113.999996520996
388,24,45095,2,0,L|392:92,1,56.9999982604981,2|0,0:0|0:0,0:0:0:0:
452,141,45326,1,8,0:0:0:0:
388,360,45556,2,0,L|392:292,1,56.9999982604981,2|0,0:0|0:0,0:0:0:0:
452,243,45787,1,4,0:0:0:0:
304,160,46018,6,0,P|272:161|236:168,2,56.9999982604981,0|0|8,0:0|0:0|0:0,0:0:0:0:
284,244,46364,1,0,0:0:0:0:
224,300,46479,1,0,0:0:0:0:
164,240,46595,2,0,L|176:80,1,113.999996520996
104,52,46941,2,0,L|99:108,1,56.9999982604981,2|0,0:0|0:0,0:0:0:0:
88,192,47172,1,8,0:0:0:0:
268,104,47402,2,0,L|272:160,1,56.9999982604981,2|0,0:0|0:0,0:0:0:0:
284,244,47633,1,4,0:0:0:0:
88,308,47864,6,0,P|55:300|20:300,1,56.9999982604981
178,246,48095,2,0,P|230:226|302:262,1,113.999996520996,8|0,0:0|0:0,0:0:0:0:
319,45,48441,2,0,P|310:100|243:144,1,113.999996520996
432,68,48787,2,0,L|448:132,1,56.9999982604981,2|0,0:0|0:0,0:0:0:0:
472,204,49018,1,8,0:0:0:0:
228,124,49249,2,0,P|261:124|304:120,1,56.9999982604981,2|0,0:0|0:0,0:0:0:0:
368,104,49479,1,4,0:0:0:0:
332,316,49710,1,0,0:0:0:0:
196,236,49941,5,8,0:0:0:0:
196,236,50172,2,0,L|24:256,1,170.999994781494,2|0,0:0|0:0,0:0:0:0:
54,175,50633,2,0,P|56:141|54:99,1,56.9999982604981
36,34,50864,1,8,0:0:0:0:
280,48,51095,2,0,P|279:106|276:184,1,113.999996520996,2|4,0:0|0:0,0:0:0:0:
368,304,51556,6,0,L|436:296,1,56.9999982604981
300,240,51787,2,0,L|184:236,1,113.999996520996,8|0,0:0|0:0,0:0:0:0:
125,175,52133,2,0,P|113:119|137:55,1,113.999996520996
56,24,52479,2,0,P|21:26|-16:36,1,56.9999982604981,2|0,0:0|0:0,0:0:0:0:
16,116,52710,1,8,0:0:0:0:
148,320,52941,2,0,L|152:248,1,56.9999982604981,2|0,0:0|0:0,0:0:0:0:
64,268,53172,1,4,0:0:0:0:
151,85,53402,5,0,0:0:0:0:
231,61,53518,1,0,0:0:0:0:
215,141,53633,2,0,P|271:153|339:129,1,113.999996520996,8|0,0:0|0:0,0:0:0:0:
416,48,53979,2,0,L|408:164,1,113.999996520996
346,223,54326,2,0,L|338:311,1,56.9999982604981,2|0,0:0|0:0,0:0:0:0:
336,364,54556,1,8,0:0:0:0:
272,168,54787,2,0,P|240:164|188:168,1,56.9999982604981,2|0,0:0|0:0,0:0:0:0:
132,180,55018,1,4,0:0:0:0:
376,56,55249,5,0,0:0:0:0:
376,56,55479,2,0,L|368:172,1,113.999996520996,8|0,0:0|0:0,0:0:0:0:
454,169,55826,2,0,L|462:285,1,113.999996520996
401,343,56172,2,0,P|374:348|344:344,1,56.9999982604981,2|0,0:0|0:0,0:0:0:0:
284,283,56402,2,0,P|255:279|227:284,1,56.9999982604981,8|0,0:0|0:0,0:0:0:0:
167,345,56633,2,0,P|139:350|110:346,1,56.9999982604981
50,285,56864,1,6,0:0:0:0:
256,192,56979,12,0,58479,0:0:0:0:
220,124,58710,6,0,P|252:129|284:132,1,56.9999982604981,4|0,0:0|0:0,0:0:0:0:
364,136,58941,2,0,P|396:136|428:132,1,56.9999982604981
152,48,59172,2,0,P|116:120|168:212,1,170.999994781494,8|0,0:0|0:0,0:0:0:0:
80,344,59633,6,0,L|172:340,2,56.9999982604981,4|0|0,0:0|0:0|0:0,0:0:0:0:
136,264,59979,1,0,0:0:0:0:
216,272,60095,2,0,L|204:92,1,170.999994781494,8|0,0:0|0:0,0:0:0:0:
396,160,60556,6,0,P|425:160|472:148,1,56.9999982604981,4|0,0:0|0:0,0:0:0:0:
261,106,60787,2,0,P|233:100|204:100,1,56.9999982604981
36,196,61018,2,0,P|116:232|200:176,1,170.999994781494,8|0,0:0|0:0,0:0:0:0:
261,106,61479,2,0,L|276:232,1,113.999996520996,4|0,0:0|0:0,0:0:0:0:
200,56,61826,2,0,P|248:28|312:48,1,113.999996520996
380,144,62172,2,0,L|448:128,1,56.9999982604981
304,97,62402,6,0,P|300:65|304:25,1,56.9999982604981,4|0,0:0|0:0,0:0:0:0:
232,152,62633,2,0,L|164:136,1,56.9999982604981
304,200,62864,2,0,B|268:280|336:280|300:376,1,170.999994781494,8|0,0:0|0:0,0:0:0:0:
376,232,63326,6,0,P|382:200|372:160,1,56.9999982604981,4|0,0:0|0:0,0:0:0:0:
240,328,63556,2,0,P|233:359|244:400,1,56.9999982604981
300,252,63787,2,0,P|212:232|152:288,1,170.999994781494,8|0,0:0|0:0,0:0:0:0:
96,220,64249,6,0,P|65:221|16:236,2,56.9999982604981,4|0|0,0:0|0:0|0:0,0:0:0:0:
84,140,64595,1,0,0:0:0:0:
76,60,64710,2,0,P|155:64|256:72,1,170.999994781494,8|0,0:0|0:0,0:0:0:0:
315,78,65172,6,0,P|315:148|319:218,1,113.999996520996,4|0,0:0|0:0,0:0:0:0:
321,260,65518,2,0,P|381:264|445:260,1,113.999996520996
419,41,65864,2,0,P|422:79|423:117,1,56.9999982604981
387,175,66095,6,0,P|443:172|500:176,2,113.999996520996,4|0|8,0:0|0:0|0:0,0:0:0:0:
108,312,66787,5,0,0:0:0:0:
120,224,66902,1,0,0:0:0:0:
36,260,67018,2,0,P|41:203|44:132,2,113.999996520996,4|0|8,0:0|0:0|0:0,0:0:0:0:
136,128,67710,5,0,0:0:0:0:
220,124,67826,1,0,0:0:0:0:
192,200,67941,2,0,P|244:212|304:188,2,113.999996520996,4|0|8,0:0|0:0|0:0,0:0:0:0:
264,68,68633,5,0,0:0:0:0:
332,80,68749,1,0,0:0:0:0:
400,92,68864,1,4,0:0:0:0:
388,232,69210,1,0,0:0:0:0:
388,232,69326,1,8,0:0:0:0:
400,92,69556,1,0,0:0:0:0:
310,292,69787,6,0,P|299:236|296:180,1,113.999996520996,4|0,0:0|0:0,0:0:0:0:
141,189,70249,2,0,P|195:206|246:232,1,113.999996520996,8|0,0:0|0:0,0:0:0:0:
315,94,70710,2,0,P|273:132|225:163,1,113.999996520996,4|0,0:0|0:0,0:0:0:0:
168,112,71056,1,0,0:0:0:0:
96,136,71172,2,0,P|64:133|28:128,2,56.9999982604981,8|0|0,0:0|0:0|0:0,0:0:0:0:
144,264,71633,2,0,P|205:255|296:248,1,113.999996520996,8|8,0:0|0:0,0:0:0:0:
391,279,72095,1,8,0:0:0:0:
391,279,73018,5,4,0:0:0:0:
300,136,73479,6,0,P|296:98|296:48,2,71.2500027179719,12|0|0,0:0|0:0|0:0,0:0:0:0:
344,204,73826,1,4,0:0:0:0:
272,240,73941,2,0,P|188:228|112:276,1,142.500005435944,8|4,0:0|0:0,0:0:0:0:
240,144,74287,2,0,P|324:156|400:108,1,142.500005435944,0|8,0:0|0:0,0:0:0:0:
178,0,74633,2,0,P|166:84|178:120,1,71.2500027179719,4|0,0:0|0:0,0:0:0:0:
240,145,74864,2,0,P|245:180|241:215,1,71.2500027179719,8|0,0:0|0:0,0:0:0:0:
137,250,75095,1,0,0:0:0:0:
137,250,75210,1,0,0:0:0:0:
219,338,75326,6,0,P|114:327|6:319,1,213.750008153916,4|4,0:0|0:0,0:0:0:0:
56,232,75787,2,0,P|74:165|80:124,1,71.2500027179719,8|0,0:0|0:0,0:0:0:0:
32,64,76018,2,0,P|108:60|180:136,1,142.500005435944,4|0,0:0|0:0,0:0:0:0:
220,44,76364,1,8,0:0:0:0:
220,44,76479,2,0,P|249:71|272:112,1,71.2500027179719,4|0,0:0|0:0,0:0:0:0:
172,224,76710,2,0,P|191:253|217:277,2,71.2500027179719,8|0|0,0:0|0:0|0:0,0:0:0:0:
276,116,77172,6,0,P|340:136|420:96,1,142.500005435944,4|0,0:0|0:0,0:0:0:0:
328,16,77518,1,4,0:0:0:0:
328,16,77633,2,0,P|339:82|344:164,1,142.500005435944,8|4,0:0|0:0,0:0:0:0:
284,215,77979,2,0,P|212:215|132:223,1,142.500005435944,0|8,0:0|0:0,0:0:0:0:
83,277,78326,2,0,P|84:320|95:369,1,71.2500027179719,4|0,0:0|0:0,0:0:0:0:
240,210,78556,1,8,0:0:0:0:
240,317,78672,1,0,0:0:0:0:
332,263,78787,1,0,0:0:0:0:
235,216,78902,1,0,0:0:0:0:
240,317,79018,6,0,P|197:313|156:304,1,71.2500027179719,4|0,0:0|0:0,0:0:0:0:
14,111,79249,2,0,P|79:104|145:160,1,142.500005435944,0|8,0:0|0:0,0:0:0:0:
28,328,79595,1,0,0:0:0:0:
28,328,79710,2,0,P|40:256|60:176,1,142.500005435944,4|0,0:0|0:0,0:0:0:0:
28,104,80056,1,8,0:0:0:0:
28,104,80172,1,4,0:0:0:0:
84,40,80287,1,0,0:0:0:0:
84,40,80402,2,0,P|117:35|164:36,1,71.2500027179719,8|0,0:0|0:0,0:0:0:0:
168,132,80633,5,0,0:0:0:0:
168,132,80749,1,0,0:0:0:0:
168,132,80864,2,0,P|208:130|256:144,1,71.2500027179719,4|0,0:0|0:0,0:0:0:0:
224,308,81095,2,0,P|183:309|136:296,1,71.2500027179719,0|4,0:0|0:0,0:0:0:0:
124,196,81326,2,0,P|196:184|264:204,1,142.500005435944,8|4,0:0|0:0,0:0:0:0:
336,244,81672,2,0,P|341:147|348:96,1,142.500005435944,0|8,0:0|0:0,0:0:0:0:
327,18,82018,2,0,P|282:11|223:10,1,71.2500027179719,4|0,0:0|0:0,0:0:0:0:
88,76,82249,2,0,P|152:52|240:108,1,142.500005435944,8|0,0:0|0:0,0:0:0:0:
154,178,82595,5,0,0:0:0:0:
154,178,82710,2,0,L|131:175,9,17.812500679493,4|0|0|0|0|0|0|0|0|0,0:0|0:0|0:0|0:0|0:0|0:0|0:0|0:0|0:0|0:0,0:0:0:0:
150,270,83056,1,4,0:0:0:0:
222,226,83172,2,0,P|260:228|298:238,1,71.2500027179719,8|0,0:0|0:0,0:0:0:0:
358,330,83402,2,0,P|406:254|362:146,1,213.750008153916,4|8,0:0|0:0,0:0:0:0:
368,62,83864,2,0,P|408:54|464:54,1,71.2500027179719,4|0,0:0|0:0,0:0:0:0:
244,62,84095,2,0,P|269:30|312:-6,1,71.2500027179719,8|0,0:0|0:0,0:0:0:0:
148,146,84326,2,0,P|147:105|156:50,1,71.2500027179719
140,248,84556,6,0,P|132:317|120:392,2,142.500005435944,4|0|8,0:0|0:0|0:0,0:0:0:0:
272,220,85249,1,4,0:0:0:0:
352,284,85364,2,0,P|376:220|340:144,1,142.500005435944,0|8,0:0|0:0,0:0:0:0:
192,156,85710,2,0,P|168:220|204:296,1,142.500005435944,4|8,0:0|0:0,0:0:0:0:
84,68,86172,5,0,0:0:0:0:
84,68,86287,1,0,0:0:0:0:
84,68,86402,2,0,L|192:76,1,71.2500027179719,4|0,0:0|0:0,0:0:0:0:
196,172,86633,2,0,L|424:188,1,213.750008153916,8|0,0:0|0:0,0:0:0:0:
449,100,87095,2,0,P|402:88|356:106,1,71.2500027179719,8|0,0:0|0:0,0:0:0:0:
231,52,87326,6,0,P|193:28|144:22,1,71.2500027179719,8|8,0:0|0:0,0:0:0:0:
231,166,87556,2,0,P|229:209|248:255,1,71.2500027179719,8|0,0:0|0:0,0:0:0:0:
329,109,87787,2,0,P|367:88|397:48,1,71.2500027179719,8|8,0:0|0:0,0:0:0:0:
216,180,88018,5,8,0:0:0:0:
216,180,88133,1,8,0:0:0:0:
216,180,88249,2,0,L|236:280,1,71.2500027179719,12|0,0:0|0:0,0:0:0:0:
332,304,88479,2,0,L|312:404,1,71.2500027179719,0|4,0:0|0:0,0:0:0:0:
364,160,88710,2,0,L|344:260,1,71.2500027179719,8|0,0:0|0:0,0:0:0:0:
168,279,88941,1,4,0:0:0:0:
104,208,89056,2,0,P|113:133|132:56,1,142.500005435944,0|8,0:0|0:0,0:0:0:0:
40,168,89402,6,0,P|60:167|136:176,1,71.2500027179719,4|0,0:0|0:0,0:0:0:0:
252,248,89633,2,0,P|231:248|156:240,1,71.2500027179719,8|0,0:0|0:0,0:0:0:0:
107,240,89864,1,0,0:0:0:0:
80,307,89979,2,0,P|148:343|220:319,1,142.500005435944
276,204,90326,6,0,P|264:168|256:116,1,71.2500027179719,0|4,0:0|0:0,0:0:0:0:
340,308,90556,2,0,P|333:342|321:376,1,71.2500027179719,8|0,0:0|0:0,0:0:0:0:
227,367,90787,1,4,0:0:0:0:
240,292,90902,2,0,P|167:276|68:264,1,142.500005435944,0|8,0:0|0:0,0:0:0:0:
228,200,91249,2,0,P|230:161|228:116,1,71.2500027179719,4|0,0:0|0:0,0:0:0:0:
156,92,91479,2,0,P|118:88|80:96,1,71.2500027179719,8|0,0:0|0:0,0:0:0:0:
228,200,91710,2,0,P|265:203|304:196,1,71.2500027179719
384,64,91941,6,0,L|368:228,2,142.500005435944,4|0|8,0:0|0:0|0:0,0:0:0:0:
288,116,92518,2,0,P|246:102|192:92,1,71.2500027179719,0|4,0:0|0:0,0:0:0:0:
40,160,92749,2,0,P|120:192|200:160,1,142.500005435944,0|8,0:0|0:0,0:0:0:0:
288,116,93095,6,0,P|293:156|296:208,1,71.2500027179719,4|0,0:0|0:0,0:0:0:0:
219,262,93326,2,0,P|213:302|211:354,1,71.2500027179719,8|0,0:0|0:0,0:0:0:0:
308,291,93556,1,0,0:0:0:0:
304,196,93672,2,0,P|373:207|436:176,1,142.500005435944
252,132,94018,6,0,P|213:125|160:132,1,71.2500027179719,0|4,0:0|0:0,0:0:0:0:
76,224,94249,2,0,P|114:230|168:224,1,71.2500027179719,8|0,0:0|0:0,0:0:0:0:
146,335,94479,2,0,P|183:327|232:303,1,71.2500027179719,8|0,0:0|0:0,0:0:0:0:
296,244,94710,5,12,0:0:0:0:
296,244,95056,1,12,0:0:0:0:
296,244,95402,1,12,0:0:0:0:
