osu file format v14

[General]
AudioFilename: flumpool - Yoru Wa Nemureru Kai.mp3
AudioLeadIn: 0
PreviewTime: 73018
Countdown: 0
SampleSet: None
StackLeniency: 0.7
Mode: 0
LetterboxInBreaks: 0
WidescreenStoryboard: 1

[Editor]
DistanceSpacing: 1.2
BeatDivisor: 4
GridSize: 4
TimelineZoom: 3.099999

[Metadata]
Title:Yoru Wa Nemureru Kai
TitleUnicode:夜は眠れるかい
Artist:flumpool
ArtistUnicode:flumpool
Creator:-[ Nymph ]-
Version:Hard
Source:Ajin
Tags:OP cut version
BeatmapID:977933
BeatmapSetID:415995

[Difficulty]
HPDrainRate:5
CircleSize:4
OverallDifficulty:4
ApproachRate:7
SliderMultiplier:1.8
SliderTickRate:4

[Events]
//Background and Video events
0,0,"AJIN-Camuncoli-Variant-Cover.jpg",0,0
//Break Periods
//Storyboard Layer 0 (Background)
//Storyboard Layer 1 (Fail)
//Storyboard Layer 2 (Pass)
//Storyboard Layer 3 (Foreground)
//Storyboard Sound Samples

[TimingPoints]
3326,461.538461538462,4,2,2,30,1,0
3787,-133.333333333333,4,2,2,30,0,0
10249,-133.333333333333,4,2,1,30,0,0
10710,-133.333333333333,4,2,2,30,0,0
12556,-100,4,2,2,60,0,0
12902,-100,4,2,5,60,0,0
13018,-100,4,2,2,60,0,0
14749,-100,4,2,5,60,0,0
14864,-100,4,2,2,60,0,0
17287,-100,4,2,6,60,0,0
17402,-100,4,2,2,60,0,0
18095,-100,4,2,5,60,0,0
18210,-100,4,2,2,60,0,0
19133,-100,4,2,6,60,0,0
19249,-100,4,2,2,60,0,0
21787,-100,4,2,5,60,0,0
21902,-100,4,2,2,60,0,0
24672,-100,4,2,6,60,0,0
24787,-100,4,2,2,60,0,0
25479,-100,4,2,5,60,0,0
25595,-100,4,2,2,60,0,0
27326,-125,4,2,2,60,0,0
43941,-100,4,2,2,60,0,0
45326,-100,4,2,6,60,0,0
45441,-100,4,2,2,60,0,0
46710,-100,4,2,5,60,0,0
46826,-100,4,2,2,60,0,0
47172,-100,4,2,6,60,0,0
47287,-100,4,2,2,60,0,0
48556,-100,4,2,5,60,0,0
48672,-100,4,2,2,60,0,0
49018,-100,4,2,6,60,0,0
49133,-100,4,2,2,60,0,0
50402,-100,4,2,5,60,0,0
50518,-100,4,2,2,60,0,0
51326,-100,4,2,5,60,0,0
51441,-100,4,2,2,60,0,0
52249,-100,4,2,5,60,0,0
52364,-100,4,2,2,60,0,0
54095,-100,4,2,5,60,0,0
54210,-100,4,2,2,60,0,0
55941,-100,4,2,5,60,0,0
56056,-100,4,2,2,60,0,0
61941,-100,4,2,6,60,0,0
62056,-100,4,2,2,60,0,0
65633,-100,4,2,6,60,0,0
65749,-100,4,2,2,60,0,0
69326,-100,4,2,6,60,0,0
69441,-100,4,2,2,60,0,0
73479,-86.9565217391304,4,2,2,60,0,1
79364,-86.9565217391304,4,2,5,60,0,1
79479,-86.9565217391304,4,2,6,60,0,1
79595,-86.9565217391304,4,2,2,60,0,1
80056,-86.9565217391304,4,2,6,60,0,1
80172,-86.9565217391304,4,2,2,60,0,1
81556,-86.9565217391304,4,2,5,60,0,1
81672,-86.9565217391304,4,2,2,60,0,1
81902,-86.9565217391304,4,2,6,60,0,1
82018,-86.9565217391304,4,2,2,60,0,1
86402,-86.9565217391304,4,2,2,60,0,0
88249,-86.9565217391304,4,2,3,60,0,1
88364,-86.9565217391304,4,2,2,60,0,1
90095,-86.9565217391304,4,2,5,60,0,1
90210,-86.9565217391304,4,2,2,60,0,1
93787,-86.9565217391304,4,2,5,60,0,1
93902,-86.9565217391304,4,2,2,60,0,1

[Colours]
Combo1 : 128,255,255
Combo2 : 255,128,128
Combo3 : 255,255,128
Combo4 : 128,255,128

[HitObjects]
141,151,3326,5,4,0:0:0:0:
267,102,3556,1,0,0:0:0:0:
216,224,3787,2,0,B|232:172|265:138|267:101|267:101|230:104|197:139|141:151,1,270.000010299683,8|0,0:0|0:0,0:0:0:0:
304,296,5172,5,4,0:0:0:0:
408,276,5402,1,0,0:0:0:0:
408,168,5633,2,0,B|385:131|341:137|341:137|348:71|274:1|183:46,1,270.000010299683,8|0,0:0|0:0,0:0:0:0:
64,168,7018,5,4,0:0:0:0:
144,176,7249,1,0,0:0:0:0:
224,184,7479,2,0,B|177:242|227:249|192:320|192:320|196:342|212:368|212:368|221:329|248:292,1,270.000010299683,8|0,0:0|0:0,0:0:0:0:
424,112,8864,5,4,0:0:0:0:
344,112,9095,1,0,0:0:0:0:
264,112,9326,2,0,B|238:53|238:53|173:33|103:2|103:2|44:22,1,270.000010299683,8|4,0:0|0:0,0:0:0:0:
136,284,10710,5,4,0:0:0:0:
168,168,11056,1,4,0:0:0:0:
200,52,11402,1,4,0:0:0:0:
240,124,11749,1,4,0:0:0:0:
184,200,12095,6,0,P|224:216|296:200,1,101.250003862381,4|0,0:0|0:0,0:0:0:0:
329,185,12556,2,0,P|347:233|381:289,2,90,4|0|8,0:0|0:0|0:0,0:0:0:0:
288,68,13249,1,4,0:0:0:0:
288,68,13364,2,0,L|164:76,1,90,0|8,0:0|0:0,0:0:0:0:
159,35,13710,2,0,L|69:29,2,90,4|8|0,0:0|0:0|0:0,0:0:0:0:
328,192,14402,6,0,P|372:120|332:32,1,180,4|8,0:0|0:0,0:0:0:0:
247,96,15095,1,4,0:0:0:0:
247,96,15210,2,0,L|255:220,1,90,0|8,0:0|0:0,0:0:0:0:
252,185,15556,1,4,0:0:0:0:
348,232,15787,2,0,P|400:200|468:232,1,135,8|0,0:0|0:0,0:0:0:0:
506,193,16249,6,0,L|511:103,1,90,4|0,0:0|0:0,0:0:0:0:
297,46,16710,2,0,P|341:62|405:50,1,90,8|4,0:0|0:0,0:0:0:0:
421,20,17056,2,0,P|430:97|433:172,1,135,0|4,0:0|0:0,0:0:0:0:
240,244,17633,6,0,P|287:234|332:240,1,90,8|0,0:0|0:0,0:0:0:0:
369,274,17979,2,0,P|413:226|493:230,1,135
360,93,18556,2,0,P|319:82|272:92,1,90,8|4,0:0|0:0,0:0:0:0:
229,58,18902,2,0,P|171:90|105:80,1,135,0|4,0:0|0:0,0:0:0:0:
76,216,19479,6,0,P|133:183|199:193,1,135,8|0,0:0|0:0,0:0:0:0:
243,223,19941,2,0,P|248:178|247:123,1,90,4|0,0:0|0:0,0:0:0:0:
331,51,20402,2,0,P|330:95|335:140,1,90,8|4,0:0|0:0,0:0:0:0:
350,193,20749,2,0,P|314:221|250:209,1,90,0|8,0:0|0:0,0:0:0:0:
271,220,21095,1,4,0:0:0:0:
152,248,21326,6,0,L|144:356,1,90,8|0,0:0|0:0,0:0:0:0:
194,315,21672,2,0,P|237:305|302:307,1,90
282,304,22018,1,0,0:0:0:0:
308,188,22249,2,0,L|200:200,1,90,8|4,0:0|0:0,0:0:0:0:
180,236,22595,2,0,L|90:226,1,90,0|8,0:0|0:0,0:0:0:0:
90,226,22941,1,4,0:0:0:0:
232,72,23172,6,0,P|238:144|244:212,1,135,8|0,0:0|0:0,0:0:0:0:
243,206,23633,1,4,0:0:0:0:
112,200,23864,1,0,0:0:0:0:
164,96,24095,2,0,P|204:116|264:112,1,90,8|4,0:0|0:0,0:0:0:0:
293,85,24441,2,0,P|337:57|421:93,1,135,0|4,0:0|0:0,0:0:0:0:
468,168,25018,6,0,L|456:264,1,90,8|0,0:0|0:0,0:0:0:0:
479,306,25364,2,0,P|401:305|339:310,1,135
220,160,25941,6,0,P|197:158|168:156,2,45,8|0|8,0:0|0:0|0:0,0:0:0:0:
264,200,26287,1,0,0:0:0:0:
264,200,26402,2,0,P|286:202|308:203,1,45,8|0,0:0|0:0,0:0:0:0:
456,84,26864,2,0,P|433:86|411:87,1,45,8|0,0:0|0:0,0:0:0:0:
308,216,27326,6,0,P|240:192|148:232,1,144,4|0,0:0|0:0,0:0:0:0:
144,276,28018,1,0,0:0:0:0:
40,180,28479,2,0,P|108:204|200:164,1,144,4|4,0:0|0:0,0:0:0:0:
248,60,29402,5,0,0:0:0:0:
388,100,29864,1,0,0:0:0:0:
248,60,30326,2,0,B|136:76|136:76|164:52,1,144,4|4,0:0|0:0,0:0:0:0:
148,200,31249,5,0,0:0:0:0:
264,284,31710,1,0,0:0:0:0:
148,200,32172,2,0,P|142:281|140:360,1,144,4|4,0:0|0:0,0:0:0:0:
140,343,33095,5,0,0:0:0:0:
228,184,33556,2,0,P|152:116|68:188,1,216,4|0,0:0|0:0,0:0:0:0:
88,56,34479,2,0,P|160:44|244:76,1,144,4|0,0:0|0:0,0:0:0:0:
212,216,35402,5,0,0:0:0:0:
352,248,35864,2,0,B|368:144|368:144|384:192,1,144,4|4,0:0|0:0,0:0:0:0:
352,248,36787,5,0,0:0:0:0:
212,208,37249,1,0,0:0:0:0:
432,92,37710,2,0,P|368:64|288:112,1,144,4|4,0:0|0:0,0:0:0:0:
216,72,38633,5,0,0:0:0:0:
76,36,39095,1,0,0:0:0:0:
244,152,39556,6,0,P|296:100|280:20,1,144,4|4,0:0|0:0,0:0:0:0:
360,160,40479,5,0,0:0:0:0:
248,176,40941,2,0,P|177:172|92:176,1,144,4|0,0:0|0:0,0:0:0:0:
268,108,41633,2,0,P|312:152|308:212,1,108,8|0,0:0|0:0,0:0:0:0:
291,232,42095,2,0,L|424:224,3,108,4|4|4|4,0:0|0:0|0:0|0:0,0:0:0:0:
216,120,43479,2,0,B|232:48|232:48|248:88,1,108,4|0,0:0|0:0,0:0:0:0:
275,124,43941,6,0,P|343:137|403:101,1,135,4|0,0:0|0:0,0:0:0:0:
398,106,44402,1,8,0:0:0:0:
474,182,44633,2,0,P|473:258|470:294,1,90,0|4,0:0|0:0,0:0:0:0:
380,330,45095,2,0,P|292:302|216:358,1,180
137,280,45787,2,0,P|142:234|153:184,1,90,4|0,0:0|0:0,0:0:0:0:
151,191,46133,1,0,0:0:0:0:
151,191,46249,1,8,0:0:0:0:
216,100,46479,5,0,0:0:0:0:
216,100,46595,2,0,P|284:109|348:116,1,90
356,94,46941,2,0,P|388:178|348:254,1,180
348,253,47633,1,4,0:0:0:0:
282,169,47864,6,0,P|251:170|198:181,2,45,0|0|8,0:0|0:0|0:0,0:0:0:0:
156,264,48326,1,0,0:0:0:0:
156,264,48441,2,0,L|168:136,1,90
162,120,48787,2,0,P|222:144|306:100,1,135
329,89,49249,2,0,L|337:178,1,90,0|4,0:0|0:0,0:0:0:0:
352,284,49710,1,0,0:0:0:0:
408,216,49941,1,8,0:0:0:0:
336,160,50172,6,0,P|253:155|176:156,1,135
201,155,50633,1,0,0:0:0:0:
112,172,50864,1,8,0:0:0:0:
32,98,51095,2,0,P|22:172|20:258,1,135
19,232,51556,1,0,0:0:0:0:
184,272,51787,6,0,P|228:267|284:268,1,90,8|0,0:0|0:0,0:0:0:0:
312,228,52133,2,0,P|356:228|401:223,1,90
440,184,52479,2,0,P|438:155|436:124,2,45,0|0|8,0:0|0:0|0:0,0:0:0:0:
320,96,52941,2,0,P|321:67|324:36,2,45,0|0|4,0:0|0:0|0:0,0:0:0:0:
220,184,53402,5,0,0:0:0:0:
220,184,53518,1,0,0:0:0:0:
220,184,53633,2,0,L|96:176,1,90,8|0,0:0|0:0,0:0:0:0:
96,116,53979,2,0,P|60:168|92:240,1,135
172,216,54556,1,8,0:0:0:0:
124,320,54787,1,0,0:0:0:0:
124,320,55018,1,4,0:0:0:0:
208,292,55249,5,0,0:0:0:0:
208,292,55479,2,0,L|200:172,1,90,8|0,0:0|0:0,0:0:0:0:
192,148,55826,2,0,P|240:152|292:152,1,90
330,128,56172,2,0,P|335:100|334:68,1,45
313,44,56402,2,0,P|313:21|318:-1,2,45,8|0|0,0:0|0:0|0:0,0:0:0:0:
256,192,56864,12,0,58479,0:0:0:0:
192,200,58710,5,4,0:0:0:0:
280,188,58941,1,0,0:0:0:0:
368,176,59172,2,0,P|360:246|348:312,1,135,8|0,0:0|0:0,0:0:0:0:
348,309,59633,5,4,0:0:0:0:
264,276,59864,1,0,0:0:0:0:
180,244,60095,2,0,B|76:252|76:252|116:272,1,135,8|0,0:0|0:0,0:0:0:0:
103,265,60556,5,4,0:0:0:0:
124,176,60787,1,0,0:0:0:0:
144,88,61018,1,8,0:0:0:0:
272,52,61249,5,0,0:0:0:0:
272,52,61364,1,0,0:0:0:0:
272,52,61479,2,0,L|280:172,1,90,4|0,0:0|0:0,0:0:0:0:
310,174,61826,2,0,L|302:294,1,90
272,295,62172,2,0,L|276:379,1,45
274,339,62402,5,4,0:0:0:0:
188,316,62633,1,0,0:0:0:0:
100,292,62864,2,0,B|0:308|0:308|40:268,1,135,8|0,0:0|0:0,0:0:0:0:
23,284,63326,5,4,0:0:0:0:
20,196,63556,1,0,0:0:0:0:
16,104,63787,2,0,B|116:88|116:88|76:128,1,135,8|0,0:0|0:0,0:0:0:0:
92,111,64249,5,4,0:0:0:0:
180,132,64479,1,0,0:0:0:0:
268,152,64710,1,8,0:0:0:0:
408,120,64941,5,0,0:0:0:0:
408,120,65056,1,0,0:0:0:0:
408,120,65172,2,0,P|432:196|400:260,2,135,4|0|0,0:0|0:0|0:0,0:0:0:0:
288,44,66095,6,0,L|204:52,1,45,4|0,0:0|0:0,0:0:0:0:
188,92,66326,2,0,L|143:87,1,45
80,124,66556,2,0,P|52:188|88:272,1,135,8|0,0:0|0:0,0:0:0:0:
116,300,67018,6,0,P|116:332|108:372,1,45,4|0,0:0|0:0,0:0:0:0:
188,348,67249,2,0,P|190:325|189:303,1,45
240,252,67479,2,0,P|300:232|380:272,1,135,8|0,0:0|0:0,0:0:0:0:
364,256,67941,5,4,0:0:0:0:
384,168,68172,1,0,0:0:0:0:
408,80,68402,1,8,0:0:0:0:
264,40,68633,5,0,0:0:0:0:
264,40,68749,1,0,0:0:0:0:
264,40,68864,2,0,P|185:38|116:32,2,135,4|0|0,0:0|0:0|0:0,0:0:0:0:
232,124,69787,6,0,P|232:170|240:216,1,90,4|0,0:0|0:0,0:0:0:0:
312,268,70249,2,0,P|256:304|168:276,1,135,8|0,0:0|0:0,0:0:0:0:
152,268,70710,2,0,P|112:252|60:260,1,90,4|0,0:0|0:0,0:0:0:0:
92,172,71172,2,0,P|156:184|220:148,1,135,8|0,0:0|0:0,0:0:0:0:
252,113,71633,2,0,P|249:159|248:245,2,90,8|8|8,0:0|0:0|0:0,0:0:0:0:
256,192,72210,12,0,73249,0:0:0:0:
364,100,73479,6,0,L|296:112,1,51.7500009870529,4|0,0:0|0:0,0:0:0:0:
256,84,73710,2,0,L|238:132,1,51.7500009870529,0|4,0:0|0:0,0:0:0:0:
188,172,73941,2,0,L|253:252,1,103.500001974106,8|4,0:0|0:0,0:0:0:0:
253,252,74287,1,0,0:0:0:0:
116,312,74518,1,8,0:0:0:0:
116,312,74633,2,0,P|122:261|124:192,1,103.500001974106,4|8,0:0|0:0,0:0:0:0:
80,72,75095,5,0,0:0:0:0:
80,72,75210,1,0,0:0:0:0:
80,72,75326,2,0,P|140:104|228:80,1,155.250002961159,4|4,0:0|0:0,0:0:0:0:
265,128,75787,2,0,P|268:163|269:192,1,51.7500009870529,8|0,0:0|0:0,0:0:0:0:
313,223,76018,2,0,P|386:202|454:235,1,155.250002961159,4|8,0:0|0:0,0:0:0:0:
502,196,76479,2,0,P|500:139|503:80,2,103.500001974106,4|8|0,0:0|0:0|0:0,0:0:0:0:
377,152,77172,6,0,P|309:128|233:172,1,155.250002961159,4|4,0:0|0:0,0:0:0:0:
199,212,77633,2,0,P|144:201|83:196,1,103.500001974106,8|4,0:0|0:0,0:0:0:0:
69,140,77979,2,0,P|75:87|89:28,1,103.500001974106,0|8,0:0|0:0,0:0:0:0:
143,13,78326,2,0,P|192:27|243:22,2,103.500001974106,4|8|0,0:0|0:0|0:0,0:0:0:0:
320,32,79018,5,4,0:0:0:0:
320,32,79249,2,0,L|312:192,1,155.250002961159
261,151,79710,2,0,P|227:152|197:159,1,51.7500009870529,4|0,0:0|0:0,0:0:0:0:
160,193,79941,2,0,L|168:305,1,103.500001974106,0|4,0:0|0:0,0:0:0:0:
167,296,80287,1,0,0:0:0:0:
167,296,80402,1,8,0:0:0:0:
68,104,80864,6,0,L|156:108,2,51.7500009870529,4|0|0,0:0|0:0|0:0,0:0:0:0:
156,180,81210,1,4,0:0:0:0:
156,180,81326,2,0,P|200:112|160:36,2,155.250002961159,8|0|4,0:0|0:0|0:0,0:0:0:0:
264,244,82249,2,0,P|220:312|260:388,1,155.250002961159,8|0,0:0|0:0,0:0:0:0:
296,316,82710,2,0,L|412:324,1,103.500001974106,4|0,0:0|0:0,0:0:0:0:
399,323,83056,1,4,0:0:0:0:
399,323,83172,1,8,0:0:0:0:
328,220,83402,6,0,L|144:232,1,155.250002961159,4|8,0:0|0:0,0:0:0:0:
195,171,83864,2,0,P|199:143|191:107,1,51.7500009870529,4|0,0:0|0:0,0:0:0:0:
161,67,84095,2,0,L|6:56,1,155.250002961159,8|0,0:0|0:0,0:0:0:0:
6,56,84556,1,4,0:0:0:0:
18,207,84787,1,0,0:0:0:0:
18,207,84902,1,4,0:0:0:0:
18,207,85018,1,8,0:0:0:0:
108,296,85249,6,0,P|180:272|256:316,1,155.250002961159,4|8,0:0|0:0,0:0:0:0:
308,292,85710,2,0,P|305:262|308:236,1,51.7500009870529,4|0,0:0|0:0,0:0:0:0:
360,188,85941,2,0,P|284:172|232:232,1,155.250002961159,8|0,0:0|0:0,0:0:0:0:
234,222,86402,1,4,0:0:0:0:
116,192,86633,1,8,0:0:0:0:
276,40,87095,5,8,0:0:0:0:
252,164,87326,1,8,0:0:0:0:
296,260,87556,5,8,0:0:0:0:
335,227,87671,1,8,0:0:0:0:
356,180,87786,1,8,0:0:0:0:
351,129,87902,1,8,0:0:0:0:
324,86,88017,1,8,0:0:0:0:
279,61,88132,1,8,0:0:0:0:
228,60,88249,6,0,L|176:64,1,51.7500009870529,12|0,0:0|0:0,0:0:0:0:
271,103,88479,2,0,L|371:111,1,51.7500009870529,0|4,0:0|0:0,0:0:0:0:
366,62,88710,2,0,L|417:57,1,51.7500009870529,8|0,0:0|0:0,0:0:0:0:
461,102,88941,1,4,0:0:0:0:
461,102,89056,2,0,P|449:158|473:218,1,103.500001974106,0|8,0:0|0:0,0:0:0:0:
440,260,89402,6,0,P|406:253|364:252,1,51.7500009870529,4|0,0:0|0:0,0:0:0:0:
352,300,89633,2,0,P|359:324|370:348,1,51.7500009870529,8|0,0:0|0:0,0:0:0:0:
324,240,89864,1,0,0:0:0:0:
324,240,89979,2,0,P|268:236|196:236,1,103.500001974106
188,288,90326,6,0,P|160:288|120:284,1,51.7500009870529,0|4,0:0|0:0,0:0:0:0:
92,242,90556,2,0,P|92:214|96:174,1,51.7500009870529,8|0,0:0|0:0,0:0:0:0:
137,146,90787,1,4,0:0:0:0:
137,146,90902,2,0,B|136:68|136:68|156:112,1,103.500001974106,0|8,0:0|0:0,0:0:0:0:
146,91,91249,1,4,0:0:0:0:
268,60,91479,6,0,P|328:40|404:88,1,155.250002961159,8|0,0:0|0:0,0:0:0:0:
428,72,91941,6,0,P|431:46|439:21,1,51.7500009870529,4|0,0:0|0:0,0:0:0:0:
461,126,92172,2,0,P|481:142|498:160,1,51.7500009870529,0|4,0:0|0:0,0:0:0:0:
396,130,92402,2,0,P|371:139|346:145,1,51.7500009870529,8|0,0:0|0:0,0:0:0:0:
288,128,92633,1,4,0:0:0:0:
288,128,92749,2,0,P|236:116|168:160,1,103.500001974106,0|8,0:0|0:0,0:0:0:0:
164,188,93095,6,0,L|172:252,1,51.7500009870529,4|0,0:0|0:0,0:0:0:0:
214,283,93326,2,0,L|206:347,1,51.7500009870529,8|0,0:0|0:0,0:0:0:0:
148,352,93556,1,0,0:0:0:0:
148,352,93672,2,0,P|96:332|28:344,1,103.500001974106
16,284,94018,6,0,P|22:252|36:212,1,51.7500009870529,0|4,0:0|0:0,0:0:0:0:
84,204,94249,2,0,P|108:224|136:257,1,51.7500009870529,8|0,0:0|0:0,0:0:0:0:
124,300,94479,2,0,P|93:310|51:318,1,51.7500009870529,8|0,0:0|0:0,0:0:0:0:
36,256,94710,6,0,L|204:276,2,155.250002961159,12|12|12,0:0|0:0|0:0,0:0:0:0:
