osu file format v14

[General]
AudioFilename: flumpool - Yoru Wa Nemureru Kai.mp3
AudioLeadIn: 0
PreviewTime: 73018
Countdown: 0
SampleSet: Soft
StackLeniency: 0.7
Mode: 0
LetterboxInBreaks: 0
WidescreenStoryboard: 0

[Editor]
Bookmarks: 10710,27326,43941
DistanceSpacing: 1.5
BeatDivisor: 8
GridSize: 8
TimelineZoom: 3.099999

[Metadata]
Title:Yoru Wa Nemureru Kai
TitleUnicode:夜は眠れるかい
Artist:flumpool
ArtistUnicode:flumpool
Creator:-[ Nymph ]-
Version:Expert
Source:Ajin
Tags:OP cut version
BeatmapID:901238
BeatmapSetID:415995

[Difficulty]
HPDrainRate:7
CircleSize:4
OverallDifficulty:8
ApproachRate:9
SliderMultiplier:2.3
SliderTickRate:4

[Events]
//Background and Video events
0,0,"AJIN-Camuncoli-Variant-Cover.jpg",0,0
//Break Periods
//Storyboard Layer 0 (Background)
//Storyboard Layer 1 (Fail)
//Storyboard Layer 2 (Pass)
//Storyboard Layer 3 (Foreground)
//Storyboard Sound Samples

[TimingPoints]
3326,461.538461538462,4,2,2,30,1,0
3326,-133.333333333333,4,2,2,30,0,0
10249,-133.333333333333,4,2,1,30,0,0
10710,-100,4,2,2,50,0,0
10941,-100,4,2,2,5,0,0
11056,-100,4,2,2,50,0,0
11287,-100,4,2,2,5,0,0
11402,-100,4,2,2,50,0,0
11633,-100,4,2,2,5,0,0
11749,-100,4,2,2,50,0,0
12095,-200,4,2,2,30,0,0
12556,-86.9565217391304,4,2,3,70,0,0
12672,-86.9565217391304,4,2,2,70,0,0
21787,-86.9565217391304,4,2,5,70,0,0
21902,-86.9565217391304,4,2,2,70,0,0
25479,-86.9565217391304,4,2,5,70,0,0
25595,-86.9565217391304,4,2,2,70,0,0
27326,-100,4,2,2,70,0,0
41633,-100,4,2,2,70,0,0
41749,-100,4,2,2,50,0,0
41864,-100,4,2,2,30,0,0
41979,-100,4,2,2,70,0,0
43941,-90.9090909090909,4,2,2,70,0,0
46710,-86.9565217391304,4,2,5,70,0,0
46826,-90.9090909090909,4,2,2,70,0,0
48556,-86.9565217391304,4,2,5,70,0,0
48672,-90.9090909090909,4,2,2,70,0,0
54095,-86.9565217391304,4,2,5,70,0,0
54210,-90.9090909090909,4,2,2,70,0,0
55941,-86.9565217391304,4,2,5,70,0,0
56056,-90.9090909090909,4,2,2,70,0,0
72095,-200,4,2,2,70,0,0
73479,-66.6666666666667,4,2,3,75,0,1
73595,-66.6666666666667,4,2,2,75,0,1
86402,-66.6666666666667,4,2,2,75,0,0
88249,-66.6666666666667,4,2,3,75,0,1
88364,-66.6666666666667,4,2,2,75,0,1
90095,-66.6666666666667,4,2,5,75,0,1
90210,-66.6666666666667,4,2,2,75,0,1
92287,-66.6666666666667,4,2,5,75,0,1
92326,-66.6666666666667,4,2,2,75,0,1
93787,-66.6666666666667,4,2,5,75,0,1
93902,-66.6666666666667,4,2,2,75,0,1
94710,-66.6666666666667,4,2,2,75,0,0

[Colours]
Combo1 : 128,255,255
Combo2 : 255,128,128
Combo3 : 255,255,128
Combo4 : 128,255,128

[HitObjects]
100,248,3326,6,0,L|216:256,1,86.2500032901765,4|0,0:0|0:0,0:0:0:0:
72,112,3787,2,0,B|67:40|125:22|193:56|162:127|162:127|212:125|212:125|238:178|315:184,1,345.000013160706,8|0,0:0|0:0,0:0:0:0:
365,101,4941,1,0,0:0:0:0:
365,101,5172,6,0,L|377:9,1,86.2500032901765,4|0,0:0|0:0,0:0:0:0:
224,32,5633,2,0,B|167:34|156:95|156:95|132:204|20:212|20:212|57:227|77:269,1,345.000013160706,8|0,0:0|0:0,0:0:0:0:
200,208,6787,1,0,0:0:0:0:
200,208,7018,6,0,P|244:200|304:208,1,86.2500032901765,4|0,0:0|0:0,0:0:0:0:
248,280,7479,2,0,P|364:232|296:120,1,258.75000987053,8|0,0:0|0:0,0:0:0:0:
240,148,8402,2,0,P|196:166|132:156,1,86.2500032901765
156,80,8749,2,0,L|151:96,2,10.7812504112721,4|0|4,0:0|0:0|0:0,0:0:0:0:
77,90,8864,6,0,L|77:202,1,86.2500032901765,4|0,0:0|0:0,0:0:0:0:
168,256,9326,2,4,B|256:248|256:248|424:272|424:272|526:262,1,345.000013160706,8|4,0:0|0:0,0:0:0:0:
212,64,10710,6,0,P|172:100|184:192,1,115,4|0,0:0|0:0,0:0:0:0:
296,224,11056,2,0,P|284:171|199:135,1,115,4|0,0:0|0:0,0:0:0:0:
116,216,11402,2,0,P|167:232|240:176,1,115,4|0,0:0|0:0,0:0:0:0:
237,136,11749,2,0,L|229:12,1,115
296,224,12095,2,0,L|304:332,1,86.25
147,205,12556,6,0,P|181:210|223:201,1,66.1250012612343,12|0,0:0|0:0,0:0:0:0:
262,145,12787,2,0,P|294:139|327:145,1,66.1250012612343,0|4,0:0|0:0,0:0:0:0:
416,270,13018,2,0,L|405:130,1,132.250002522469,8|4,0:0|0:0,0:0:0:0:
304,223,13364,2,0,L|314:354,1,132.250002522469,0|8,0:0|0:0,0:0:0:0:
212,204,13710,2,0,P|179:209|146:203,1,66.1250012612343,4|0,0:0|0:0,0:0:0:0:
72,80,13941,2,0,B|148:64|148:64|220:76,1,132.250002522469,8|0,0:0|0:0,0:0:0:0:
212,204,14287,1,0,0:0:0:0:
284,164,14402,6,0,L|360:160,1,66.1250012612343,4|0,0:0|0:0,0:0:0:0:
200,89,14633,2,0,L|133:92,1,66.1250012612343,0|4,0:0|0:0,0:0:0:0:
416,164,14864,2,0,L|349:160,1,66.1250012612343,8|0,0:0|0:0,0:0:0:0:
304,76,15095,1,4,0:0:0:0:
236,180,15210,2,0,P|224:248|236:312,1,132.250002522469,0|8,0:0|0:0,0:0:0:0:
164,64,15556,2,0,P|129:63|95:72,1,66.1250012612343,4|0,0:0|0:0,0:0:0:0:
324,136,15787,1,8,0:0:0:0:
305,87,15902,1,0,0:0:0:0:
264,54,16017,1,0,0:0:0:0:
213,45,16133,1,0,0:0:0:0:
164,64,16249,6,0,P|130:64|96:56,1,66.1250012612343,4|0,0:0|0:0,0:0:0:0:
305,87,16479,1,0,0:0:0:0:
159,139,16595,2,0,L|155:167,2,16.5312503153086,4|0|0,0:0|0:0|0:0,0:0:0:0:
236,180,16710,2,0,L|240:256,1,66.1250012612343,8|0,0:0|0:0,0:0:0:0:
204,324,16941,1,4,0:0:0:0:
124,288,17056,2,0,P|56:284|4:340,1,132.250002522469,0|8,0:0|0:0,0:0:0:0:
84,360,17402,2,0,L|60:284,1,66.1250012612343,4|0,0:0|0:0,0:0:0:0:
64,210,17633,2,0,P|32:198|-12:198,1,66.1250012612343,8|0,0:0|0:0,0:0:0:0:
140,252,17864,1,0,0:0:0:0:
212,208,17979,1,0,0:0:0:0:
140,20,18095,6,0,B|144:56|144:56|128:108|128:108|132:156,1,132.250002522469,4|0,0:2|0:2,0:2:0:0:
140,252,18441,1,4,0:0:0:0:
288,336,18556,2,0,L|276:256,1,66.1250012612343,8|0,0:0|0:0,0:0:0:0:
400,272,18787,1,4,0:0:0:0:
328,168,18902,2,0,P|344:100|424:72,1,132.250002522469,0|8,0:0|0:0,0:0:0:0:
408,152,19249,2,0,P|406:187|388:224,1,66.1250012612343,4|0,0:0|0:0,0:0:0:0:
232,108,19479,2,0,L|204:112,12,16.5312503153086,8|0|0|0|0|0|0|0|0|0|0|0|0,0:0|0:0|0:0|0:0|0:0|0:0|0:0|0:0|0:0|0:0|0:0|0:0|0:0,0:0:0:0:
394,71,19941,6,0,L|478:59,1,66.1250012612343,4|0,0:0|0:0,0:0:0:0:
288,180,20172,2,0,P|256:196|208:192,1,66.1250012612343,0|4,0:0|0:0,0:0:0:0:
112,56,20402,2,0,L|104:200,1,132.250002522469,8|4,0:0|0:0,0:0:0:0:
287,179,20749,2,0,L|280:47,1,132.250002522469,0|8,0:0|0:0,0:0:0:0:
224,248,21095,2,0,L|224:316,1,66.1250012612343,4|0,0:0|0:0,0:0:0:0:
104,188,21326,2,0,L|104:121,1,66.1250012612343,8|0,0:0|0:0,0:0:0:0:
164,61,21556,1,0,0:0:0:0:
140,268,21672,6,0,P|212:280|292:244,1,132.250002522469
328,201,22018,2,0,L|324:124,1,66.1250012612343,0|4,0:0|0:0,0:0:0:0:
163,60,22249,2,0,L|167:127,1,66.1250012612343,8|0,0:0|0:0,0:0:0:0:
264,264,22479,1,4,0:0:0:0:
140,268,22595,2,0,B|32:284|32:284|60:272,1,132.250002522469,0|8,0:0|0:0,0:0:0:0:
48,348,22941,2,0,P|44:312|32:284,1,66.1250012612343,4|0,0:0|0:0,0:0:0:0:
151,190,23172,2,0,P|154:157|166:126,1,66.1250012612343,8|0,0:0|0:0,0:0:0:0:
340,71,23402,2,0,P|336:103|324:134,1,66.1250012612343
424,128,23633,6,0,P|424:204|400:256,1,132.250002522469,4|0,0:0|0:0,0:0:0:0:
320,312,23979,1,4,0:0:0:0:
224,280,24095,2,0,P|183:277|144:288,1,66.1250012612343,8|0,0:0|0:0,0:0:0:0:
64,312,24326,1,4,0:0:0:0:
304,224,24441,2,0,P|248:184|176:192,1,132.250002522469,0|8,0:0|0:0,0:0:0:0:
30,234,24787,2,0,P|63:237|96:232,1,66.1250012612343,4|0,0:0|0:0,0:0:0:0:
112,136,25018,2,0,B|112:104|112:104|120:56,1,66.1250012612343,8|0,0:0|0:0,0:0:0:0:
208,24,25249,1,0,0:0:0:0:
220,314,25364,6,0,B|199:266|199:266|186:181,1,132.250002522469
107,297,25710,2,0,L|91:209,1,66.1250012612343
208,24,25941,2,0,L|292:54,1,66.1250012612343,8|0,0:0|0:0,0:0:0:0:
328,128,26172,2,0,L|368:120,2,33.0625006306172,8|0|0,0:0|0:0|0:0,0:0:0:0:
232,144,26402,5,8,0:0:0:0:
224,144,26518,1,0,0:0:0:0:
160,208,26864,5,8,0:0:0:0:
152,208,26979,1,0,0:0:0:0:
312,320,27326,6,0,P|304:248|320:200,1,115,4|0,0:0|0:0,0:0:0:0:
368,144,27672,1,0,0:0:0:0:
328,64,27787,2,0,B|264:48|264:48|200:56,1,115
128,72,28133,2,0,B|79:78|79:78|15:62,1,115
192,136,28479,2,0,L|184:320,1,172.5,4|0,0:0|0:0,0:0:0:0:
72,304,28941,2,0,P|112:256|208:288,1,172.5,4|0,0:0|0:0,0:0:0:0:
280,320,29402,6,0,L|360:312,2,57.5
206,284,29749,1,0,0:0:0:0:
120,304,29864,1,0,0:0:0:0:
120,304,29979,2,0,P|48:304|24:272,1,115
96,224,30326,2,0,B|112:184|112:184|96:64,1,115,4|0,0:0|0:0,0:0:0:0:
88,24,30672,1,0,0:0:0:0:
264,64,30787,2,0,L|248:256,1,172.5,4|0,0:0|0:0,0:0:0:0:
176,280,31249,6,0,P|144:288|120:288,2,57.5
249,235,31595,1,0,0:0:0:0:
248,320,31710,1,0,0:0:0:0:
248,320,31826,2,0,P|304:336|384:256,1,172.5,0|4,0:0|0:0,0:0:0:0:
382,266,32633,1,4,0:0:0:0:
256,40,33095,1,0,0:0:0:0:
192,120,33326,1,0,0:0:0:0:
192,120,33556,6,0,L|48:112,1,115,4|0,0:0|0:0,0:0:0:0:
112,40,33902,1,0,0:0:0:0:
32,200,34018,2,0,P|24:240|32:280,1,57.5
104,296,34249,2,0,P|111:268|112:240,1,57.5
32,336,34479,2,0,L|224:320,1,172.5,4|0,0:0|0:0,0:0:0:0:
256,248,34941,6,0,P|260:214|256:176,2,57.5
200,128,35287,1,0,0:0:0:0:
123,168,35402,1,0,0:0:0:0:
200,128,35518,2,0,L|368:144,1,115
336,320,35864,2,0,P|392:256|360:176,1,172.5,4|0,0:0|0:0,0:0:0:0:
200,128,36326,2,0,P|227:208|288:224,1,115,4|0,0:0|0:0,0:0:0:0:
144,40,36787,6,0,P|111:35|48:40,2,57.5
64,285,37249,1,0,0:0:0:0:
64,285,37364,2,0,L|56:141,1,115
144,224,37710,2,0,P|200:240|272:144,1,172.5,4|0,0:0|0:0,0:0:0:0:
192,152,38172,2,0,P|181:125|168:80,2,57.5,4|0|0,0:0|0:0|0:0,0:0:0:0:
272,168,38633,1,0,0:0:0:0:
424,88,38864,1,0,0:0:0:0:
172,97,39095,1,0,0:0:0:0:
352,136,39326,1,0,0:0:0:0:
120,160,39556,6,0,B|0:176|0:176|56:144,1,172.5,4|0,0:0|0:0,0:0:0:0:
16,40,40018,2,0,P|25:142|32:280,1,230,4|0,0:0|0:0,0:0:0:0:
120,160,40710,1,0,0:0:0:0:
232,320,40941,2,0,P|320:312|296:208,1,172.5,4|0,0:0|0:0,0:0:0:0:
264,184,41402,2,0,P|261:167|264:144,1,28.75
288,120,41518,2,0,P|288:105|285:91,1,28.75
254,60,41633,2,0,L|256:40,12,14.375,8|0|0|0|0|0|0|0|0|0|0|0|0,0:0|0:0|0:0|0:0|0:0|0:0|0:0|0:0|0:0|0:0|0:0|0:0|0:0,0:0:0:0:
184,104,42095,6,0,L|64:120,1,115,4|0,0:0|0:0,0:0:0:0:
368,173,42441,2,0,L|414:61,1,115,4|0,0:0|0:0,0:0:0:0:
215,298,42787,2,0,L|289:394,1,115,4|0,0:0|0:0,0:0:0:0:
128,280,43133,2,0,P|152:232|192:216,1,57.5,4|0,0:0|0:0,0:0:0:0:
360,216,43364,2,0,L|368:232,2,14.375,4|0|4,0:0|0:0|0:0,0:0:0:0:
360,216,43479,2,0,L|168:184,1,172.5,8|0,0:0|0:0,0:0:0:0:
24,152,43941,6,0,L|120:136,1,63.2500019302369,4|0,0:0|0:0,0:0:0:0:
142,37,44172,2,0,L|80:48,1,63.2500019302369
72,224,44402,2,0,P|88:288|64:352,1,126.500003860474,8|0,0:0|0:0,0:0:0:0:
168,256,44749,1,0,0:0:0:0:
168,256,44864,2,0,L|280:264,1,63.2500019302369,4|0,0:0|0:0,0:0:0:0:
272,344,45095,2,0,P|328:336|344:272,1,126.500003860474,0|8,0:0|0:0,0:0:0:0:
296,192,45441,1,0,0:0:0:0:
392,72,45556,2,0,L|384:216,1,126.500003860474,0|4,0:0|0:0,0:0:0:0:
160,136,46018,6,0,P|128:140|88:144,2,63.2500019302369,0|0|8,0:0|0:0|0:0,0:0:0:0:
104,56,46364,1,0,0:0:0:0:
24,112,46479,1,0,0:0:0:0:
96,64,46595,2,0,L|88:208,1,126.500003860474
270,169,46941,2,0,P|214:129|134:153,1,126.500003860474,0|8,0:0|0:0,0:0:0:0:
88,192,47287,1,0,0:0:0:0:
166,261,47402,2,0,L|158:117,1,126.500003860474,0|4,0:0|0:0,0:0:0:0:
404,113,47864,5,0,0:0:0:0:
320,64,47979,1,0,0:0:0:0:
320,64,48095,2,0,L|328:224,1,126.500003860474,8|0,0:0|0:0,0:0:0:0:
164,260,48441,2,0,L|158:134,1,126.500003860474
112,320,48787,2,0,P|176:336|232:296,1,126.500003860474,0|8,0:0|0:0,0:0:0:0:
208,80,49133,1,0,0:0:0:0:
208,80,49249,2,0,P|144:64|88:104,1,126.500003860474,0|4,0:0|0:0,0:0:0:0:
40,256,49710,6,0,P|37:214|48:160,1,63.2500019302369
112,320,49941,2,0,P|143:322|175:320,1,63.2500019302369,8|0,0:0|0:0,0:0:0:0:
168,144,50172,2,0,L|152:304,1,126.500003860474,0|4,0:0|0:0,0:0:0:0:
224,328,50518,1,0,0:0:0:0:
248,240,50633,2,0,P|249:208|232:168,2,63.2500019302369,0|0|8,0:0|0:0|0:0,0:0:0:0:
176,112,50979,1,0,0:0:0:0:
56,240,51095,2,0,L|224:208,1,126.500003860474,0|4,0:0|0:0,0:0:0:0:
336,320,51556,6,0,L|416:328,1,63.2500019302369
180,216,51787,2,0,L|100:224,1,63.2500019302369,8|0,0:0|0:0,0:0:0:0:
40,280,52018,1,0,0:0:0:0:
112,320,52133,1,0,0:0:0:0:
32,200,52249,2,0,P|35:172|48:136,1,63.2500019302369,4|0,0:0|0:0,0:0:0:0:
56,48,52479,2,0,L|72:192,1,126.500003860474,0|8,0:0|0:0,0:0:0:0:
269,277,52826,1,0,0:0:0:0:
269,277,52941,2,0,L|256:152,1,126.500003860474,0|4,0:0|0:0,0:0:0:0:
136,64,53402,5,0,0:0:0:0:
48,104,53518,1,0,0:0:0:0:
176,168,53633,2,0,P|163:201|160:264,1,63.2500019302369,8|0,0:0|0:0,0:0:0:0:
224,368,53864,2,0,P|280:288|232:224,1,189.750005790711
80,192,54326,2,0,P|43:201|8:200,1,63.2500019302369
40,112,54556,1,8,0:0:0:0:
208,80,54672,1,0,0:0:0:0:
104,160,54787,2,0,L|88:336,1,126.500003860474,0|4,0:0|0:0,0:0:0:0:
320,328,55249,6,0,L|312:256,2,63.2500019302369,0|0|8,0:0|0:0|0:0,0:0:0:0:
336,184,55595,1,0,0:0:0:0:
392,280,55710,2,0,L|408:80,1,189.750005790711
336,184,56172,2,0,P|297:190|264:184,1,63.2500019302369
88,48,56402,2,0,P|56:44|25:50,1,63.2500019302369,8|0,0:0|0:0,0:0:0:0:
64,136,56633,1,0,0:0:0:0:
152,112,56749,1,0,0:0:0:0:
272,184,56864,6,0,L|448:200,1,126.500003860474,4|0,0:0|0:0,0:0:0:0:
408,288,57210,1,0,0:0:0:0:
224,104,57326,2,0,P|184:160|184:176,1,63.2500019302369
112,264,57556,1,0,0:0:0:0:
232,240,57672,1,0,0:0:0:0:
232,240,57787,2,0,B|414:215|414:215|343:199|296:152|288:72|347:22|408:40,1,442.750013511658
144,176,58710,6,0,P|110:177|72:192,1,63.2500019302369,4|0,0:0|0:0,0:0:0:0:
80,280,58941,2,0,P|49:292|17:319,1,63.2500019302369
208,112,59172,2,0,P|176:56|64:64,1,189.750005790711,8|0,0:0|0:0,0:0:0:0:
368,208,59633,2,0,P|401:206|440:192,1,63.2500019302369,4|0,0:0|0:0,0:0:0:0:
432,104,59864,2,0,P|462:91|494:64,1,63.2500019302369
304,272,60095,2,0,P|336:328|448:320,1,189.750005790711,8|0,0:0|0:0,0:0:0:0:
184,248,60556,6,0,P|186:213|200:168,2,63.2500019302369,4|0|0,0:0|0:0|0:0,0:0:0:0:
304,272,60902,1,0,0:0:0:0:
240,104,61018,2,0,P|152:56|64:120,1,189.750005790711,8|0,0:0|0:0,0:0:0:0:
12,160,61479,2,0,B|12:216|12:216|44:296|44:296|44:344,1,189.750005790711,4|0,0:0|0:0,0:0:0:0:
88,192,61941,2,0,P|152:176|216:192,1,126.500003860474,8|0,0:0|0:0,0:0:0:0:
277,256,62287,1,0,0:0:0:0:
232,96,62402,6,0,P|233:58|248:8,1,63.2500019302369,4|0,0:0|0:0,0:0:0:0:
296,168,62633,2,0,P|310:133|341:90,1,63.2500019302369
192,288,62864,2,0,P|112:312|56:224,1,189.750005790711,8|0,0:0|0:0,0:0:0:0:
280,96,63326,2,0,P|278:58|264:8,1,63.2500019302369,4|0,0:0|0:0,0:0:0:0:
216,168,63557,2,0,P|201:133|170:90,1,63.2500019302369
320,288,63788,2,0,P|400:312|456:224,1,189.750005790711,8|0,0:0|0:0,0:0:0:0:
136,280,64249,6,0,P|100:281|72:288,2,63.2500019302369,4|0|0,0:0|0:0|0:0,0:0:0:0:
280,176,64595,1,0,0:0:0:0:
192,352,64710,2,0,B|240:288|208:224|208:224|176:160|224:88,1,253.000007720947,8|4,0:0|0:0,0:0:0:0:
224,96,65518,1,0,0:0:0:0:
224,96,65633,1,8,0:0:0:0:
112,192,65864,1,0,0:0:0:0:
112,192,66095,6,0,P|75:198|24:192,1,63.2500019302369,4|0,0:0|0:0,0:0:0:0:
256,88,66326,2,0,P|292:81|344:88,1,63.2500019302369
179,331,66556,2,0,L|211:139,1,189.750005790711,8|0,0:0|0:0,0:0:0:0:
288,280,67018,2,0,L|296:368,2,63.2500019302369,4|0|0,0:0|0:0|0:0,0:0:0:0:
364,304,67364,1,0,0:0:0:0:
344,224,67479,2,0,P|256:208|216:304,1,189.750005790711,8|0,0:0|0:0,0:0:0:0:
424,184,67941,6,0,P|441:156|456:112,1,63.2500019302369,4|0,0:0|0:0,0:0:0:0:
365,16,68172,2,0,P|375:46|379:77,1,63.2500019302369
264,168,68402,2,0,L|64:160,1,189.750005790711,8|0,0:0|0:0,0:0:0:0:
56,160,68864,1,4,0:0:0:0:
184,96,69210,1,0,0:0:0:0:
184,96,69326,1,8,0:0:0:0:
40,200,69556,1,0,0:0:0:0:
40,200,69672,1,0,0:0:0:0:
40,200,69787,6,0,L|32:280,1,63.2500019302369,4|0,0:0|0:0,0:0:0:0:
85,59,70018,2,0,B|56:80|56:80|27:115,1,63.2500019302369
80,344,70249,2,0,P|160:288|136:208,1,189.750005790711,8|0,0:0|0:0,0:0:0:0:
56,160,70710,2,0,P|17:161|-24:176,2,63.2500019302369,4|0|0,0:0|0:0|0:0,0:0:0:0:
80,264,71056,1,0,0:0:0:0:
136,112,71172,2,0,P|128:48|64:24,1,126.500003860474,8|0,0:0|0:0,0:0:0:0:
56,160,71518,5,0,0:0:0:0:
264,104,71633,2,0,L|184:120,1,63.2500019302369,12|0,0:0|0:0,0:0:0:0:
432,168,71864,2,0,L|350:169,1,63.2500019302369,12|0,0:0|0:0,0:0:0:0:
296,264,72095,2,0,L|48:248,1,230,12|4,0:0|0:0,0:0:0:0:
264,240,73479,6,0,P|223:222|176:216,1,86.2500032901765,12|0,0:0|0:0,0:0:0:0:
64,272,73710,1,0,0:0:0:0:
64,272,73826,1,4,0:0:0:0:
168,304,73941,2,0,P|200:208|160:128,1,172.500006580353,8|4,0:0|0:0,0:0:0:0:
48,104,74287,2,0,L|256:144,1,172.500006580353,0|8,0:0|0:0,0:0:0:0:
309,228,74633,2,0,L|398:245,1,86.2500032901765,4|0,0:0|0:0,0:0:0:0:
312,64,74864,2,0,P|287:100|280:152,2,86.2500032901765,8|0|0,0:0|0:0|0:0,0:0:0:0:
312,64,75210,1,0,0:0:0:0:
216,208,75326,6,0,P|128:224|48:88,1,258.75000987053,4|4,0:0|0:0,0:0:0:0:
72,224,75787,2,0,P|63:266|39:301,1,86.2500032901765,8|0,0:0|0:0,0:0:0:0:
142,53,76018,2,0,B|230:45|230:45|334:69,1,172.500006580353,4|0,0:0|0:0,0:0:0:0:
403,155,76364,1,8,0:0:0:0:
403,155,76479,2,0,P|399:200|411:243,1,86.2500032901765,4|0,0:0|0:0,0:0:0:0:
312,64,76710,1,8,0:0:0:0:
280,96,76826,1,0,0:0:0:0:
240,120,76941,1,0,0:0:0:0:
200,128,77056,1,0,0:0:0:0:
160,128,77172,6,0,P|113:124|48:136,1,86.2500032901765,4|0,0:0|0:0,0:0:0:0:
352,256,77402,2,0,P|398:259|464:248,1,86.2500032901765,0|4,0:0|0:0,0:0:0:0:
312,64,77633,2,0,B|328:120|328:120|312:184|312:184|328:240,1,172.500006580353,8|4,0:0|0:0,0:0:0:0:
248,128,77979,2,0,P|168:104|72:152,1,172.500006580353,0|8,0:0|0:0,0:0:0:0:
240,288,78326,2,0,P|225:251|224:200,1,86.2500032901765,4|0,0:0|0:0,0:0:0:0:
312,64,78556,1,8,0:0:0:0:
312,64,78672,2,0,L|304:160,1,86.2500032901765
376,344,78902,1,0,0:0:0:0:
376,344,79018,6,0,L|360:160,1,172.500006580353,4|0,0:0|0:0,0:0:0:0:
312,64,79364,1,4,0:0:0:0:
272,256,79479,2,0,P|228:272|176:264,1,86.2500032901765,8|0,0:0|0:0,0:0:0:0:
152,40,79710,2,0,P|32:64|32:192,1,258.75000987053,4|8,0:0|0:0,0:0:0:0:
229,77,80172,2,0,P|269:61|325:69,1,86.2500032901765,4|0,0:0|0:0,0:0:0:0:
383,266,80402,2,0,P|352:237|312:224,1,86.2500032901765,8|0,0:0|0:0,0:0:0:0:
160,264,80633,2,0,L|160:296,6,21.5625008225441
160,264,80864,6,0,L|176:112,2,86.2500032901765,4|0|0,0:0|0:0|0:0,0:0:0:0:
310,223,81210,1,4,0:0:0:0:
216,344,81326,2,0,P|312:360|384:256,1,172.500006580353,8|4,0:0|0:0,0:0:0:0:
367,317,81672,1,0,0:0:0:0:
336,160,81787,2,0,P|376:144|448:152,1,86.2500032901765,0|8,0:0|0:0,0:0:0:0:
272,64,82018,2,0,P|235:86|208:119,1,86.2500032901765,4|0,0:0|0:0,0:0:0:0:
136,320,82249,2,0,L|128:232,1,86.2500032901765,8|0,0:0|0:0,0:0:0:0:
207,119,82479,1,0,0:0:0:0:
304,40,82595,1,0,0:0:0:0:
232,208,82710,6,0,P|336:224|344:72,1,258.75000987053,4|4,0:0|0:0,0:0:0:0:
296,144,83172,2,0,P|256:120|192:120,1,86.2500032901765,8|0,0:0|0:0,0:0:0:0:
56,144,83402,2,0,P|144:168|248:104,1,172.500006580353,4|0,0:0|0:0,0:0:0:0:
384,184,83749,1,8,0:0:0:0:
304,48,83864,2,0,P|299:91|312:168,1,86.2500032901765,4|0,0:0|0:0,0:0:0:0:
432,328,84095,1,8,0:0:0:0:
448,240,84210,1,0,0:0:0:0:
440,152,84326,1,0,0:0:0:0:
384,80,84441,1,0,0:0:0:0:
304,48,84556,6,0,P|260:62|216:64,1,86.2500032901765,4|0,0:0|0:0,0:0:0:0:
59,154,84787,2,0,P|101:166|144:168,1,86.2500032901765,0|4,0:0|0:0,0:0:0:0:
96,48,85018,2,0,L|104:280,1,172.500006580353,8|4,0:0|0:0,0:0:0:0:
224,64,85364,2,0,P|328:64|376:120,1,172.500006580353,0|8,0:0|0:0,0:0:0:0:
264,184,85710,2,0,P|253:233|264:288,1,86.2500032901765,4|0,0:0|0:0,0:0:0:0:
164,124,85941,2,0,P|189:89|224:64,1,86.2500032901765,8|0,0:0|0:0,0:0:0:0:
88,328,86172,2,0,L|96:360,6,21.5625008225441
88,328,86402,6,0,L|96:208,1,86.2500032901765,4|0,0:0|0:0,0:0:0:0:
40,72,86633,2,0,P|160:120|240:32,1,258.75000987053,8|0,0:0|0:0,0:0:0:0:
192,160,87095,2,0,P|179:203|184:264,1,86.2500032901765,8|0,0:0|0:0,0:0:0:0:
328,331,87326,2,0,P|314:290|312:248,1,86.2500032901765,8|0,0:0|0:0,0:0:0:0:
320,120,87556,2,0,L|328:88,6,21.5625008225441,8|0|0|0|8|0|0,0:0|0:0|0:0|0:0|0:0|0:0|0:0,0:0:0:0:
120,96,87787,1,8,0:0:0:0:
232,160,87902,1,8,0:0:0:0:
360,160,88018,1,8,0:0:0:0:
384,64,88133,1,0,0:0:0:0:
384,64,88249,6,0,L|392:248,1,172.500006580353,12|0,0:0|0:0,0:0:0:0:
304,328,88595,1,4,0:0:0:0:
224,288,88710,2,0,L|128:296,1,86.2500032901765,8|0,0:0|0:0,0:0:0:0:
24,224,88941,1,4,0:0:0:0:
264,104,89056,2,0,P|288:200|248:288,1,172.500006580353,0|8,0:0|0:0,0:0:0:0:
184,192,89402,1,4,0:0:0:0:
117,8,89518,1,0,0:0:0:0:
279,117,89633,1,8,0:0:0:0:
83,124,89749,1,0,0:0:0:0:
237,4,89864,1,0,0:0:0:0:
40,208,89979,6,0,B|32:280|32:280|64:384,1,172.500006580353
128,264,90326,1,0,0:0:0:0:
256,344,90441,1,4,0:0:0:0:
160,160,90556,1,8,0:0:0:0:
136,344,90672,1,0,0:0:0:0:
80,192,90787,1,4,0:0:0:0:
136,344,90902,2,0,P|232:352|312:304,1,172.500006580353,0|8,0:0|0:0,0:0:0:0:
256,144,91249,1,4,0:0:0:0:
352,24,91364,1,0,0:0:0:0:
344,178,91479,1,8,0:0:0:0:
260,49,91595,1,0,0:0:0:0:
404,104,91710,1,0,0:0:0:0:
272,232,91826,1,0,0:0:0:0:
152,184,91941,6,0,P|96:200|32:192,1,115.000004386902,4|0,0:0|0:0,0:0:0:0:
96,112,92172,2,0,P|152:96|216:104,1,115.000004386902
248,176,92402,1,8,0:0:0:0:
216,304,92518,1,0,0:0:0:0:
320,224,92633,1,4,0:0:0:0:
160,224,92749,2,0,L|336:240,1,172.500006580353,0|8,0:0|0:0,0:0:0:0:
408,344,93095,1,4,0:0:0:0:
368,176,93210,1,0,0:0:0:0:
320,320,93326,1,8,0:0:0:0:
400,248,93441,1,0,0:0:0:0:
368,96,93556,1,0,0:0:0:0:
288,152,93672,6,0,L|96:144,1,172.500006580353
192,40,94018,1,0,0:0:0:0:
184,184,94133,1,4,0:0:0:0:
32,144,94249,1,8,0:0:0:0:
224,112,94364,1,0,0:0:0:0:
88,80,94479,1,8,0:0:0:0:
128,248,94595,1,0,0:0:0:0:
192,40,94710,5,12,0:0:0:0:
192,40,95056,1,12,0:0:0:0:
192,40,95402,1,12,0:0:0:0:
