osu file format v14

[General]
AudioFilename: selfCut.mp3
AudioLeadIn: 0
PreviewTime: 59284
Countdown: 0
SampleSet: Soft
StackLeniency: 0.7
Mode: 2
LetterboxInBreaks: 0
WidescreenStoryboard: 1

[Editor]
Bookmarks: 9881,21589,37198,45003,60613,85979
DistanceSpacing: 1.3
BeatDivisor: 4
GridSize: 16
TimelineZoom: 1.280003

[Metadata]
Title:Chiisana Hibi (TV Size)
TitleUnicode:ちいさな日々 (TV Size)
Artist:flumpool
ArtistUnicode:flumpool
Creator:Greaper
Version:Rain
Source:かくしごと
Tags:Secre chickenbible Du5t Dust iDu5t iDust Depths Kakushigoto Hidden Things Anime Japanese 山村 隆太 Ryuta Yamamura 阪井 一生 Kazuki Sakai 尼川 元気 Genki Amakawa 小倉 誠司 Seiji Ogura
BeatmapID:2380003
BeatmapSetID:1139396

[Difficulty]
HPDrainRate:6
CircleSize:4
OverallDifficulty:8.8
ApproachRate:8.8
SliderMultiplier:2.26
SliderTickRate:2

[Events]
//Background and Video events
0,0,"bg.jpg",0,0
//Break Periods
//Storyboard Layer 0 (Background)
//Storyboard Layer 1 (Fail)
//Storyboard Layer 2 (Pass)
//Storyboard Layer 3 (Foreground)
//Storyboard Layer 4 (Overlay)
//Storyboard Sound Samples

[TimingPoints]
1967,487.804878048782,4,2,11,60,1,0
9771,-100,4,2,11,50,0,0
10259,-100,4,2,11,55,0,0
10747,-100,4,2,11,60,0,0
11235,-100,4,2,11,65,0,0
11723,-100,4,2,11,60,0,0
16845,-100,4,2,11,55,0,0
17088,-100,4,2,11,60,0,0
17332,-100,4,2,11,65,0,0
17576,-100,4,2,11,50,0,0
17820,-100,4,2,11,40,0,0
21479,-100,4,2,11,45,0,0
35625,-100,4,2,11,60,0,0
35869,-100,4,2,11,50,0,0
37088,-100,4,2,11,55,0,0
42454,-100,4,2,11,70,0,0
42576,-100,4,2,11,50,0,0
44893,-100,4,2,11,55,0,0
56601,-100,4,2,11,60,0,0
60503,-90.9090909090909,4,2,11,65,0,1
73918,-90.9090909090909,4,2,11,60,0,0
76113,-90.9090909090909,4,2,11,65,0,1
84406,-90.9090909090909,4,2,11,50,0,1
84893,-90.9090909090909,4,2,11,55,0,1
85381,-90.9090909090909,4,2,11,60,0,1
85869,-100,4,2,11,65,0,0
87820,-100,4,2,11,50,0,0
88064,-100,4,2,11,40,0,0
88308,-100,4,2,11,30,0,0
88552,-100,4,2,11,20,0,0
88796,-100,4,2,11,15,0,0
89040,-100,4,2,11,10,0,0
89284,-100,4,2,11,5,0,0

[Colours]
Combo1 : 255,255,108
Combo2 : 106,181,255
Combo3 : 106,255,143
Combo4 : 255,106,255

[HitObjects]
125,278,747,6,0,L|239:269,1,113,0|0,0:0|0:0,0:0:0:0:
90,186,1235,2,0,L|209:135,2,113,0|0|0,0:0|0:0|0:0,0:0:0:0:
403,200,1966,6,0,P|467:180|383:98,1,226,4|0,0:0|0:0,0:0:0:0:
179,104,2698,2,0,L|412:97,1,226,0|0,0:0|0:0,0:0:0:0:
273,51,3430,1,0,0:0:0:0:
489,307,3674,1,0,0:0:0:0:
173,330,3918,6,0,L|61:323,1,113,4|0,0:0|0:0,0:0:0:0:
273,268,4649,2,0,L|277:155,1,113,0|0,0:0|0:0,0:0:0:0:
58,147,5137,2,0,L|173:140,1,113,0|0,0:0|0:0,0:0:0:0:
387,135,5625,1,0,0:0:0:0:
59,111,5869,6,0,P|51:178|202:256,1,226,4|0,0:0|0:0,0:0:0:0:
385,255,6601,2,0,L|154:264,1,226,0|0,0:0|0:0,0:0:0:0:
284,317,7332,1,0,0:0:0:0:
56,327,7576,1,0,0:0:0:0:
362,335,7820,6,0,L|476:331,1,113,4|0,0:0|0:0,0:0:0:0:
156,240,8552,2,0,L|283:238,1,113,0|0,0:0|0:0,0:0:0:0:
46,176,9040,1,8,0:3:0:0:
353,189,9284,2,0,L|356:54,1,113,12|0,0:0|0:0,0:0:0:0:
26,91,9771,6,0,L|159:89,2,113,8|0|8,0:0|0:0|0:3,0:0:0:0:
227,93,10503,1,8,0:3:0:0:
22,118,10747,2,0,L|17:234,1,113,8|8,0:3|0:3,0:0:0:0:
336,209,11235,2,0,L|458:208,1,113,8|8,0:3|0:3,0:0:0:0:
70,159,11723,6,0,L|186:162,2,113,8|8|8,0:0|0:3|0:3,0:0:0:0:
384,177,12454,1,12,0:3:0:0:
473,160,12698,2,0,L|474:35,1,113,0|0,0:0|0:0,0:0:0:0:
358,52,13186,2,0,L|494:47,1,113,0|0,0:0|0:0,0:0:0:0:
140,68,13674,6,0,L|16:61,2,113,4|8|8,0:0|0:3|0:3,0:0:0:0:
358,165,14406,2,0,L|246:168,2,113,8|8|8,0:0|0:3|0:3,0:0:0:0:
140,159,15137,2,0,L|26:160,1,113,8|8,0:0|0:3,0:0:0:0:
361,244,15625,6,0,L|242:241,2,113,8|8|8,0:0|0:3|0:3,0:0:0:0:
142,242,16357,2,0,L|137:125,1,113,8|0,0:0|0:0,0:0:0:0:
355,120,16845,2,0,L|358:58,1,56.5,8|8,0:0|0:0,0:0:0:0:
159,122,17088,1,8,0:0:0:0:
97,108,17210,1,8,0:0:0:0:
101,49,17332,1,8,0:0:0:0:
163,37,17454,1,8,0:0:0:0:
379,43,17576,6,0,L|500:38,2,113,4|0|0,0:0|0:0|0:0,0:0:0:0:
160,147,18308,2,0,L|152:272,1,113,8|0,0:3|0:0,0:0:0:0:
370,145,18796,1,4,0:3:0:0:
474,151,19040,2,0,L|478:289,1,113,8|0,0:0|0:0,0:0:0:0:
160,237,19527,6,0,L|42:244,2,113,8|0|0,0:3|0:0|0:0,0:0:0:0:
362,223,20259,2,0,L|360:103,1,113,4|0,0:3|0:0,0:0:0:0:
143,103,20747,1,8,0:0:0:0:
450,92,20991,1,4,0:0:0:0:
125,64,21479,6,0,L|18:103,1,113,8|0,0:3|0:0,0:0:0:0:
211,174,21967,2,0,L|67:179,1,113,8|0,0:3|0:0,0:0:0:0:
40,181,22332,1,0,0:0:0:0:
226,213,22454,2,0,L|341:218,1,113,8|0,0:3|0:0,0:0:0:0:
200,323,22942,1,8,0:3:0:0:
381,323,23186,1,0,0:0:0:0:
77,249,23430,6,0,L|73:127,1,113,8|0,0:3|0:0,0:0:0:0:
268,130,23918,1,8,0:3:0:0:
65,109,24162,2,0,L|319:95,1,226,0|0,0:0|0:0,0:0:0:0:
59,58,24893,1,8,0:3:0:0:
364,57,25137,6,0,L|215:62,1,113,12|8,0:3|0:3,0:0:0:0:
457,120,25625,1,0,0:0:0:0:
270,162,25869,2,0,L|154:164,1,113,8|0,0:3|0:0,0:0:0:0:
147,248,26235,1,0,0:0:0:0:
203,274,26357,1,8,0:3:0:0:
264,285,26479,1,0,0:0:0:0:
463,292,26601,2,0,L|468:161,1,113,0|8,0:0|0:3,0:0:0:0:
365,151,27088,1,0,0:0:0:0:
47,90,27332,6,0,L|184:84,2,113,8|0|8,0:3|0:0|0:3,0:0:0:0:
263,134,28064,2,0,L|389:143,1,113,0|8,0:0|0:3,0:0:0:0:
62,161,28552,2,0,L|57:284,1,113,12|8,0:3|0:3,0:0:0:0:
366,250,29040,1,12,0:3:0:0:
60,253,29284,6,0,L|56:135,1,113,8|0,0:3|0:0,0:0:0:0:
368,122,29771,2,0,L|233:116,1,113,4|0,0:0|0:0,0:0:0:0:
249,177,30137,1,0,0:0:0:0:
439,192,30259,2,0,L|444:320,1,113,8|0,0:3|0:0,0:0:0:0:
329,308,30747,1,8,0:3:0:0:
111,319,30991,1,0,0:0:0:0:
431,118,31235,6,0,L|287:108,2,113,8|0|8,0:3|0:0|0:3,0:0:0:0:
216,89,31967,2,0,L|444:78,1,226,0|0,0:0|0:0,0:0:0:0:
338,148,32698,1,8,0:3:0:0:
27,191,32942,6,0,L|153:190,1,113,12|8,0:3|0:3,0:0:0:0:
34,250,33430,2,0,L|31:322,1,56.5,0|0,0:0|0:0,0:0:0:0:
225,275,33674,2,0,L|345:278,1,113,8|0,0:3|0:0,0:0:0:0:
355,222,34040,1,0,0:0:0:0:
337,174,34162,1,8,0:3:0:0:
280,144,34284,1,0,0:0:0:0:
138,157,34406,2,0,L|250:151,1,113,0|8,0:0|0:3,0:0:0:0:
44,93,34893,1,0,0:0:0:0:
351,176,35137,6,0,L|468:168,1,113,8|0,0:3|0:0,0:0:0:0:
255,83,35625,2,0,L|378:72,1,113,8|0,0:3|0:0,0:0:0:0:
61,130,36113,1,8,0:0:0:0:
63,189,36235,1,8,0:0:0:0:
101,225,36357,1,12,0:3:0:0:
158,232,36479,1,0,0:0:0:0:
365,235,36601,2,0,L|428:236,1,56.5,8|0,0:0|0:0,0:0:0:0:
197,297,36845,2,0,L|135:298,1,56.5,4|0,0:3|0:0,0:0:0:0:
362,339,37088,6,0,L|227:341,2,113,4|0|8,0:0|0:0|0:3,0:0:0:0:
144,258,37820,2,0,L|282:252,2,113,0|8|0,0:0|0:3|0:0,0:0:0:0:
360,226,38552,2,0,L|367:103,1,113,8|0,0:0|0:0,0:0:0:0:
53,84,39040,6,0,L|181:85,2,113,8|0|8,0:3|0:0|0:3,0:0:0:0:
266,94,39771,1,0,0:0:0:0:
47,137,40015,2,0,L|38:259,1,113,8|4,0:3|0:3,0:0:0:0:
256,235,40503,2,0,L|378:238,1,113,8|4,0:3|0:3,0:0:0:0:
62,292,40991,6,0,L|196:295,2,113,8|0|8,0:3|0:0|0:3,0:0:0:0:
266,244,41723,2,0,L|389:242,2,113,0|8|0,0:0|0:3|0:0,0:0:0:0:
48,228,42454,2,0,L|41:85,1,113,8|0,0:3|0:0,0:0:0:0:
359,204,42942,6,0,L|485:198,1,113,8|4,0:3|0:3,0:0:0:0:
163,204,43430,2,0,L|160:70,1,113,4|0,0:0|0:0,0:0:0:0:
375,111,43918,2,0,L|460:107,1,56.5,8|8,0:0|0:0,0:0:0:0:
230,75,44162,2,0,L|69:72,1,113,8|8,0:3|0:0,0:0:0:0:
309,143,44649,2,0,L|378:143,1,56.5,8|8,0:3|0:3,0:0:0:0:
147,206,44893,6,0,P|81:245|90:330,1,169.5,4|0,0:0|0:0,0:0:0:0:
149,332,45381,2,0,L|25:338,1,113,8|0,0:0|0:0,0:0:0:0:
256,260,45869,2,0,L|380:267,1,113,8|8,0:3|0:3,0:0:0:0:
162,140,46357,1,8,0:3:0:0:
378,133,46601,1,8,0:0:0:0:
67,127,46845,6,0,L|181:135,1,113,8|0,0:3|0:0,0:0:0:0:
174,196,47210,1,0,0:0:0:0:
115,213,47332,1,8,0:0:0:0:
330,225,47576,1,0,0:0:0:0:
148,224,47820,2,0,L|23:233,2,113,8|8|8,0:3|0:3|0:3,0:0:0:0:
352,292,48552,1,8,0:0:0:0:
45,327,48796,6,0,P|54:270|205:180,1,226,8|8,0:3|0:3,0:0:0:0:
391,196,49527,2,0,L|254:188,1,113,0|0,0:0|0:0,0:0:0:0:
489,146,50015,2,0,L|366:135,1,113,8|0,0:3|0:0,0:0:0:0:
161,123,50503,1,8,0:0:0:0:
472,67,50747,6,0,L|478:208,1,113,8|0,0:3|0:0,0:0:0:0:
275,183,51235,2,0,L|413:189,1,113,8|0,0:0|0:0,0:0:0:0:
81,266,51723,1,8,0:3:0:0:
23,243,51845,1,8,0:3:0:0:
28,172,51967,1,8,0:3:0:0:
86,159,52088,1,8,0:3:0:0:
287,153,52210,2,0,L|424:147,1,113,8|0,0:0|0:0,0:0:0:0:
81,88,52698,6,0,L|258:80,1,169.5,4|0,0:0|0:0,0:0:0:0:
181,134,53186,2,0,L|171:268,1,113,8|0,0:0|0:0,0:0:0:0:
383,266,53674,2,0,L|508:273,2,113,0|8|8,0:0|0:3|0:3,0:0:0:0:
170,257,54406,1,8,0:0:0:0:
476,225,54649,6,0,L|359:218,1,113,8|0,0:3|0:0,0:0:0:0:
357,157,55015,1,0,0:0:0:0:
418,131,55137,2,0,L|421:17,1,113,8|0,0:0|0:0,0:0:0:0:
212,39,55625,1,8,0:3:0:0:
221,94,55747,1,8,0:3:0:0:
271,125,55869,1,8,0:3:0:0:
328,137,55991,1,0,0:0:0:0:
127,155,56113,2,0,L|14:159,1,113,4|0,0:0|0:0,0:0:0:0:
356,249,56601,6,0,L|365:370,1,113,8|8,0:0|0:3,0:0:0:0:
158,343,57088,1,8,0:3:0:0:
468,201,57332,2,0,L|316:198,1,113,8|8,0:0|0:3,0:0:0:0:
135,189,57820,1,8,0:0:0:0:
438,148,58064,2,0,L|450:23,1,113,4|0,0:0|0:0,0:0:0:0:
74,48,58552,5,8,0:0:0:0:
272,49,58796,1,8,0:3:0:0:
74,48,59040,1,8,0:3:0:0:
392,103,59284,2,0,L|395:219,1,113,4|0,0:0|0:0,0:0:0:0:
201,196,59771,2,0,L|340:204,1,113,0|0,0:0|0:0,0:0:0:0:
97,248,60259,1,0,0:0:0:0:
421,207,60503,6,0,L|146:186,1,248.60000758667,4|8,0:0|0:0,0:0:0:0:
377,107,61235,2,0,L|388:255,1,124.300003793335,0|8,0:0|0:3,0:0:0:0:
183,202,61723,2,0,L|57:203,1,124.300003793335,0|8,0:0|0:0,0:0:0:0:
370,251,62210,6,0,L|373:111,1,124.300003793335,0|8,0:0|0:3,0:0:0:0:
172,91,62698,2,0,L|31:86,1,124.300003793335,0|8,0:0|0:0,0:0:0:0:
248,53,63186,1,0,0:0:0:0:
62,39,63430,1,8,0:3:0:0:
408,84,63674,2,0,L|413:215,1,124.300003793335,0|8,0:0|0:0,0:0:0:0:
85,217,64162,5,0,0:0:0:0:
302,183,64406,2,0,L|440:177,1,124.300003793335,8|0,0:3|0:0,0:0:0:0:
224,233,64893,1,8,0:0:0:0:
433,195,65137,2,0,L|438:52,1,124.300003793335,0|8,0:0|0:3,0:0:0:0:
221,82,65625,2,0,L|76:78,1,124.300003793335,0|8,0:0|0:0,0:0:0:0:
440,334,66113,6,0,L|148:322,1,248.60000758667,0|8,0:0|0:0,0:0:0:0:
401,269,66845,1,12,0:0:0:0:
66,292,67088,2,0,L|63:163,1,124.300003793335,0|8,0:0|0:0,0:0:0:0:
126,151,67454,1,8,0:3:0:0:
313,162,67576,2,0,L|446:158,1,124.300003793335,8|8,0:3|0:0,0:0:0:0:
208,103,68064,2,0,L|136:97,1,62.1500018966675,8|8,0:3|0:3,0:0:0:0:
367,102,68308,6,0,L|493:100,2,124.300003793335,4|0|8,0:0|0:0|0:0,0:0:0:0:
154,120,69040,1,0,0:0:0:0:
367,169,69284,2,0,L|157:181,2,186.450005690003,8|0|0,0:3|0:0|0:0,0:0:0:0:
33,278,70259,6,0,L|288:282,1,248.60000758667,8|8,0:3|0:0,0:0:0:0:
154,225,70991,1,0,0:0:0:0:
380,208,71235,2,0,L|389:72,1,124.300003793335,8|8,0:3|0:3,0:0:0:0:
159,110,71723,2,0,L|34:107,1,124.300003793335,8|0,0:0|0:0,0:0:0:0:
381,155,72210,6,0,L|385:285,1,124.300003793335,8|0,0:3|0:0,0:0:0:0:
47,304,72698,2,0,L|308:308,1,248.60000758667,8|8,0:0|0:3,0:0:0:0:
170,241,73430,1,0,0:0:0:0:
382,199,73674,1,8,0:0:0:0:
57,197,73918,6,0,L|204:190,1,124.300003793335,4|8,0:0|0:3,0:0:0:0:
387,114,74406,1,8,0:0:0:0:
62,98,74649,1,4,0:0:0:0:
253,146,74893,2,0,L|380:151,1,124.300003793335,0|8,0:0|0:0,0:0:0:0:
440,202,75259,1,8,0:3:0:0:
196,207,75381,1,8,0:3:0:0:
133,216,75503,1,0,0:3:0:0:
353,175,75625,2,0,L|494:166,1,124.300003793335,8|8,0:0|0:0,0:0:0:0:
472,103,75991,1,8,0:0:0:0:
218,83,76113,6,0,L|79:69,1,124.300003793335,4|0,0:0|0:0,0:0:0:0:
308,147,76601,1,8,0:0:0:0:
104,175,76845,2,0,L|371:192,1,248.60000758667,0|0,0:0|0:0,0:0:0:0:
136,224,77576,1,8,0:0:0:0:
472,241,77820,6,0,L|317:237,1,124.300003793335,0|8,0:0|0:3,0:0:0:0:
136,234,78308,2,0,L|125:98,1,124.300003793335,0|8,0:0|0:0,0:0:0:0:
343,171,78796,2,0,L|183:164,1,124.300003793335,0|8,0:0|0:3,0:0:0:0:
433,175,79284,2,0,L|448:39,1,124.300003793335,0|8,0:0|0:0,0:0:0:0:
110,66,79771,5,0,0:0:0:0:
309,71,80015,2,0,L|332:204,1,124.300003793335,8|0,0:3|0:0,0:0:0:0:
11,202,80503,1,12,0:0:0:0:
134,217,80747,2,0,L|304:215,2,124.300003793335,0|8|0,0:0|0:3|0:0,0:0:0:0:
474,246,81479,1,12,0:0:0:0:
263,256,81723,6,0,L|260:123,1,124.300003793335,0|8,0:0|0:3,0:0:0:0:
474,127,82210,1,8,0:0:0:0:
147,232,82454,2,0,L|141:91,1,124.300003793335,12|0,0:0|0:0,0:0:0:0:
354,90,82942,1,8,0:3:0:0:
146,119,83186,1,8,0:0:0:0:
345,134,83430,2,0,L|355:263,1,124.300003793335,8|8,0:0|0:3,0:0:0:0:
16,176,83918,6,0,L|156:184,2,124.300003793335,12|0|8,0:0|0:0|0:3,0:0:0:0:
233,156,84649,2,0,L|378:154,1,124.300003793335,8|8,0:3|0:3,0:0:0:0:
147,95,85137,1,8,0:3:0:0:
366,87,85381,2,0,L|374:217,1,124.300003793335,8|8,0:3|0:3,0:0:0:0:
66,180,85869,6,0,L|307:180,1,226,4|0,0:0|0:0,0:0:0:0:
104,212,86601,2,0,L|101:338,1,113,0|8,0:0|0:0,0:0:0:0:
290,318,87088,1,8,0:0:0:0:
100,333,87332,1,8,0:0:0:0:
406,310,87576,5,4,0:0:0:0:
256,192,87820,12,0,89771,0:0:0:0:
