osu file format v14

[General]
AudioFilename: audio.mp3
AudioLeadIn: 0
PreviewTime: 59007
Countdown: 0
SampleSet: Soft
StackLeniency: 0.7
Mode: 3
LetterboxInBreaks: 0
SpecialStyle: 0
WidescreenStoryboard: 1

[Editor]
DistanceSpacing: 0.7
BeatDivisor: 4
GridSize: 4
TimelineZoom: 1.8

[Metadata]
Title:Chiisana Hibi (TV Size)
TitleUnicode:ちいさな日々 (TV Size)
Artist:flumpool
ArtistUnicode:flumpool
Creator:[Ping]
Version:hard
Source:かくしごと
Tags:kakushigoto kaku shigoto hidden things my dad's dads secret ambition 小さな small days gotou kakushi hime 後藤 可久士 姫 real AZZS-106 AZCS-1091 AZNT-52 rip46 thenewbungping anime japanese pop jpop opening
BeatmapID:2413202
BeatmapSetID:1156204

[Difficulty]
HPDrainRate:8
CircleSize:4
OverallDifficulty:8
ApproachRate:5
SliderMultiplier:1.4
SliderTickRate:1

[Events]
//Background and Video events
0,0,"kakushigoto.jpg",0,0
Video,236,"video.mp4"
//Break Periods
//Storyboard Layer 0 (Background)
//Storyboard Layer 1 (Fail)
//Storyboard Layer 2 (Pass)
//Storyboard Layer 3 (Foreground)
//Storyboard Layer 4 (Overlay)
//Storyboard Sound Samples
Sample,61446,0,"LR_Hat Finish.wav",60
Sample,63397,0,"LR_Hat Finish.wav",60
Sample,65348,0,"LR_Hat Finish.wav",60
Sample,69251,0,"LR_Hat Finish.wav",60
Sample,71202,0,"LR_Hat Finish.wav",60
Sample,73153,0,"LR_Hat Finish.wav",60
Sample,73641,0,"LR_Hat Finish.wav",60
Sample,77055,0,"LR_Hat Finish.wav",60
Sample,79007,0,"LR_Hat Finish.wav",60

[TimingPoints]
1934,487.80487804878,4,2,1,50,1,0
60470,-100,4,2,1,60,0,1
68275,-100,4,2,1,60,0,0
76080,-100,4,2,1,60,0,1
83885,-100,4,2,1,50,0,0

[HitObjects]
64,192,1934,5,4,0:0:0:0:
192,192,1934,1,2,0:0:0:0:
448,192,1934,128,0,3641:0:0:0:0:
320,192,2421,1,0,0:0:0:0:
320,192,2665,128,0,3153:0:0:0:0:
192,192,3153,1,0,0:0:0:0:
64,192,3397,1,0,0:0:0:0:
320,192,3641,1,0,0:0:0:0:
64,192,3885,128,4,5592:0:0:0:0:
192,192,3885,1,2,0:0:0:0:
448,192,3885,1,0,0:0:0:0:
320,192,4129,1,0,0:0:0:0:
192,192,4616,1,0,0:0:0:0:
320,192,4860,1,0,0:0:0:0:
448,192,5104,1,0,0:0:0:0:
192,192,5348,1,0,0:0:0:0:
448,192,5592,1,0,0:0:0:0:
64,192,5836,1,4,0:0:0:0:
192,192,5836,1,2,0:0:0:0:
320,192,5836,128,0,7543:0:0:0:0:
64,192,6324,1,0,0:0:0:0:
64,192,6568,128,0,7055:0:0:0:0:
192,192,7055,1,0,0:0:0:0:
448,192,7299,1,0,0:0:0:0:
64,192,7543,1,0,0:0:0:0:
192,192,7787,128,4,9251:0:0:0:0:
320,192,7787,1,2,0:0:0:0:
448,192,7787,1,0,0:0:0:0:
64,192,8031,1,0,0:0:0:0:
448,192,8519,1,0,0:0:0:0:
64,192,8763,1,0,0:0:0:0:
320,192,9007,1,2,0:0:0:0:
64,192,9251,1,8,0:0:0:0:
448,192,9251,1,4,0:0:0:0:
320,192,9494,1,0,0:0:0:0:
64,192,9738,1,8,0:0:0:0:
192,192,9738,1,4,0:0:0:0:
320,192,10226,1,2,0:0:0:0:
448,192,10226,1,0,0:0:0:0:
64,192,10470,1,0,0:0:0:0:
192,192,10714,1,2,0:0:0:0:
448,192,10714,1,0,0:0:0:0:
192,192,10958,1,2,0:0:0:0:
320,192,10958,1,0,0:0:0:0:
64,192,11202,1,8,0:0:0:0:
320,192,11202,1,0,0:0:0:0:
64,192,11446,1,8,0:0:0:0:
448,192,11446,1,0,0:0:0:0:
320,192,11690,1,8,0:0:0:0:
448,192,11690,128,0,11933:0:0:0:0:
192,192,11933,128,2,12177:0:0:0:0:
448,192,12177,128,2,12421:0:0:0:0:
64,192,12421,1,8,0:0:0:0:
320,192,12421,128,0,12665:0:0:0:50:LR_Hat Finish.wav
64,192,13641,1,4,0:0:0:0:
448,192,13641,1,8,0:0:0:0:
64,192,13885,1,2,0:0:0:0:
320,192,13885,1,0,0:0:0:0:
64,192,14129,1,2,0:0:0:0:
320,192,14129,1,0,0:0:0:0:
192,192,14373,1,4,0:0:0:0:
448,192,14373,1,8,0:0:0:0:
64,192,14616,1,2,0:0:0:0:
448,192,14616,1,0,0:0:0:0:
64,192,14860,1,2,0:0:0:0:
448,192,14860,1,0,0:0:0:0:
192,192,15104,1,4,0:0:0:0:
320,192,15104,1,8,0:0:0:0:
64,192,15348,1,2,0:0:0:0:
192,192,15348,1,0,0:0:0:0:
320,192,15592,1,8,0:0:0:0:
448,192,15592,1,4,0:0:0:0:
192,192,15836,1,2,0:0:0:0:
448,192,15836,1,0,0:0:0:0:
192,192,16080,1,2,0:0:0:0:
448,192,16080,1,0,0:0:0:0:
64,192,16324,1,4,0:0:0:0:
320,192,16324,1,8,0:0:0:0:
192,192,16568,1,0,0:0:0:0:
448,192,16812,1,8,0:0:0:0:
64,192,16933,1,8,0:0:0:0:
320,192,17055,1,8,0:0:0:0:
448,192,17177,1,8,0:0:0:0:
192,192,17299,1,8,0:0:0:0:
320,192,17421,1,8,0:0:0:0:
64,192,17543,1,2,0:0:0:0:
448,192,17543,1,4,0:0:0:0:
192,192,17787,1,0,0:0:0:0:
320,192,18031,1,0,0:0:0:0:
64,192,18275,1,2,0:0:0:0:
448,192,18275,1,0,0:0:0:0:
192,192,18519,1,0,0:0:0:0:
320,192,18763,128,0,19007:0:0:0:50:LR_Hat Finish.wav
64,192,19007,1,0,0:0:0:50:LR_Drum EDge.wav
192,192,19007,1,0,0:0:0:0:
320,192,19494,1,2,0:0:0:0:
448,192,19494,1,0,0:0:0:0:
64,192,19738,1,0,0:0:0:0:
192,192,19982,1,0,0:0:0:0:
320,192,20226,1,2,0:0:0:0:
448,192,20226,1,0,0:0:0:50:LR_Hat Finish.wav
64,192,20470,1,0,0:0:0:0:
192,192,20714,1,8,0:0:0:0:
448,192,20714,1,0,0:0:0:0:
64,192,20958,1,8,0:0:0:0:
320,192,20958,1,0,0:0:0:40:LR2_Chm_SSLE.wav
64,192,21446,1,2,0:0:0:0:
192,192,21446,1,4,0:0:0:0:
448,192,21446,1,0,0:0:0:0:
320,192,21690,1,0,0:0:0:0:
64,192,21933,1,2,0:0:0:0:
192,192,21933,1,0,0:0:0:0:
448,192,22177,1,0,0:0:0:0:
64,192,22421,1,2,0:0:0:0:
320,192,22421,1,0,0:0:0:0:
192,192,22665,1,0,0:0:0:0:
320,192,22909,1,2,0:0:0:0:
448,192,22909,1,0,0:0:0:0:
64,192,23397,1,2,0:0:0:0:
192,192,23397,1,0,0:0:0:0:
320,192,23641,1,0,0:0:0:0:
64,192,23885,1,2,0:0:0:0:
448,192,23885,1,0,0:0:0:0:
192,192,24129,1,0,0:0:0:0:
320,192,24373,1,2,0:0:0:0:
448,192,24373,1,0,0:0:0:0:
64,192,24616,1,0,0:0:0:0:
192,192,24860,1,2,0:0:0:0:
448,192,24860,1,0,0:0:0:0:
64,192,25104,128,8,25348:0:0:0:0:
320,192,25104,1,0,0:0:0:50:LR_Hat Finish.wav
192,192,25348,1,2,0:0:0:0:
448,192,25348,1,0,0:0:0:0:
64,192,25592,1,0,0:0:0:0:
320,192,25836,1,2,0:0:0:0:
448,192,25836,1,0,0:0:0:0:
192,192,26080,1,0,0:0:0:0:
64,192,26324,1,2,0:0:0:0:
448,192,26324,1,0,0:0:0:0:
320,192,26568,1,0,0:0:0:0:
64,192,26812,1,2,0:0:0:0:
192,192,26812,1,0,0:0:0:0:
320,192,27299,1,2,0:0:0:0:
448,192,27299,1,0,0:0:0:0:
192,192,27543,1,0,0:0:0:0:
64,192,27787,1,2,0:0:0:0:
448,192,27787,1,0,0:0:0:0:
320,192,28031,1,0,0:0:0:0:
64,192,28275,1,2,0:0:0:0:
192,192,28275,1,0,0:0:0:0:
320,192,28519,1,8,0:0:0:0:
448,192,28519,128,0,28763:0:0:0:50:LR_Hat Finish.wav
64,192,28763,1,2,0:0:0:0:
192,192,28763,1,0,0:0:0:0:
320,192,29007,1,8,0:0:0:0:
448,192,29007,128,0,29251:0:0:0:50:LR_Hat Finish.wav
64,192,29251,1,2,0:0:0:0:
192,192,29251,1,0,0:0:0:0:
448,192,29494,1,0,0:0:0:0:
64,192,29738,1,4,0:0:0:0:
192,192,29738,1,8,0:0:0:0:
320,192,29738,1,2,0:0:0:0:
448,192,29982,1,0,0:0:0:0:
64,192,30226,1,2,0:0:0:0:
320,192,30226,1,0,0:0:0:0:
192,192,30470,1,0,0:0:0:0:
320,192,30714,1,2,0:0:0:0:
448,192,30714,1,0,0:0:0:0:
64,192,31202,1,2,0:0:0:0:
192,192,31202,1,0,0:0:0:0:
320,192,31446,1,0,0:0:0:0:
64,192,31690,1,2,0:0:0:0:
448,192,31690,1,0,0:0:0:0:
192,192,31933,1,0,0:0:0:0:
320,192,32177,1,2,0:0:0:0:
448,192,32177,1,0,0:0:0:0:
64,192,32421,1,0,0:0:0:0:
192,192,32665,1,2,0:0:0:0:
448,192,32665,1,0,0:0:0:0:
64,192,32909,128,8,33153:0:0:0:0:
320,192,32909,1,0,0:0:0:50:LR_Hat Finish.wav
192,192,33153,1,2,0:0:0:0:
448,192,33153,1,0,0:0:0:0:
64,192,33397,1,0,0:0:0:0:
320,192,33641,1,2,0:0:0:0:
448,192,33641,1,0,0:0:0:0:
192,192,33885,1,0,0:0:0:0:
64,192,34129,1,2,0:0:0:0:
320,192,34129,1,0,0:0:0:0:
448,192,34373,1,0,0:0:0:0:
64,192,34616,1,2,0:0:0:0:
192,192,34616,1,0,0:0:0:0:
320,192,35104,1,2,0:0:0:0:
448,192,35104,1,0,0:0:0:0:
64,192,35348,1,0,0:0:0:0:
192,192,35592,1,8,0:0:0:0:
448,192,35592,1,0,0:0:0:70:LR_Tom 2.wav
64,192,36080,1,8,0:0:0:0:
192,192,36202,1,8,0:0:0:0:
320,192,36324,128,0,36568:0:0:0:50:LR_Hat Finish.wav
64,192,36568,1,8,0:0:0:0:
192,192,36568,1,0,0:0:0:0:
448,192,36812,128,0,37055:0:0:0:50:LR_Hat Finish.wav
64,192,37055,1,4,0:0:0:0:
320,192,37055,1,2,0:0:0:0:
192,192,37299,1,0,0:0:0:0:
320,192,37543,1,2,0:0:0:0:
448,192,37543,1,0,0:0:0:0:
64,192,37787,1,0,0:0:0:0:
320,192,38031,1,2,0:0:0:0:
448,192,38031,1,0,0:0:0:0:
192,192,38275,1,0,0:0:0:0:
64,192,38519,1,8,0:0:0:0:
448,192,38519,1,2,0:0:0:0:
320,192,38763,1,0,0:0:0:0:
64,192,39007,1,2,0:0:0:0:
192,192,39007,1,0,0:0:0:0:
448,192,39251,1,0,0:0:0:0:
64,192,39494,1,2,0:0:0:0:
192,192,39494,1,0,0:0:0:0:
320,192,39738,1,0,0:0:0:0:
64,192,39982,1,2,0:0:0:0:
448,192,39982,1,0,0:0:0:0:
192,192,40226,1,8,0:0:0:0:
320,192,40226,128,0,40470:0:0:0:50:LR_Hat Finish.wav
64,192,40470,1,2,0:0:0:0:
448,192,40470,1,0,0:0:0:0:
192,192,40714,1,8,0:0:0:0:
320,192,40714,128,0,40958:0:0:0:50:LR_Hat Finish.wav
64,192,40958,1,2,0:0:0:0:
448,192,40958,1,0,0:0:0:0:
192,192,41202,1,0,0:0:0:0:
320,192,41446,1,2,0:0:0:0:
448,192,41446,1,0,0:0:0:0:
64,192,41690,1,0,0:0:0:0:
320,192,41933,1,2,0:0:0:0:
448,192,41933,1,0,0:0:0:0:
192,192,42177,1,0,0:0:0:0:
64,192,42421,1,8,0:0:0:0:
448,192,42421,1,2,0:0:0:0:
320,192,42665,1,0,0:0:0:0:
64,192,42909,1,2,0:0:0:0:
192,192,42909,1,0,0:0:0:0:
320,192,43153,128,0,43397:0:0:0:50:LR_Hat Finish.wav
64,192,43397,1,8,0:0:0:0:
192,192,43397,1,2,0:0:0:0:
448,192,43397,1,4,0:0:0:0:
448,192,43885,1,8,0:0:0:0:
320,192,44007,1,8,0:0:0:0:
192,192,44129,1,0,0:0:0:30:LR_Tom 1.wav
64,192,44373,1,8,0:0:0:0:
448,192,44373,1,2,0:0:0:0:
320,192,44616,1,0,0:0:0:70:LR_Tom 2.wav
192,192,44738,1,0,0:0:0:70:LR_Tom 2.wav
64,192,44860,128,4,46568:0:0:0:0:
448,192,44860,1,2,0:0:0:0:
320,192,45348,1,8,0:0:0:0:
448,192,45348,1,2,0:0:0:0:
192,192,45836,1,2,0:0:0:0:
320,192,46080,1,0,0:0:0:30:LR_Tom 1.wav
448,192,46324,1,2,0:0:0:0:
192,192,46568,1,8,0:0:0:0:
320,192,46568,1,0,0:0:0:0:
64,192,46812,1,2,0:0:0:0:
448,192,46812,128,0,48519:0:0:0:0:
64,192,47299,1,2,0:0:0:0:
192,192,47299,1,8,0:0:0:0:
320,192,47787,1,2,0:0:0:0:
64,192,48031,1,0,0:0:0:70:LR_Tom 2.wav
192,192,48275,1,2,0:0:0:0:
64,192,48519,1,8,0:0:0:0:
320,192,48519,1,0,0:0:0:0:
192,192,48763,128,2,50470:0:0:0:0:
448,192,48763,1,0,0:0:0:0:
64,192,49251,1,8,0:0:0:0:
320,192,49251,1,2,0:0:0:0:
448,192,49738,1,2,0:0:0:0:
64,192,49982,1,0,0:0:0:30:LR_Tom 1.wav
320,192,50226,1,2,0:0:0:0:
64,192,50470,1,8,0:0:0:0:
448,192,50470,1,0,0:0:0:0:
192,192,50714,1,2,0:0:0:0:
320,192,50714,128,0,51446:0:0:0:0:
192,192,51202,1,2,0:0:0:0:
448,192,51202,1,8,0:0:0:0:
64,192,51446,1,0,0:0:0:0:
192,192,51690,128,2,52421:0:0:0:0:
448,192,51690,1,0,0:0:0:0:
64,192,51812,1,0,0:0:0:30:LR_Tom 1.wav
320,192,51933,1,0,0:0:0:70:LR_Tom 2.wav
64,192,52177,1,8,0:0:0:0:
448,192,52177,1,2,0:0:0:0:
320,192,52421,1,0,0:0:0:70:LR_Tom 2.wav
64,192,52665,128,2,54373:0:0:0:0:
192,192,52665,1,4,0:0:0:0:
448,192,52665,1,0,0:0:0:0:
320,192,53153,1,8,0:0:0:0:
448,192,53153,1,2,0:0:0:0:
448,192,53641,1,2,0:0:0:0:
192,192,53885,1,0,0:0:0:30:LR_Tom 1.wav
448,192,54129,1,2,0:0:0:0:
192,192,54373,1,8,0:0:0:0:
320,192,54373,1,0,0:0:0:0:
64,192,54616,1,2,0:0:0:0:
448,192,54616,128,0,56324:0:0:0:0:
192,192,55104,1,2,0:0:0:0:
320,192,55104,1,8,0:0:0:0:
64,192,55592,1,2,0:0:0:0:
192,192,55714,1,0,0:0:0:30:LR_Tom 1.wav
320,192,55836,1,0,0:0:0:70:LR_Tom 2.wav
64,192,56080,1,10,0:0:0:0:
192,192,56080,1,4,0:0:0:0:
320,192,56324,1,0,0:0:0:0:
64,192,56568,1,4,0:0:0:0:
192,192,56568,1,8,0:0:0:0:
448,192,56568,1,0,0:0:0:0:
192,192,56812,1,2,0:0:0:0:
320,192,56812,1,0,0:0:0:0:
320,192,57055,1,2,0:0:0:0:
448,192,57055,1,0,0:0:0:0:
64,192,57299,1,8,0:0:0:0:
192,192,57299,1,4,0:0:0:0:
448,192,57299,1,0,0:0:0:0:
192,192,57543,1,2,0:0:0:0:
320,192,57543,1,0,0:0:0:0:
64,192,57787,1,8,0:0:0:0:
448,192,57787,1,0,0:0:0:0:
64,192,58031,1,8,0:0:0:0:
320,192,58031,1,4,0:0:0:0:
448,192,58031,1,0,0:0:0:0:
64,192,58519,1,8,0:0:0:0:
448,192,58519,128,0,58763:0:0:0:0:
192,192,58763,128,2,59007:0:0:0:0:
320,192,58763,1,0,0:0:0:0:
64,192,59007,1,2,0:0:0:0:
448,192,59007,128,0,59251:0:0:0:0:
192,192,59251,1,8,0:0:0:0:
320,192,59251,128,0,59494:0:0:0:50:LR_Hat Finish.wav
192,192,59494,1,0,0:0:0:0:
64,192,59738,1,0,0:0:0:0:
320,192,59982,1,0,0:0:0:0:
192,192,60226,1,0,0:0:0:0:
64,192,60470,128,4,62177:0:0:0:0:
320,192,60470,1,2,0:0:0:0:
448,192,60470,1,0,0:0:0:0:
192,192,60958,1,10,0:0:0:0:
448,192,60958,1,0,0:0:0:60:LR_Hat Finish.wav
448,192,61202,128,0,61690:0:0:0:0:
192,192,61446,1,2,0:0:0:0:
320,192,61690,1,0,0:0:0:0:
192,192,61933,1,10,0:0:0:0:
448,192,61933,1,0,0:0:0:60:LR_Hat Finish.wav
320,192,62177,1,0,0:0:0:0:
64,192,62421,1,2,0:0:0:0:
448,192,62421,128,0,64129:0:0:0:60:LR_Hat Finish.wav
192,192,62665,1,0,0:0:0:0:
64,192,62909,1,10,0:0:0:0:
320,192,62909,1,0,0:0:0:60:LR_Hat Finish.wav
192,192,63153,1,0,0:0:0:0:
320,192,63397,1,2,0:0:0:0:
64,192,63641,1,0,0:0:0:0:
192,192,63885,1,10,0:0:0:0:
320,192,63885,1,0,0:0:0:60:LR_Hat Finish.wav
64,192,64129,1,0,0:0:0:0:
192,192,64373,128,2,66080:0:0:0:0:
448,192,64373,1,0,0:0:0:60:LR_Hat Finish.wav
64,192,64860,1,10,0:0:0:0:
320,192,64860,1,0,0:0:0:60:LR_Hat Finish.wav
320,192,65104,128,0,65592:0:0:0:0:
448,192,65348,1,2,0:0:0:0:
64,192,65592,1,0,0:0:0:0:
320,192,65836,1,10,0:0:0:0:
448,192,65836,1,0,0:0:0:60:LR_Hat Finish.wav
64,192,66080,1,0,0:0:0:0:
192,192,66324,1,2,0:0:0:0:
448,192,66324,1,0,0:0:0:0:
64,192,66568,1,8,0:0:0:0:
320,192,66568,1,0,0:0:0:60:LR_Hat Finish.wav
64,192,66812,1,8,0:0:0:0:
320,192,66812,1,2,0:0:0:0:
448,192,66812,1,4,0:0:0:0:
192,192,67055,1,0,0:0:0:0:
448,192,67299,1,2,0:0:0:0:
64,192,67421,1,8,0:0:0:0:
320,192,67543,1,0,0:0:0:60:LR_Hat Finish.wav
64,192,67787,1,8,0:0:0:0:
448,192,67787,1,2,0:0:0:0:
320,192,68031,1,0,0:0:0:30:LR_Tom 1.wav
192,192,68153,1,0,0:0:0:30:LR_Tom 1.wav
64,192,68275,1,2,0:0:0:0:
320,192,68275,128,4,69982:0:0:0:0:
448,192,68275,1,0,0:0:0:0:
192,192,68519,1,0,0:0:0:0:
64,192,68763,1,10,0:0:0:0:
448,192,68763,1,0,0:0:0:60:LR_Hat Finish.wav
192,192,69007,1,0,0:0:0:0:
448,192,69251,1,2,0:0:0:0:
192,192,69494,1,0,0:0:0:0:
64,192,69738,1,10,0:0:0:0:
448,192,69738,1,0,0:0:0:60:LR_Hat Finish.wav
192,192,69982,1,0,0:0:0:0:
192,192,70226,1,2,0:0:0:0:
448,192,70226,128,0,71690:0:0:0:60:LR_Hat Finish.wav
64,192,70714,1,10,0:0:0:0:
320,192,70714,128,0,71202:0:0:0:60:LR_Hat Finish.wav
192,192,71202,128,2,71690:0:0:0:0:
64,192,71690,128,10,72177:0:0:0:0:
320,192,71690,1,0,0:0:0:60:LR_Hat Finish.wav
192,192,72177,128,2,73885:0:0:0:0:
448,192,72177,1,0,0:0:0:60:LR_Hat Finish.wav
320,192,72421,1,0,0:0:0:0:
64,192,72665,1,10,0:0:0:0:
448,192,72665,128,0,73153:0:0:0:60:LR_Hat Finish.wav
320,192,73153,1,2,0:0:0:0:
64,192,73641,1,10,0:0:0:0:
320,192,73885,1,8,0:0:0:0:
448,192,73885,1,4,0:0:0:0:
64,192,74129,1,2,0:0:0:0:
192,192,74129,1,0,0:0:0:0:
320,192,74373,1,8,0:0:0:0:
448,192,74373,1,0,0:0:0:0:
320,192,74616,1,10,0:0:0:0:
448,192,74616,1,4,0:0:0:0:
64,192,74860,1,0,0:0:0:0:
192,192,75104,1,10,0:0:0:0:
448,192,75226,1,8,0:0:0:0:
64,192,75348,1,0,0:0:0:30:LR_Tom 1.wav
320,192,75592,1,8,0:0:0:0:
448,192,75592,1,2,0:0:0:0:
192,192,75836,1,8,0:0:0:0:
320,192,75958,1,8,0:0:0:0:
64,192,76080,128,2,77787:0:0:0:0:
192,192,76080,1,4,0:0:0:0:
448,192,76080,1,0,0:0:0:0:
192,192,76568,1,10,0:0:0:0:
320,192,76568,1,0,0:0:0:60:LR_Hat Finish.wav
320,192,76812,128,0,77299:0:0:0:0:
448,192,77055,1,2,0:0:0:0:
192,192,77299,1,0,0:0:0:0:
320,192,77543,1,10,0:0:0:0:
448,192,77543,1,0,0:0:0:60:LR_Hat Finish.wav
192,192,77787,1,0,0:0:0:0:
64,192,78031,1,2,0:0:0:0:
448,192,78031,128,0,79738:0:0:0:60:LR_Hat Finish.wav
320,192,78275,1,0,0:0:0:0:
64,192,78519,1,10,0:0:0:0:
192,192,78519,1,0,0:0:0:60:LR_Hat Finish.wav
320,192,78763,1,0,0:0:0:0:
192,192,79007,1,2,0:0:0:0:
64,192,79251,1,0,0:0:0:0:
192,192,79494,1,10,0:0:0:0:
320,192,79494,1,0,0:0:0:60:LR_Hat Finish.wav
64,192,79738,1,0,0:0:0:0:
320,192,79982,128,2,80714:0:0:0:0:
448,192,79982,1,0,0:0:0:60:LR_Hat Finish.wav
64,192,80470,1,10,0:0:0:0:
448,192,80470,1,4,0:0:0:0:
192,192,80714,1,0,0:0:0:0:
192,192,80958,128,2,81690:0:0:0:0:
448,192,80958,1,0,0:0:0:60:LR_Hat Finish.wav
320,192,81202,1,0,0:0:0:0:
64,192,81446,1,10,0:0:0:0:
448,192,81446,1,4,0:0:0:0:
320,192,81690,1,0,0:0:0:0:
64,192,81933,128,2,82665:0:0:0:0:
192,192,81933,1,0,0:0:0:60:LR_Hat Finish.wav
320,192,82177,1,8,0:0:0:0:
448,192,82177,1,0,0:0:0:0:
192,192,82421,1,8,0:0:0:0:
448,192,82421,1,4,0:0:0:0:
320,192,82665,1,0,0:0:0:0:
320,192,82909,1,2,0:0:0:0:
448,192,82909,128,0,83397:0:0:0:60:LR_Hat Finish.wav
64,192,83153,1,8,0:0:0:0:
192,192,83153,1,0,0:0:0:0:
64,192,83397,1,4,0:0:0:0:
320,192,83397,1,8,0:0:0:0:
192,192,83641,1,2,0:0:0:0:
320,192,83641,1,0,0:0:0:0:
64,192,83885,1,8,0:0:0:0:
192,192,83885,1,2,0:0:0:0:
448,192,83885,1,4,0:0:0:0:
64,192,84373,1,2,0:0:0:0:
192,192,84373,1,0,0:0:0:0:
192,192,84616,1,8,0:0:0:0:
320,192,84616,1,0,0:0:0:0:
320,192,84860,1,8,0:0:0:0:
448,192,84860,1,0,0:0:0:0:
64,192,85104,1,8,0:0:0:0:
192,192,85104,1,0,0:0:0:0:
320,192,85348,1,2,0:0:0:0:
448,192,85348,1,8,0:0:0:0:
320,192,85592,1,8,0:0:0:0:
448,192,85592,1,2,0:0:0:0:
64,192,85836,128,4,86812:0:0:0:0:
192,192,85836,1,2,0:0:0:0:
448,192,85836,1,0,0:0:0:0:
320,192,86324,1,0,0:0:0:30:LR_Cymbal_Short.wav
192,192,86812,1,2,0:0:0:0:
448,192,86812,1,0,0:0:0:0:
64,192,87055,1,8,0:0:0:0:
320,192,87055,1,0,0:0:0:0:
64,192,87299,1,8,0:0:0:0:
320,192,87299,1,0,0:0:0:40:LR2_Chm_SSLE.wav
192,192,87543,1,4,0:0:0:0:
320,192,87543,1,2,0:0:0:0:
448,192,87543,128,0,90226:0:0:0:0:
