osu file format v14

[General]
AudioFilename: audio.mp3
AudioLeadIn: 0
PreviewTime: 0
Countdown: 0
SampleSet: None
StackLeniency: 0.4
Mode: 0
LetterboxInBreaks: 0
WidescreenStoryboard: 1

[Editor]
DistanceSpacing: 1
BeatDivisor: 4
GridSize: 8
TimelineZoom: 2.76

[Metadata]
Title:megalovania in the 90s
TitleUnicode:megalovania in the 90s
Artist:flufffierbuns
ArtistUnicode:flufffierbuns
Creator:kkk
Version:sneakers
Source:Soundcloud
Tags:mashup initial d undertale
BeatmapID:1699265
BeatmapSetID:809546

[Difficulty]
HPDrainRate:6
CircleSize:4
OverallDifficulty:8
ApproachRate:9.5
SliderMultiplier:1.8
SliderTickRate:1

[Events]
//Background and Video events
0,0,"oh god why.jpg",0,0
//Break Periods
//Storyboard Layer 0 (Background)
//Storyboard Layer 1 (Fail)
//Storyboard Layer 2 (Pass)
//Storyboard Layer 3 (Foreground)
//Storyboard Sound Samples

[TimingPoints]
1667.32150141218,206.896551724138,4,3,0,75,1,0
8081,-66.6666666666667,4,3,0,75,0,0
8288,-100,4,3,0,75,0,0
10253,-92.5925925925926,4,3,0,75,0,0
12425,-80,4,3,0,75,0,0

[HitObjects]
440,112,12,5,0,0:0:0:0:
312,56,219,1,0,0:0:0:0:
176,56,425,1,0,0:0:0:0:
56,128,632,1,0,0:0:0:0:
97,204,839,5,0,0:0:0:0:
216,136,1046,1,0,0:0:0:0:
360,136,1253,1,0,0:0:0:0:
496,184,1460,5,8,0:0:0:0:
496,184,1563,1,8,0:0:0:0:
496,184,1667,2,0,L|432:247,1,90,8|0,0:0|0:0,0:0:0:0:
280,168,1874,1,4,0:0:0:0:
336,240,1977,1,0,0:0:0:0:
279,311,2081,2,0,P|237:298|206:266,2,90,8|0|4,0:0|0:0|0:0,0:0:0:0:
72,88,2494,6,0,L|158:64,1,90,8|0,0:0|0:0,0:0:0:0:
304,96,2701,2,0,L|218:119,1,90,4|0,0:0|0:0,0:0:0:0:
288,23,2908,2,0,P|332:29|368:55,1,90,8|0,0:0|0:0,0:0:0:0:
256,192,3115,1,4,0:0:0:0:
488,200,3322,5,8,0:0:0:0:
432,256,3425,1,0,0:0:0:0:
352,232,3529,1,4,0:0:0:0:
296,288,3632,2,0,L|206:288,1,90,0|8,0:0|0:0,0:0:0:0:
64,144,3839,2,0,P|90:179|130:198,1,90,0|4,0:0|0:0,0:0:0:0:
400,176,4150,5,8,0:0:0:0:
400,176,4253,1,0,0:0:0:0:
400,176,4356,1,4,0:0:0:0:
400,176,4460,2,0,B|328:176|328:176|313:165,1,90,0|8,0:0|0:0,0:0:0:0:
176,56,4667,1,0,0:0:0:0:
136,128,4770,1,4,0:0:0:0:
152,320,4977,5,8,0:0:0:0:
184,232,5081,1,0,0:0:0:0:
216,143,5184,2,0,P|213:99|185:65,1,90,4|0,0:0|0:0,0:0:0:0:
40,24,5391,2,0,L|74:107,2,90,8|0|4,0:0|0:0|0:0,0:0:0:0:
80,272,5805,6,0,B|96:224|96:224|134:216,1,90,8|0,0:0|0:0,0:0:0:0:
200,120,6012,2,0,B|248:136|248:136|256:174,1,90,4|0,0:0|0:0,0:0:0:0:
296,296,6219,2,0,B|246:300|246:300|222:267,1,90,8|0,0:0|0:0,0:0:0:0:
152,152,6425,1,4,0:0:0:0:
416,216,6632,5,8,0:0:0:0:
496,168,6736,2,0,L|422:116,1,90,0|4,0:0|0:0,0:0:0:0:
240,96,6943,1,0,0:0:0:0:
192,16,7047,2,0,L|140:89,1,90,8|0,0:0|0:0,0:0:0:0:
40,240,7253,1,4,0:0:0:0:
40,240,7460,6,0,P|54:281|93:303,1,90,4|0,0:0|0:0,0:0:0:0:
312,160,7667,1,4,0:0:0:0:
313,159,7770,2,0,P|351:180|366:221,1,90,4|0,0:0|0:0,0:0:0:0:
216,328,7977,1,4,0:0:0:0:
213,324,8081,2,0,B|185:282|232:232|186:198,1,135.000005149842,4|0,0:0|0:0,0:0:0:0:
304,80,8288,5,8,0:0:0:0:
389,74,8391,1,0,0:0:0:0:
471,109,8494,1,4,0:0:0:0:
512,189,8598,1,0,0:0:0:0:
492,275,8701,1,8,0:0:0:0:
422,337,8805,2,0,L|312:296,1,90,0|4,0:0|0:0,0:0:0:0:
112,320,9115,6,0,B|104:272|104:272|136:240,1,90,8|0,0:0|0:0,0:0:0:0:
320,200,9322,2,0,L|210:159,1,90,4|0,0:0|0:0,0:0:0:0:
160,48,9529,2,0,B|121:63|121:63|110:110,1,90,8|0,0:0|0:0,0:0:0:0:
224,264,9736,1,4,0:0:0:0:
424,56,9943,5,8,0:0:0:0:
328,48,10046,1,0,0:0:0:0:
368,136,10150,1,4,0:0:0:0:
409,238,10253,2,0,L|306:231,1,97.2000023730469,0|8,0:0|0:0,0:0:0:0:
230,57,10460,2,0,L|221:177,1,97.2000023730469,0|4,0:0|0:0,0:0:0:0:
48,280,10770,5,8,0:0:0:0:
48,280,10874,1,0,0:0:0:0:
48,280,10977,1,4,0:0:0:0:
48,280,11081,2,0,P|104:312|168:304,1,97.2000023730469,0|8,0:0|0:0,0:0:0:0:
360,264,11288,1,0,0:0:0:0:
256,248,11391,1,4,0:0:0:0:
92,45,11598,5,8,0:0:0:0:
92,45,11701,1,0,0:0:0:0:
169,122,11805,1,4,0:0:0:0:
169,122,11908,1,0,0:0:0:0:
266,72,12012,1,8,0:0:0:0:
266,72,12115,1,0,0:0:0:0:
266,72,12219,2,0,B|320:80|320:80|384:56,1,97.2000023730469,4|0,0:0|0:0,0:0:0:0:
472,152,12425,6,0,P|440:192|360:184,1,112.5,8|0,0:0|0:0,0:0:0:0:
216,160,12632,2,0,P|170:146|112:168,1,112.5,4|0,0:0|0:0,0:0:0:0:
40,320,12839,2,0,L|160:336,1,112.5,8|0,0:0|0:0,0:0:0:0:
320,352,13046,1,4,0:0:0:0:
448,272,13253,5,0,0:0:0:0:
352,72,13460,1,0,0:0:0:0:
352,72,13667,1,0,0:0:0:0:
216,248,13874,1,0,0:0:0:0:
216,248,14081,5,4,0:0:0:0:
136,40,14288,1,4,0:0:0:0:
184,80,14391,1,4,0:0:0:0:
64,272,14598,1,4,0:0:0:0:
128,264,14701,1,4,0:0:0:0:
