osu file format v14

[General]
AudioFilename: audio.mp3
AudioLeadIn: 0
PreviewTime: 0
Countdown: 0
SampleSet: Soft
StackLeniency: 0.4
Mode: 0
LetterboxInBreaks: 0
WidescreenStoryboard: 0

[Editor]
DistanceSpacing: 0.7
BeatDivisor: 4
GridSize: 8
TimelineZoom: 2.76

[Metadata]
Title:megalovania in the 90s
TitleUnicode:megalovania in the 90s
Artist:flufffierbuns
ArtistUnicode:flufffierbuns
Creator:kkk
Version:Gas
Source:Soundcloud
Tags:mashup initial d undertale
BeatmapID:1698765
BeatmapSetID:809546

[Difficulty]
HPDrainRate:5
CircleSize:4
OverallDifficulty:9
ApproachRate:10
SliderMultiplier:1.5
SliderTickRate:1

[Events]
//Background and Video events
0,0,"oh god why.jpg",0,0
//Break Periods
//Storyboard Layer 0 (Background)
//Storyboard Layer 1 (Fail)
//Storyboard Layer 2 (Pass)
//Storyboard Layer 3 (Foreground)
//Storyboard Sound Samples

[TimingPoints]
1667.32150141218,206.896551724138,4,2,0,75,1,0
3632,-66.6666666666667,4,2,0,75,0,0
3736,-100,4,2,0,75,0,0
4460,-66.6666666666667,4,2,0,75,0,0
4563,-100,4,2,0,75,0,0
10253,-66.6666666666667,4,2,0,75,0,0
10460,-100,4,2,0,75,0,0
11081,-66.6666666666667,4,2,0,75,0,0
11288,-100,4,2,0,75,0,0
13253,-200,4,2,0,75,0,0

[Colours]
Combo1 : 0,116,166
Combo2 : 176,98,255

[HitObjects]
26,173,12,6,0,P|60:189|113:183,1,75
143,240,219,2,0,P|111:259|74:261,1,75
161,314,425,2,0,P|193:291|213:243,1,75
264,315,632,2,0,P|280:280|274:228,1,75
241,86,839,2,0,P|280:88|322:120,1,75
377,85,1045,2,0,P|358:53|328:33,1,75
431,32,1252,2,0,P|447:66|441:118,1,75
401,281,1460,1,0,0:0:0:0:
401,281,1512,1,0,0:0:0:0:
401,281,1563,1,0,0:0:0:0:
401,281,1615,1,0,0:0:0:0:
401,281,1667,6,0,L|307:261,1,75,4|0,0:0|0:0,0:0:0:0:
150,158,1874,1,8,0:0:0:0:
244,326,1977,1,0,0:0:0:0:
302,73,2081,2,0,P|303:118|279:175,1,75
130,291,2288,1,8,0:0:0:0:
27,173,2391,1,0,0:0:0:0:
27,173,2443,1,0,0:0:0:0:
27,173,2494,6,0,P|72:180|129:167,1,75
290,123,2701,1,8,0:0:0:0:
101,30,2805,1,0,0:0:0:0:
183,244,2908,2,0,P|180:179|206:145,1,75
276,11,3115,1,8,0:0:0:0:
438,98,3219,1,0,0:0:0:0:
438,98,3270,1,0,0:0:0:0:
438,98,3322,6,0,P|482:93|512:74,2,75,0|0|8,0:0|0:0|0:0,0:0:0:0:
291,71,3632,2,0,P|265:148|297:204,1,112.500004291535
349,342,3839,1,0,0:0:0:0:
385,176,3943,1,8,0:0:0:0:
223,240,4046,1,0,0:0:0:0:
223,240,4097,1,0,0:0:0:0:
223,240,4149,6,0,P|179:239|142:219,2,75,0|0|8,0:0|0:0|0:0,0:0:0:0:
349,342,4460,2,0,P|347:264|319:210,1,112.500004291535
223,111,4667,1,0,0:0:0:0:
191,278,4770,1,8,0:0:0:0:
45,166,4874,1,0,0:0:0:0:
45,166,4925,1,0,0:0:0:0:
45,166,4977,6,0,P|95:167|136:192,1,75
251,295,5184,1,8,0:0:0:0:
104,279,5288,1,0,0:0:0:0:
260,309,5391,1,0,0:0:0:0:
94,264,5495,1,0,0:0:0:0:
263,328,5598,1,8,0:0:0:0:
190,202,5701,1,0,0:0:0:0:
190,202,5752,1,0,0:0:0:0:
190,202,5804,6,0,P|200:153|232:117,1,75
355,24,6011,1,8,0:0:0:0:
312,165,6115,1,0,0:0:0:0:
371,18,6218,1,0,0:0:0:0:
295,172,6322,1,0,0:0:0:0:
390,18,6425,1,8,0:0:0:0:
468,139,6529,1,0,0:0:0:0:
468,139,6581,1,0,0:0:0:0:
468,139,6632,6,0,L|460:210,1,37.5
454,261,6736,2,0,P|379:234|334:259,1,112.5
270,333,6943,2,0,L|232:270,1,37.5
204,242,7046,2,0,P|129:269|54:215,1,150,0|8,0:0|0:0,0:0:0:0:
71,76,7356,1,0,0:0:0:0:
71,76,7460,5,8,0:0:0:0:
108,299,7563,1,0,0:0:0:0:
322,76,7667,1,8,0:0:0:0:
285,299,7770,1,8,0:0:0:0:
84,87,7874,5,0,0:0:0:0:
308,87,7977,1,8,0:0:0:0:
117,287,8081,1,8,0:0:0:0:
275,287,8184,1,0,0:0:0:0:
429,203,8288,6,0,P|389:218|326:208,1,75,4|0,0:0|0:0,0:0:0:0:
238,121,8494,1,8,0:0:0:0:
299,312,8598,1,0,0:0:0:0:
376,81,8701,2,0,P|352:119|306:146,1,75
165,207,8908,1,8,0:0:0:0:
39,110,9012,1,0,0:0:0:0:
39,110,9063,1,0,0:0:0:0:
39,110,9115,6,0,P|92:102|133:114,1,75
204,255,9322,1,8,0:0:0:0:
185,38,9425,1,0,0:0:0:0:
59,229,9529,2,0,P|104:216|138:223,1,75
261,312,9736,1,8,0:0:0:0:
350,173,9839,1,0,0:0:0:0:
350,173,9891,1,0,0:0:0:0:
350,173,9943,6,0,P|343:115|348:97,2,75,0|0|8,0:0|0:0|0:0,0:0:0:0:
450,246,10253,2,0,P|350:296|253:243,1,225.000008583069
196,31,10563,1,8,0:0:0:0:
96,147,10667,1,0,0:0:0:0:
96,147,10719,1,0,0:0:0:0:
96,147,10771,6,0,P|38:154|20:149,2,75,0|0|8,0:0|0:0|0:0,0:0:0:0:
204,52,11081,2,0,P|236:141|186:258,1,225.000008583069
29,325,11391,1,8,0:0:0:0:
1,222,11494,1,0,0:0:0:0:
1,222,11546,1,0,0:0:0:0:
1,222,11598,6,0,P|53:236|75:233,1,75
178,77,11805,1,8,0:0:0:0:
163,252,11908,1,0,0:0:0:0:
278,120,12012,1,0,0:0:0:0:
107,161,12115,1,0,0:0:0:0:
268,229,12219,1,8,0:0:0:0:
464,177,12322,1,0,0:0:0:0:
464,177,12374,1,0,0:0:0:0:
464,177,12426,6,0,P|412:163|390:166,1,75
287,322,12633,1,8,0:0:0:0:
302,147,12736,1,0,0:0:0:0:
187,279,12840,1,0,0:0:0:0:
358,238,12943,1,0,0:0:0:0:
197,170,13046,2,0,P|145:183|125:207,1,75,8|0,0:0|0:0,0:0:0:0:
31,216,13253,6,0,P|32:181|40:163,1,37.5
64,75,13460,2,0,P|53:90|46:107,1,37.5
144,69,13667,2,0,P|179:68|197:60,1,37.5
252,53,13874,2,0,P|282:35|294:20,1,37.5
366,47,14081,6,0,P|411:57|437:79,1,75
387,265,14391,1,8,0:0:0:0:
387,265,14598,5,8,0:0:0:0:
377,353,14701,2,0,L|374:373,3,18.75,8|0|0|0,0:0|0:0|0:0|0:0,0:0:0:0:
