osu file format v14

[General]
AudioFilename: audio.mp3
AudioLeadIn: 0
PreviewTime: 15687
Countdown: 0
SampleSet: Normal
StackLeniency: 0.7
Mode: 3
LetterboxInBreaks: 0
SpecialStyle: 0
WidescreenStoryboard: 0

[Editor]
DistanceSpacing: 1.2
BeatDivisor: 4
GridSize: 4
TimelineZoom: 1

[Metadata]
Title:The Lonely Tower
TitleUnicode:The Lonely Tower
Artist:flashygoodness
ArtistUnicode:flashygoodness
Creator:Zwhykoler
Version:4K Pinnacle
Source:Tower of Heaven
Tags:original ost electronic 天国の塔 instrumental video game tengoku no tou soundtrack chiptune hugged
BeatmapID:3887506
BeatmapSetID:1887783

[Difficulty]
HPDrainRate:7
CircleSize:4
OverallDifficulty:7
ApproachRate:5
SliderMultiplier:1.4
SliderTickRate:1

[Events]
//Background and Video events
0,0,"Cd9YUCmUkAANGRB.jpg",0,0
//Break Periods
//Storyboard Layer 0 (Background)
//Storyboard Layer 1 (Fail)
//Storyboard Layer 2 (Pass)
//Storyboard Layer 3 (Foreground)
//Storyboard Layer 4 (Overlay)
//Storyboard Sound Samples

[TimingPoints]
35,521.739130434783,4,1,1,100,1,0

[HitObjects]
448,192,35,128,0,295:0:0:0:0:
320,192,295,128,0,556:0:0:0:0:
192,192,556,128,0,817:0:0:0:0:
64,192,817,128,0,1339:0:0:0:0:
320,192,1339,128,0,1600:0:0:0:0:
448,192,1600,128,0,2382:0:0:0:0:
64,192,2121,128,0,2382:0:0:0:0:
192,192,2382,128,0,2643:0:0:0:0:
320,192,2643,128,0,2904:0:0:0:0:
448,192,2904,128,0,3426:0:0:0:0:
320,192,3426,128,0,3687:0:0:0:0:
192,192,3687,128,0,3948:0:0:0:0:
64,192,3948,128,0,4208:0:0:0:0:
320,192,4208,128,0,4991:0:0:0:0:
448,192,4208,128,0,4600:0:0:0:0:
192,192,4991,128,0,5774:0:0:0:0:
64,192,5774,128,0,7861:0:0:0:0:
448,192,6295,128,0,7861:0:0:0:0:
192,192,7861,1,0,0:0:0:0:
320,192,7991,1,0,0:0:0:0:
448,192,8121,1,0,0:0:0:0:
192,192,8252,1,0,0:0:0:0:
64,192,8382,1,0,0:0:0:0:
448,192,8382,128,0,9165:0:0:0:0:
320,192,8513,1,0,0:0:0:0:
192,192,8643,1,0,0:0:0:0:
64,192,8774,1,0,0:0:0:0:
320,192,8904,1,0,0:0:0:0:
192,192,9035,1,0,0:0:0:0:
320,192,9165,128,0,9948:0:0:0:0:
64,192,9295,1,0,0:0:0:0:
192,192,9426,1,0,0:0:0:0:
448,192,9556,1,0,0:0:0:0:
64,192,9687,1,0,0:0:0:0:
448,192,9817,1,0,0:0:0:0:
192,192,9948,128,0,10469:0:0:0:0:
64,192,10078,1,0,0:0:0:0:
320,192,10208,1,0,0:0:0:0:
448,192,10339,1,0,0:0:0:0:
320,192,10469,128,0,10991:0:0:0:0:
64,192,10600,1,0,0:0:0:0:
448,192,10730,1,0,0:0:0:0:
192,192,10861,1,0,0:0:0:0:
448,192,10991,128,0,11252:0:0:0:0:
64,192,11121,1,0,0:0:0:0:
320,192,11252,128,0,11774:0:0:0:0:
192,192,11382,1,0,0:0:0:0:
64,192,11513,1,0,0:0:0:0:
448,192,11643,1,0,0:0:0:0:
192,192,11774,128,0,12295:0:0:0:0:
64,192,11904,1,0,0:0:0:0:
448,192,12035,1,0,0:0:0:0:
320,192,12165,1,0,0:0:0:0:
64,192,12295,128,0,12556:0:0:0:0:
448,192,12426,1,0,0:0:0:0:
192,192,12556,1,0,0:0:0:0:
320,192,12556,128,0,12948:0:0:0:0:
448,192,12948,128,0,13339:0:0:0:0:
64,192,13339,128,0,13600:0:0:0:0:
320,192,13600,128,0,13991:0:0:0:0:
192,192,13991,128,0,14382:0:0:0:0:
64,192,14382,128,0,14643:0:0:0:0:
320,192,14643,1,0,0:0:0:0:
448,192,14643,1,0,0:0:0:0:
192,192,14774,1,0,0:0:0:0:
448,192,14904,1,0,0:0:0:0:
320,192,15035,1,0,0:0:0:0:
192,192,15165,1,0,0:0:0:0:
448,192,15295,1,0,0:0:0:0:
64,192,15426,1,0,0:0:0:0:
320,192,15556,1,0,0:0:0:0:
192,192,15687,128,0,16730:0:0:0:0:
448,192,15817,1,0,0:0:0:0:
320,192,15948,1,0,0:0:0:0:
64,192,16078,1,0,0:0:0:0:
320,192,16208,1,0,0:0:0:0:
448,192,16339,1,0,0:0:0:0:
320,192,16469,1,0,0:0:0:0:
64,192,16600,1,0,0:0:0:0:
320,192,16730,128,0,17513:0:0:0:0:
448,192,16861,1,0,0:0:0:0:
192,192,16991,1,0,0:0:0:0:
64,192,17121,1,0,0:0:0:0:
448,192,17252,1,0,0:0:0:0:
64,192,17382,1,0,0:0:0:0:
448,192,17513,128,0,18817:0:0:0:0:
192,192,17643,1,0,0:0:0:0:
64,192,17774,1,0,0:0:0:0:
320,192,17904,1,0,0:0:0:0:
192,192,18035,1,0,0:0:0:0:
64,192,18165,1,0,0:0:0:0:
192,192,18295,1,0,0:0:0:0:
320,192,18426,1,0,0:0:0:0:
64,192,18556,1,0,0:0:0:0:
320,192,18687,1,0,0:0:0:0:
192,192,18817,128,0,19600:0:0:0:0:
64,192,18948,1,0,0:0:0:0:
320,192,19078,1,0,0:0:0:0:
448,192,19208,1,0,0:0:0:0:
64,192,19339,1,0,0:0:0:0:
320,192,19469,1,0,0:0:0:0:
64,192,19600,128,0,20252:0:0:0:0:
320,192,19730,1,0,0:0:0:0:
448,192,19861,1,0,0:0:0:0:
192,192,19991,1,0,0:0:0:0:
448,192,20121,1,0,0:0:0:0:
192,192,20252,1,0,0:0:0:0:
320,192,20317,1,0,0:0:0:0:
448,192,20382,128,0,20904:0:0:0:0:
192,192,20513,1,0,0:0:0:0:
64,192,20643,1,0,0:0:0:0:
192,192,20774,128,0,20904:0:0:0:0:
320,192,20904,128,0,22208:0:0:0:0:
64,192,21035,1,0,0:0:0:0:
192,192,21165,1,0,0:0:0:0:
448,192,21295,1,0,0:0:0:0:
192,192,21426,1,0,0:0:0:0:
64,192,21556,1,0,0:0:0:0:
192,192,21687,1,0,0:0:0:0:
448,192,21817,1,0,0:0:0:0:
192,192,21948,1,0,0:0:0:0:
64,192,22078,1,0,0:0:0:0:
192,192,22208,128,0,22730:0:0:0:0:
448,192,22339,1,0,0:0:0:0:
320,192,22469,1,0,0:0:0:0:
448,192,22600,1,0,0:0:0:0:
64,192,22730,128,0,22991:0:0:0:0:
320,192,22861,1,0,0:0:0:0:
192,192,22991,128,0,23252:0:0:0:0:
448,192,23121,1,0,0:0:0:0:
320,192,23252,128,0,23513:0:0:0:0:
448,192,23382,1,0,0:0:0:0:
192,192,23513,128,0,23774:0:0:0:0:
64,192,23643,1,0,0:0:0:0:
320,192,23774,128,0,25078:0:0:0:0:
448,192,23904,1,0,0:0:0:0:
64,192,24035,1,0,0:0:0:0:
192,192,24165,1,0,0:0:0:0:
64,192,24295,1,0,0:0:0:0:
448,192,24426,1,0,0:0:0:0:
192,192,24556,1,0,0:0:0:0:
448,192,24687,1,0,0:0:0:0:
64,192,24817,1,0,0:0:0:0:
448,192,24948,1,0,0:0:0:0:
192,192,25078,128,0,25861:0:0:0:0:
64,192,25208,1,0,0:0:0:0:
320,192,25339,1,0,0:0:0:0:
448,192,25469,1,0,0:0:0:0:
64,192,25600,1,0,0:0:0:0:
320,192,25730,1,0,0:0:0:0:
64,192,25861,128,0,26643:0:0:0:0:
448,192,25991,1,0,0:0:0:0:
320,192,26121,1,0,0:0:0:0:
192,192,26252,1,0,0:0:0:0:
320,192,26382,1,0,0:0:0:0:
448,192,26513,1,0,0:0:0:0:
320,192,26643,128,0,26904:0:0:0:0:
192,192,26774,1,0,0:0:0:0:
448,192,26904,128,0,27687:0:0:0:0:
64,192,27035,1,0,0:0:0:0:
192,192,27165,1,0,0:0:0:0:
320,192,27295,1,0,0:0:0:0:
192,192,27426,1,0,0:0:0:0:
64,192,27556,1,0,0:0:0:0:
192,192,27687,128,0,27948:0:0:0:0:
320,192,27817,1,0,0:0:0:0:
64,192,27948,128,0,28991:0:0:0:0:
448,192,28078,1,0,0:0:0:0:
192,192,28208,1,0,0:0:0:0:
448,192,28339,1,0,0:0:0:0:
192,192,28469,1,0,0:0:0:0:
448,192,28600,1,0,0:0:0:0:
320,192,28730,1,0,0:0:0:0:
192,192,28861,1,0,0:0:0:0:
448,192,28991,1,0,0:0:0:0:
192,192,29121,1,0,0:0:0:0:
448,192,29252,128,0,29904:0:0:0:0:
320,192,29382,1,0,0:0:0:0:
192,192,29513,1,0,0:0:0:0:
64,192,29643,1,0,0:0:0:0:
320,192,29774,1,0,0:0:0:0:
64,192,29904,1,0,0:0:0:0:
192,192,29969,1,0,0:0:0:0:
320,192,30035,128,0,31339:0:0:0:0:
64,192,30165,1,0,0:0:0:0:
448,192,30295,1,0,0:0:0:0:
192,192,30426,1,0,0:0:0:0:
64,192,30556,1,0,0:0:0:0:
192,192,30687,1,0,0:0:0:0:
448,192,30817,1,0,0:0:0:0:
192,192,30948,1,0,0:0:0:0:
64,192,31078,1,0,0:0:0:0:
448,192,31208,1,0,0:0:0:0:
192,192,31339,128,0,31991:0:0:0:0:
64,192,31469,1,0,0:0:0:0:
448,192,31600,1,0,0:0:0:0:
64,192,31730,1,0,0:0:0:0:
320,192,31861,1,0,0:0:0:0:
448,192,31991,1,0,0:0:0:0:
64,192,32056,1,0,0:0:0:0:
320,192,32121,128,0,32904:0:0:0:0:
448,192,32252,1,0,0:0:0:0:
64,192,32382,1,0,0:0:0:0:
192,192,32513,1,0,0:0:0:0:
64,192,32643,1,0,0:0:0:0:
448,192,32774,1,0,0:0:0:0:
192,192,32904,128,0,33426:0:0:0:0:
448,192,33035,1,0,0:0:0:0:
64,192,33165,1,0,0:0:0:0:
448,192,33295,1,0,0:0:0:0:
64,192,33426,128,0,37600:0:0:0:0:
320,192,33687,1,0,0:0:0:0:
448,192,33948,1,0,0:0:0:0:
320,192,33948,1,0,0:0:0:0:
192,192,34078,1,0,0:0:0:0:
192,192,34339,1,0,0:0:0:0:
192,192,34600,1,0,0:0:0:0:
320,192,34730,1,0,0:0:0:0:
448,192,34730,1,0,0:0:0:0:
192,192,34991,1,0,0:0:0:0:
448,192,35252,1,0,0:0:0:0:
320,192,35513,1,0,0:0:0:0:
448,192,35774,1,0,0:0:0:0:
448,192,36035,1,0,0:0:0:0:
192,192,36035,1,0,0:0:0:0:
320,192,36165,1,0,0:0:0:0:
320,192,36426,1,0,0:0:0:0:
320,192,36687,1,0,0:0:0:0:
192,192,36817,1,0,0:0:0:0:
448,192,36817,1,0,0:0:0:0:
320,192,37078,1,0,0:0:0:0:
192,192,37208,1,0,0:0:0:0:
448,192,37469,1,0,0:0:0:0:
320,192,37600,1,0,0:0:0:0:
448,192,37730,1,0,0:0:0:0:
192,192,37861,1,0,0:0:0:0:
64,192,37991,1,0,0:0:0:0:
320,192,38121,1,0,0:0:0:0:
448,192,38121,1,0,0:0:0:0:
192,192,38252,1,0,0:0:0:0:
448,192,38382,1,0,0:0:0:0:
320,192,38513,1,0,0:0:0:0:
64,192,38643,1,0,0:0:0:0:
192,192,38774,1,0,0:0:0:0:
448,192,38904,1,0,0:0:0:0:
320,192,38904,1,0,0:0:0:0:
64,192,39035,1,0,0:0:0:0:
192,192,39165,1,0,0:0:0:0:
320,192,39295,1,0,0:0:0:0:
64,192,39426,1,0,0:0:0:0:
192,192,39556,1,0,0:0:0:0:
448,192,39687,1,0,0:0:0:0:
320,192,39817,1,0,0:0:0:0:
64,192,39948,1,0,0:0:0:0:
448,192,40078,1,0,0:0:0:0:
320,192,40208,1,0,0:0:0:0:
192,192,40208,1,0,0:0:0:0:
64,192,40339,1,0,0:0:0:0:
448,192,40469,1,0,0:0:0:0:
320,192,40600,1,0,0:0:0:0:
64,192,40730,1,0,0:0:0:0:
192,192,40861,1,0,0:0:0:0:
448,192,40991,1,0,0:0:0:0:
320,192,40991,1,0,0:0:0:0:
64,192,41121,1,0,0:0:0:0:
192,192,41252,1,0,0:0:0:0:
320,192,41382,1,0,0:0:0:0:
64,192,41513,1,0,0:0:0:0:
192,192,41643,1,0,0:0:0:0:
320,192,41774,128,0,45948:0:0:0:0:
448,192,42035,1,0,0:0:0:0:
192,192,42295,1,0,0:0:0:0:
64,192,42295,1,0,0:0:0:0:
448,192,42426,1,0,0:0:0:0:
448,192,42687,1,0,0:0:0:0:
448,192,42948,1,0,0:0:0:0:
192,192,43078,1,0,0:0:0:0:
64,192,43078,1,0,0:0:0:0:
448,192,43339,1,0,0:0:0:0:
192,192,43600,1,0,0:0:0:0:
448,192,43861,1,0,0:0:0:0:
64,192,44121,1,0,0:0:0:0:
192,192,44382,1,0,0:0:0:0:
448,192,44382,1,0,0:0:0:0:
64,192,44513,1,0,0:0:0:0:
64,192,44774,1,0,0:0:0:0:
64,192,45035,1,0,0:0:0:0:
192,192,45165,1,0,0:0:0:0:
448,192,45165,1,0,0:0:0:0:
64,192,45426,1,0,0:0:0:0:
448,192,45556,1,0,0:0:0:0:
192,192,45817,1,0,0:0:0:0:
64,192,45948,1,0,0:0:0:0:
448,192,45948,1,0,0:0:0:0:
192,192,46078,1,0,0:0:0:0:
320,192,46208,1,0,0:0:0:0:
448,192,46339,1,0,0:0:0:0:
192,192,46469,1,0,0:0:0:0:
320,192,46600,1,0,0:0:0:0:
64,192,46730,1,0,0:0:0:0:
192,192,46861,1,0,0:0:0:0:
320,192,46991,1,0,0:0:0:0:
448,192,47121,1,0,0:0:0:0:
192,192,47252,1,0,0:0:0:0:
64,192,47382,1,0,0:0:0:0:
320,192,47513,1,0,0:0:0:0:
448,192,47643,1,0,0:0:0:0:
192,192,47774,1,0,0:0:0:0:
64,192,47904,1,0,0:0:0:0:
448,192,48035,128,0,50121:0:0:0:0:
320,192,48035,128,0,50121:0:0:0:0:
192,192,48035,1,0,0:0:0:0:
192,192,48426,1,0,0:0:0:0:
192,192,48817,1,0,0:0:0:0:
192,192,49208,1,0,0:0:0:0:
192,192,49600,1,0,0:0:0:0:
192,192,49991,1,0,0:0:0:0:
