osu file format v14

[General]
AudioFilename: audio.mp3
AudioLeadIn: 0
PreviewTime: 15687
Countdown: 0
SampleSet: Normal
StackLeniency: 0.7
Mode: 3
LetterboxInBreaks: 0
SpecialStyle: 0
WidescreenStoryboard: 1

[Editor]
DistanceSpacing: 1.2
BeatDivisor: 4
GridSize: 4
TimelineZoom: 2.6

[Metadata]
Title:The Lonely Tower
TitleUnicode:The Lonely Tower
Artist:flashygoodness
ArtistUnicode:flashygoodness
Creator:Zwhykoler
Version:4K Easy
Source:Tower of Heaven
Tags:original ost electronic 天国の塔 instrumental video game tengoku no tou soundtrack chiptune hugged
BeatmapID:3887504
BeatmapSetID:1887783

[Difficulty]
HPDrainRate:6
CircleSize:4
OverallDifficulty:6
ApproachRate:5
SliderMultiplier:1.4
SliderTickRate:1

[Events]
//Background and Video events
0,0,"Cd9YUCmUkAANGRB.jpg",0,0
//Break Periods
//Storyboard Layer 0 (Background)
//Storyboard Layer 1 (Fail)
//Storyboard Layer 2 (Pass)
//Storyboard Layer 3 (Foreground)
//Storyboard Layer 4 (Overlay)
//Storyboard Sound Samples

[TimingPoints]
35,521.739130434783,4,1,1,100,1,0

[HitObjects]
64,192,35,128,0,295:0:0:0:0:
192,192,295,128,0,556:0:0:0:0:
320,192,556,128,0,817:0:0:0:0:
448,192,817,128,0,1339:0:0:0:0:
64,192,1339,128,0,1600:0:0:0:0:
192,192,1600,128,0,2121:0:0:0:0:
64,192,2121,128,0,2382:0:0:0:0:
448,192,2382,128,0,2643:0:0:0:0:
320,192,2643,128,0,2904:0:0:0:0:
64,192,2904,128,0,3426:0:0:0:0:
192,192,3426,128,0,3687:0:0:0:0:
320,192,3687,128,0,3948:0:0:0:0:
192,192,3948,128,0,4208:0:0:0:0:
448,192,4208,128,0,4991:0:0:0:0:
192,192,4991,128,0,5774:0:0:0:0:
64,192,5774,128,0,6295:0:0:0:0:
448,192,6295,128,0,7861:0:0:0:0:
192,192,7861,1,0,0:0:0:0:
320,192,8121,1,0,0:0:0:0:
448,192,8382,128,0,9165:0:0:0:0:
192,192,9165,128,0,9948:0:0:0:0:
64,192,9948,128,0,10469:0:0:0:0:
320,192,10469,128,0,10991:0:0:0:0:
448,192,10991,128,0,11252:0:0:0:0:
192,192,11252,128,0,11774:0:0:0:0:
320,192,11774,128,0,12295:0:0:0:0:
64,192,12295,128,0,12556:0:0:0:0:
192,192,12556,1,0,0:0:0:0:
448,192,12556,128,0,12948:0:0:0:0:
320,192,12948,128,0,13339:0:0:0:0:
448,192,13339,128,0,13600:0:0:0:0:
320,192,13600,128,0,13991:0:0:0:0:
192,192,13991,128,0,14382:0:0:0:0:
64,192,14382,128,0,14643:0:0:0:0:
320,192,14643,1,0,0:0:0:0:
448,192,14904,1,0,0:0:0:0:
192,192,15165,1,0,0:0:0:0:
64,192,15426,1,0,0:0:0:0:
192,192,15687,128,0,16208:0:0:0:0:
448,192,16208,128,0,16730:0:0:0:0:
320,192,16730,128,0,17513:0:0:0:0:
448,192,17513,128,0,18817:0:0:0:0:
192,192,18817,128,0,19600:0:0:0:0:
64,192,19600,128,0,20382:0:0:0:0:
192,192,20382,128,0,20904:0:0:0:0:
448,192,20904,128,0,22208:0:0:0:0:
320,192,22208,128,0,22730:0:0:0:0:
192,192,22730,128,0,22991:0:0:0:0:
64,192,22991,128,0,23252:0:0:0:0:
448,192,23252,128,0,23513:0:0:0:0:
192,192,23513,128,0,23774:0:0:0:0:
448,192,23774,128,0,25078:0:0:0:0:
320,192,25078,128,0,25861:0:0:0:0:
192,192,25861,128,0,26643:0:0:0:0:
448,192,26643,128,0,26904:0:0:0:0:
320,192,26904,128,0,27687:0:0:0:0:
64,192,27687,128,0,27948:0:0:0:0:
192,192,27948,128,0,28991:0:0:0:0:
320,192,28991,1,0,0:0:0:0:
64,192,29121,1,0,0:0:0:0:
448,192,29252,128,0,30035:0:0:0:0:
320,192,30035,128,0,31339:0:0:0:0:
64,192,31339,128,0,32121:0:0:0:0:
192,192,32121,128,0,32904:0:0:0:0:
320,192,32904,128,0,33426:0:0:0:0:
448,192,33426,128,0,37600:0:0:0:0:
64,192,33426,1,0,0:0:0:0:
192,192,33687,1,0,0:0:0:0:
64,192,33948,1,0,0:0:0:0:
320,192,34078,1,0,0:0:0:0:
192,192,34339,1,0,0:0:0:0:
320,192,34600,1,0,0:0:0:0:
64,192,34730,1,0,0:0:0:0:
192,192,34991,1,0,0:0:0:0:
320,192,35252,1,0,0:0:0:0:
64,192,35513,1,0,0:0:0:0:
320,192,35774,1,0,0:0:0:0:
192,192,36035,1,0,0:0:0:0:
64,192,36165,1,0,0:0:0:0:
320,192,36426,1,0,0:0:0:0:
64,192,36687,1,0,0:0:0:0:
192,192,36817,1,0,0:0:0:0:
320,192,37078,1,0,0:0:0:0:
192,192,37208,1,0,0:0:0:0:
64,192,37469,1,0,0:0:0:0:
192,192,37600,128,0,37861:0:0:0:0:
320,192,37861,128,0,38121:0:0:0:0:
448,192,38121,128,0,38382:0:0:0:0:
192,192,38382,128,0,38643:0:0:0:0:
64,192,38643,128,0,38904:0:0:0:0:
320,192,38904,128,0,39165:0:0:0:0:
192,192,39165,128,0,39426:0:0:0:0:
448,192,39426,128,0,39687:0:0:0:0:
64,192,39687,128,0,39948:0:0:0:0:
320,192,39948,128,0,40208:0:0:0:0:
192,192,40208,128,0,40469:0:0:0:0:
320,192,40469,128,0,40730:0:0:0:0:
448,192,40730,128,0,40991:0:0:0:0:
64,192,40991,128,0,41252:0:0:0:0:
192,192,41252,128,0,41513:0:0:0:0:
320,192,41513,128,0,41774:0:0:0:0:
64,192,41774,128,0,45948:0:0:0:0:
448,192,41774,1,0,0:0:0:0:
320,192,42035,1,0,0:0:0:0:
192,192,42295,1,0,0:0:0:0:
448,192,42426,1,0,0:0:0:0:
320,192,42687,1,0,0:0:0:0:
448,192,42948,1,0,0:0:0:0:
192,192,43078,1,0,0:0:0:0:
320,192,43339,1,0,0:0:0:0:
448,192,43600,1,0,0:0:0:0:
192,192,43861,1,0,0:0:0:0:
448,192,44121,1,0,0:0:0:0:
192,192,44382,1,0,0:0:0:0:
320,192,44513,1,0,0:0:0:0:
448,192,44774,1,0,0:0:0:0:
320,192,45035,1,0,0:0:0:0:
192,192,45165,1,0,0:0:0:0:
448,192,45426,1,0,0:0:0:0:
192,192,45556,1,0,0:0:0:0:
320,192,45817,1,0,0:0:0:0:
448,192,45948,128,0,46208:0:0:0:0:
320,192,46208,128,0,46469:0:0:0:0:
64,192,46469,128,0,46730:0:0:0:0:
192,192,46730,128,0,46991:0:0:0:0:
320,192,46991,128,0,47252:0:0:0:0:
448,192,47252,128,0,47513:0:0:0:0:
192,192,47513,128,0,47774:0:0:0:0:
320,192,47774,128,0,48035:0:0:0:0:
448,192,48035,128,0,50121:0:0:0:0:
64,192,48035,1,0,0:0:0:0:
64,192,48426,1,0,0:0:0:0:
192,192,48817,1,0,0:0:0:0:
192,192,49208,1,0,0:0:0:0:
320,192,49600,1,0,0:0:0:0:
320,192,49991,1,0,0:0:0:0:
