osu file format v14

[General]
AudioFilename: audio.ogg
AudioLeadIn: 0
PreviewTime: 26730
Countdown: 0
SampleSet: Normal
StackLeniency: 0.7
Mode: 1
LetterboxInBreaks: 0
WidescreenStoryboard: 1

[Editor]
DistanceSpacing: 0.8
BeatDivisor: 2
GridSize: 32
TimelineZoom: 0.5999998

[Metadata]
Title:Indignant Divinity
TitleUnicode:Indignant Divinity
Artist:flashygoodness
ArtistUnicode:flashygoodness
Creator:Maimaing
Version:Kantan
Source:Tower of Heaven
Tags:original ost electronic 天国の塔 Instrumental video game tengoku no tou Soundtrack
BeatmapID:3413937
BeatmapSetID:1671392

[Difficulty]
HPDrainRate:9
CircleSize:5
OverallDifficulty:3
ApproachRate:5
SliderMultiplier:1.4
SliderTickRate:1

[Events]
//Background and Video events
0,0,"bg.jpg",0,-120
//Break Periods
//Storyboard Layer 0 (Background)
//Storyboard Layer 1 (Fail)
//Storyboard Layer 2 (Pass)
//Storyboard Layer 3 (Foreground)
//Storyboard Layer 4 (Overlay)
//Storyboard Sound Samples

[TimingPoints]
1016,428.571428571429,4,1,0,70,1,0
28444,-100,4,1,0,80,0,1
42158,-100,4,1,0,70,0,0
49016,-100,4,1,0,80,0,1
55873,-100,4,1,0,70,0,0

[HitObjects]
156,171,1016,5,8,0:0:0:0:
156,171,1873,1,0,0:0:0:0:
156,171,2730,1,0,0:0:0:0:
156,171,4444,1,8,0:0:0:0:
156,171,5301,1,0,0:0:0:0:
156,171,6158,1,8,0:0:0:0:
156,52,7873,5,0,0:0:0:0:
156,52,8301,1,0,0:0:0:0:
156,52,8730,1,0,0:0:0:0:
156,52,9587,1,0,0:0:0:0:
156,52,10016,1,0,0:0:0:0:
156,52,10444,1,0,0:0:0:0:
295,101,11301,1,0,0:0:0:0:
287,102,11730,1,8,0:0:0:0:
224,83,12587,1,8,0:0:0:0:
224,83,13016,1,0,0:0:0:0:
224,83,14301,1,0,0:0:0:0:
224,83,14730,1,8,0:0:0:0:
224,83,15587,1,0,0:0:0:0:
224,83,16444,1,0,0:0:0:0:
224,83,16873,1,8,0:0:0:0:
224,83,17301,1,0,0:0:0:0:
224,83,18158,1,8,0:0:0:0:
224,83,19016,1,0,0:0:0:0:
224,83,19873,1,8,0:0:0:0:
224,83,21587,1,8,0:0:0:0:
224,83,22444,1,0,0:0:0:0:
224,83,23301,1,0,0:0:0:0:
224,83,23730,1,8,0:0:0:0:
224,83,24158,1,0,0:0:0:0:
158,108,25016,1,8,0:0:0:0:
163,108,25873,1,0,0:0:0:0:
163,108,26730,1,8,0:0:0:0:
163,108,27158,1,8,0:0:0:0:
168,79,27587,1,8,0:0:0:0:
168,79,28016,1,8,0:0:0:0:
168,79,28444,1,4,0:0:0:0:
198,152,29730,1,0,0:0:0:0:
198,152,30158,1,8,0:0:0:0:
148,158,31016,1,0,0:0:0:0:
140,80,31873,1,8,0:0:0:0:
254,214,32301,1,0,0:0:0:0:
140,80,32730,1,8,0:0:0:0:
140,80,33587,1,8,0:0:0:0:
237,117,34016,1,8,0:0:0:0:
140,80,34444,1,0,0:0:0:0:
222,117,35301,1,0,0:0:0:0:
155,163,36587,1,0,0:0:0:0:
155,163,37016,1,8,0:0:0:0:
131,219,37873,1,0,0:0:0:0:
187,97,38730,1,8,0:0:0:0:
187,97,39587,1,0,0:0:0:0:
50,149,40016,1,8,0:0:0:0:
187,97,40444,1,4,0:0:0:0:
266,169,42158,1,0,0:0:0:0:
266,169,42801,1,8,0:0:0:0:
266,169,43873,1,0,0:0:0:0:
266,169,44516,1,0,0:0:0:0:
266,169,45587,1,0,0:0:0:0:
266,169,46230,1,8,0:0:0:0:
266,169,47301,1,0,0:0:0:0:
191,165,47730,1,0,0:0:0:0:
191,165,48158,1,0,0:0:0:0:
133,205,49016,1,8,0:0:0:0:
295,298,49444,1,8,0:0:0:0:
127,145,49873,1,0,0:0:0:0:
195,99,50730,1,8,0:0:0:0:
302,216,51158,1,8,0:0:0:0:
195,99,51587,1,0,0:0:0:0:
195,99,52444,1,8,0:0:0:0:
195,99,52873,1,0,0:0:0:0:
195,99,53301,1,8,0:0:0:0:
195,99,54158,1,8,0:0:0:0:
256,192,55016,12,0,55873,0:0:0:0:
