osu file format v14

[General]
AudioFilename: YuriSong.mp3
AudioLeadIn: 0
PreviewTime: 16380
Countdown: 0
SampleSet: None
StackLeniency: 0.7
Mode: 0
LetterboxInBreaks: 1
WidescreenStoryboard: 1

[Editor]
DistanceSpacing: 1.2
BeatDivisor: 4
GridSize: 4
TimelineZoom: 1

[Metadata]
Title:Sutakora go raku-bu
TitleUnicode:すたこらごらく部
Artist:fillin
ArtistUnicode:fillin
Creator:Martinchooo
Version:Insane Yuri
Source:Yuru Yuri
Tags:
BeatmapID:1037704
BeatmapSetID:486678

[Difficulty]
HPDrainRate:6
CircleSize:4
OverallDifficulty:7
ApproachRate:8.7
SliderMultiplier:1.6
SliderTickRate:1

[Events]
//Background and Video events
0,0,"background.jpg",0,0
//Break Periods
2,70830,75985
//Storyboard Layer 0 (Background)
//Storyboard Layer 1 (Fail)
//Storyboard Layer 2 (Pass)
//Storyboard Layer 3 (Foreground)
//Storyboard Sound Samples

[TimingPoints]
630,500,4,1,0,100,1,0
6630,-100,4,1,0,100,0,0
8130,-133.333333333333,4,1,0,100,0,0
8630,-100,4,1,0,100,0,0
16630,-100,4,1,0,100,0,0
32630,-100,4,1,0,100,0,0
44630,-100,4,1,0,100,0,1
70630,-100,4,1,0,100,0,0
78380,-100,4,1,0,100,0,0
86630,-100,4,1,0,100,0,0

[Colours]
Combo1 : 252,158,226
Combo2 : 255,108,182
Combo3 : 255,255,128

[HitObjects]
104,304,630,6,0,L|212:300,1,80
339,241,1130,2,0,L|260:244,1,80
84,288,1630,2,0,L|192:284,1,80
304,176,2130,1,0,0:0:0:0:
304,176,2380,1,0,0:0:0:0:
216,168,2630,6,0,L|220:260,1,80
264,88,3130,2,0,L|260:-4,1,80
304,176,3630,1,0,0:0:0:0:
376,112,3880,1,0,0:0:0:0:
448,176,4130,1,0,0:0:0:0:
448,176,4630,6,0,L|340:180,1,80
212,238,5130,2,0,L|291:235,1,80
468,192,5630,2,0,L|360:196,1,80
248,312,6130,1,0,0:0:0:0:
248,312,6380,1,0,0:0:0:0:
100,192,6630,5,0,0:0:0:0:
144,276,6880,1,0,0:0:0:0:
208,140,7130,1,0,0:0:0:0:
144,276,7380,1,0,0:0:0:0:
64,96,7630,1,0,0:0:0:0:
236,232,7880,5,0,0:0:0:0:
236,232,8130,2,0,L|344:232,1,90.0000034332277
352,192,8630,2,0,P|360:152|352:108,1,80
268,72,9130,2,0,P|260:112|268:156,1,80
228,240,9630,2,0,L|116:244,1,80
8,180,10130,2,0,L|120:176,1,80
216,52,10630,6,0,L|220:144,1,80
208,316,11130,2,0,L|204:236,1,80
248,56,11630,2,0,L|252:148,1,80
240,320,12130,2,0,L|236:240,1,80
168,172,12630,6,0,P|108:160|40:176,1,120
24,212,13130,1,0,0:0:0:0:
112,88,13380,1,0,0:0:0:0:
216,248,13630,2,0,L|120:252,1,80
292,312,14130,6,0,L|388:316,1,80
371,315,14505,1,0,0:0:0:0:
371,315,14630,1,0,0:0:0:0:
444,252,14880,5,0,0:0:0:0:
296,232,15130,1,0,0:0:0:0:
512,208,15380,1,0,0:0:0:0:
364,188,15630,1,0,0:0:0:0:
440,128,15880,2,0,L|444:88,3,26.6666666666667
392,288,16380,5,0,0:0:0:0:
392,288,16505,1,0,0:0:0:0:
392,288,16630,1,0,0:0:0:0:
316,232,16880,2,0,L|316:140,1,80
164,48,17380,5,0,0:0:0:0:
164,48,17505,1,0,0:0:0:0:
164,48,17630,1,0,0:0:0:0:
240,104,17880,2,0,L|240:196,1,80
168,244,18380,5,0,0:0:0:0:
168,244,18630,1,0,0:0:0:0:
320,148,18880,1,0,0:0:0:0:
320,148,19130,1,0,0:0:0:0:
152,148,19380,1,0,0:0:0:0:
112,148,19505,1,0,0:0:0:0:
72,148,19630,1,0,0:0:0:0:
60,244,19880,5,0,0:0:0:0:
304,264,20130,1,0,0:0:0:0:
304,264,20630,6,0,P|348:256|392:268,1,80
488,188,21130,5,0,0:0:0:0:
449,179,21255,1,0,0:0:0:0:
410,187,21380,1,0,0:0:0:0:
276,132,21630,5,0,0:0:0:0:
316,156,21755,2,0,L|320:260,1,80
284,268,22130,2,0,L|248:284,3,26.6666666666667
116,216,22630,5,0,0:0:0:0:
224,172,22796,1,0,0:0:0:0:
136,116,22963,1,0,0:0:0:0:
208,264,23130,2,0,P|256:260|316:160,1,160
216,88,23880,5,0,0:0:0:0:
368,304,24130,1,0,0:0:0:0:
368,304,24630,6,0,L|272:308,1,80
288,307,25005,1,0,0:0:0:0:
288,307,25130,1,0,0:0:0:0:
156,240,25380,2,0,L|224:236,2,40
368,180,25880,5,0,0:0:0:0:
284,132,26130,1,0,0:0:0:0:
284,172,26255,1,0,0:0:0:0:
284,212,26380,1,0,0:0:0:0:
360,84,26630,5,0,0:0:0:0:
342,65,26755,1,0,0:0:0:0:
321,52,26880,1,0,0:0:0:0:
296,45,27005,1,0,0:0:0:0:
272,46,27130,1,0,0:0:0:0:
248,54,27255,1,0,0:0:0:0:
227,67,27380,1,0,0:0:0:0:
211,87,27505,1,0,0:0:0:0:
201,109,27630,1,0,0:0:0:0:
436,240,27880,5,0,0:0:0:0:
436,240,28005,1,0,0:0:0:0:
436,240,28130,1,0,0:0:0:0:
280,176,28630,6,0,L|288:120,3,40
208,232,29130,2,0,L|200:288,3,40
160,156,29630,2,0,L|168:100,1,40
92,216,29880,2,0,L|84:272,1,40
56,136,30130,1,0,0:0:0:0:
296,256,30630,5,0,0:0:0:0:
296,256,30880,1,0,0:0:0:0:
208,120,31130,1,0,0:0:0:0:
208,120,31380,1,0,0:0:0:0:
96,232,31630,1,0,0:0:0:0:
304,152,31880,5,0,0:0:0:0:
388,196,32130,1,0,0:0:0:0:
304,152,32630,6,0,L|308:268,1,80
272,320,33130,2,0,L|268:204,1,80
228,152,33630,2,0,L|232:268,1,80
168,304,34130,1,0,0:0:0:0:
20,232,34380,5,0,0:0:0:0:
20,232,34630,2,0,L|108:228,1,80
148,144,35130,2,0,P|148:84|136:56,1,80
208,224,35630,1,0,0:0:0:0:
288,108,35880,1,0,0:0:0:0:
64,112,36130,1,0,0:0:0:0:
212,232,36380,1,0,0:0:0:0:
252,232,36505,1,0,0:0:0:0:
292,232,36630,5,0,0:0:0:0:
356,160,36880,1,0,0:0:0:0:
196,312,37130,2,0,P|148:280|160:168,1,160
252,52,37880,5,0,0:0:0:0:
264,216,38130,2,0,B|316:228|348:200|348:200|380:192|424:212,1,160
372,296,38880,1,0,0:0:0:0:
292,128,39130,2,0,P|256:124|172:208,1,160
264,216,39880,1,0,0:0:0:0:
92,260,40130,1,0,0:0:0:0:
212,292,40380,1,0,0:0:0:0:
12,308,40630,6,0,L|8:220,1,80
68,52,41130,2,0,L|72:140,1,80
104,224,41630,1,0,0:0:0:0:
200,232,41880,1,0,0:0:0:0:
240,144,42130,1,0,0:0:0:0:
164,84,42380,1,0,0:0:0:0:
296,232,42630,6,0,L|400:236,1,80
424,192,43005,2,0,L|320:188,1,80
312,152,43380,2,0,L|416:156,1,80
220,192,43880,1,0,0:0:0:0:
220,192,44005,1,0,0:0:0:0:
220,192,44130,1,0,0:0:0:0:
320,48,44380,6,0,L|324:164,1,80
322,127,44755,1,0,0:0:0:0:
322,127,44880,1,0,0:0:0:0:
236,304,45130,1,0,0:0:0:0:
236,304,45255,1,0,0:0:0:0:
236,304,45380,1,0,0:0:0:0:
84,196,45630,1,0,0:0:0:0:
200,40,45880,5,0,0:0:0:0:
124,100,46130,1,0,0:0:0:0:
200,160,46380,1,0,0:0:0:0:
124,276,46630,6,0,P|84:284|44:276,1,80
274,118,47130,2,0,P|282:158|274:198,1,80
96,184,47630,5,0,0:0:0:0:
228,292,47880,1,0,0:0:0:0:
196,80,48130,1,0,0:0:0:0:
236,312,48380,1,0,0:0:0:0:
96,184,48630,6,0,L|16:181,1,80
272,140,49130,2,0,L|351:137,1,80
80,196,49630,2,0,L|0:193,1,80
296,144,50130,2,0,L|375:141,1,80
60,284,50630,2,0,P|48:112|140:128,1,320
184,292,51880,5,0,0:0:0:0:
248,220,52130,1,0,0:0:0:0:
312,292,52380,1,0,0:0:0:0:
440,176,52630,2,0,L|444:92,1,80
356,136,53130,2,0,L|353:216,1,80
429,276,53630,1,0,0:0:0:0:
264,172,53880,5,0,0:0:0:0:
200,244,54130,1,0,0:0:0:0:
136,172,54380,1,0,0:0:0:0:
12,264,54630,2,0,L|104:260,1,80
208,100,55130,1,0,0:0:0:0:
256,316,55380,5,0,0:0:0:0:
324,252,55630,2,0,P|256:220|180:260,1,160
184,254,56255,1,0,0:0:0:0:
184,254,56380,1,0,0:0:0:0:
112,188,56630,1,0,0:0:0:0:
112,158,56755,1,0,0:0:0:0:
113,128,56880,1,0,0:0:0:0:
114,98,57005,1,0,0:0:0:0:
115,68,57130,1,0,0:0:0:0:
204,132,57380,5,0,0:0:0:0:
280,64,57630,2,0,L|364:60,1,80
512,124,58130,2,0,L|428:128,1,80
356,188,58630,1,0,0:0:0:0:
256,192,58880,12,0,62380,0:0:0:0:
304,132,62630,5,0,0:0:0:0:
304,132,62880,1,0,0:0:0:0:
192,244,63130,1,0,0:0:0:0:
192,244,63380,1,0,0:0:0:0:
276,288,63630,2,0,L|276:200,1,80
200,148,64130,2,0,L|200:60,1,80
104,240,64630,6,0,L|196:236,1,80
296,168,65130,1,0,0:0:0:0:
132,96,65380,1,0,0:0:0:0:
216,60,65630,2,0,L|216:148,1,80
292,200,66130,2,0,L|292:288,1,80
208,236,66630,5,0,0:0:0:0:
304,104,66880,1,0,0:0:0:0:
208,236,67130,1,0,0:0:0:0:
304,104,67380,1,0,0:0:0:0:
208,236,67630,6,0,P|168:244|116:232,1,80
304,104,68130,2,0,P|344:96|396:108,1,80
382,102,68505,1,0,0:0:0:0:
382,102,68630,1,0,0:0:0:0:
308,204,68880,5,0,0:0:0:0:
212,72,69130,1,0,0:0:0:0:
308,204,69380,1,0,0:0:0:0:
212,72,69630,1,0,0:0:0:0:
164,324,69880,1,0,0:0:0:0:
164,324,70005,1,0,0:0:0:0:
164,324,70130,1,0,0:0:0:0:
308,204,70380,6,0,B|336:188|336:188|344:204|344:204|344:200|372:192,1,80
396,212,76630,6,0,L|400:296,1,80
312,168,77130,2,0,L|316:252,1,80
392,124,77630,1,0,0:0:0:0:
232,104,77880,5,0,0:0:0:0:
232,104,78130,1,0,0:0:0:0:
136,192,78380,5,0,0:0:0:0:
176,192,78505,1,0,0:0:0:0:
216,192,78630,1,0,0:0:0:0:
116,280,78880,2,0,L|32:280,1,80
296,184,79380,5,0,0:0:0:0:
336,184,79505,1,0,0:0:0:0:
376,184,79630,1,0,0:0:0:0:
328,268,79880,2,0,L|248:268,1,80
176,204,80380,5,0,0:0:0:0:
176,204,80630,1,0,0:0:0:0:
420,260,80880,1,0,0:0:0:0:
420,260,81130,1,0,0:0:0:0:
316,164,81380,1,0,0:0:0:0:
316,164,81505,1,0,0:0:0:0:
316,164,81630,1,0,0:0:0:0:
232,320,81880,5,0,0:0:0:0:
128,120,82130,1,0,0:0:0:0:
128,120,82630,6,0,L|212:116,1,80
80,192,83130,5,0,0:0:0:0:
40,193,83255,1,0,0:0:0:0:
0,195,83380,1,0,0:0:0:0:
172,240,83630,5,0,0:0:0:0:
172,240,83755,2,0,L|280:236,1,80
112,304,84130,2,0,L|60:308,3,26.6666666666667
200,160,84630,5,0,0:0:0:0:
236,312,84796,1,0,0:0:0:0:
260,80,84963,1,0,0:0:0:0:
296,232,85130,2,0,P|352:280|408:216,1,160
200,160,85880,5,0,0:0:0:0:
424,124,86130,1,0,0:0:0:0:
424,124,86630,5,0,0:0:0:0:
394,123,86755,1,0,0:0:0:0:
364,122,86880,1,0,0:0:0:0:
334,121,87005,1,0,0:0:0:0:
304,120,87130,6,0,L|304:160,1,40
344,188,87380,2,0,L|343:227,1,40
296,232,87630,5,0,0:0:0:0:
266,231,87755,1,0,0:0:0:0:
236,230,87880,1,0,0:0:0:0:
206,229,88005,1,0,0:0:0:0:
176,228,88130,6,0,L|175:267,1,40
216,296,88380,2,0,L|215:335,1,40
168,340,88630,5,0,0:0:0:0:
138,339,88755,1,0,0:0:0:0:
108,338,88880,1,0,0:0:0:0:
78,337,89005,1,0,0:0:0:0:
48,336,89380,5,0,0:0:0:0:
296,312,89630,1,0,0:0:0:0:
104,252,89880,2,0,B|92:200|124:164|124:164|140:112|100:80|100:80|160:48,1,240
168,56,90755,1,0,0:0:0:0:
187,59,90880,1,0,0:0:0:0:
207,62,91005,1,0,0:0:0:0:
238,97,91130,6,0,L|238:145,3,40
270,65,91630,2,0,L|354:61,1,80
394,85,92005,1,0,0:0:0:0:
435,113,92130,2,0,L|483:113,1,40
395,161,92380,2,0,L|347:161,1,40
435,189,92630,5,0,0:0:0:0:
399,221,92880,1,0,0:0:0:0:
435,253,93130,1,0,0:0:0:0:
403,289,93380,1,0,0:0:0:0:
432,328,93630,1,0,0:0:0:0:
288,256,93880,5,0,0:0:0:0:
435,189,94130,1,0,0:0:0:0:
