osu file format v14

[General]
AudioFilename: audio.mp3
AudioLeadIn: 0
PreviewTime: 10971
Countdown: 0
SampleSet: Soft
StackLeniency: 0.4
Mode: 0
LetterboxInBreaks: 0
WidescreenStoryboard: 0

[Editor]
Bookmarks: 8571,10971,15771,20571,25371,28971,30171,39771,44571,48171
DistanceSpacing: 1.7
BeatDivisor: 4
GridSize: 4
TimelineZoom: 1

[Metadata]
Title:Mayoi ga Ongaku ni Awasete Araragi-san no Namae o Yobu Douga (Karee Pan)
TitleUnicode:Mayoi ga Ongaku ni Awasete Araragi-san no Namae o Yobu Douga (Karee Pan)
Artist:fillin
ArtistUnicode:fillin
Creator:Pozy
Version:ARARARARARARAGI-san
Source:
Tags:Bakemonotagari
BeatmapID:1633031
BeatmapSetID:777313

[Difficulty]
HPDrainRate:6
CircleSize:4
OverallDifficulty:8
ApproachRate:9
SliderMultiplier:1.4
SliderTickRate:1

[Events]
//Background and Video events
0,0,"Hachikuji.Mayoi.full.1589121.jpg",0,0
//Break Periods
//Storyboard Layer 0 (Background)
//Storyboard Layer 1 (Fail)
//Storyboard Layer 2 (Pass)
//Storyboard Layer 3 (Foreground)
//Storyboard Sound Samples

[TimingPoints]
3771,300,4,2,0,100,1,0
14571,-200,4,2,0,100,0,0
16371,-100,4,2,0,100,0,0
19371,-200,4,2,0,100,0,0
21171,-100,4,2,0,100,0,0
24171,-200,4,2,0,100,0,0
25971,-100,4,2,0,100,0,0
28971,-200,4,2,0,100,0,0
31371,-100,4,2,0,100,0,0
34671,-66.6666666666667,4,2,0,100,0,0
34971,-100,4,2,0,100,0,0

[Colours]
Combo1 : 84,56,52
Combo2 : 234,116,88
Combo3 : 149,190,194

[HitObjects]
225,133,3771,5,0,0:0:0:0:
203,227,4071,1,0,0:0:0:0:
201,59,4371,2,0,P|257:61|283:88,1,70
401,137,4671,2,0,P|345:135|319:108,1,70
266,67,4971,5,0,0:0:0:0:
357,45,5271,1,0,0:0:0:0:
316,206,5571,2,0,L|294:285,1,70
419,204,5871,2,0,L|400:136,1,70
308,107,6171,5,0,0:0:0:0:
316,206,6471,1,0,0:0:0:0:
271,41,6771,2,0,P|326:32|357:53,1,70
183,81,7071,2,0,P|127:89|96:68,1,70
34,135,7371,5,0,0:0:0:0:
109,194,7671,1,0,0:0:0:0:
195,159,7971,2,0,P|202:208|183:251,1,70
277,79,8271,2,0,P|270:30|289:-13,1,70
333,135,8571,6,0,P|284:159|262:157,2,70
437,209,9021,1,0,0:0:0:0:
352,302,9171,1,0,0:0:0:0:
352,302,9471,5,0,0:0:0:0:
267,209,9621,1,0,0:0:0:0:
182,302,9771,1,0,0:0:0:0:
182,302,10071,5,0,0:0:0:0:
352,302,10221,1,0,0:0:0:0:
267,209,10371,2,0,L|267:161,3,35
267,245,10671,1,0,0:0:0:0:
267,245,10971,5,0,0:0:0:0:
163,325,11121,1,0,0:0:0:0:
59,245,11271,1,0,0:0:0:0:
164,170,11421,1,0,0:0:0:0:
269,95,11571,2,0,L|365:26,1,105
342,200,11871,5,0,0:0:0:0:
313,220,11946,1,0,0:0:0:0:
285,240,12021,1,0,0:0:0:0:
256,261,12096,1,0,0:0:0:0:
229,281,12171,2,0,L|133:350,1,105
116,200,12471,5,0,0:0:0:0:
144,220,12546,1,0,0:0:0:0:
173,240,12621,1,0,0:0:0:0:
201,261,12696,1,0,0:0:0:0:
229,281,12771,1,0,0:0:0:0:
352,245,12921,1,0,0:0:0:0:
306,125,13071,1,0,0:0:0:0:
303,311,13221,1,0,0:0:0:0:
429,269,13371,5,0,0:0:0:0:
429,269,13671,5,0,0:0:0:0:
349,368,13821,1,0,0:0:0:0:
322,242,13971,1,0,0:0:0:0:
322,242,14271,1,0,0:0:0:0:
270,303,14571,2,0,P|328:324|377:186,1,245
289,102,15771,5,0,0:0:0:0:
176,158,15921,1,0,0:0:0:0:
289,214,16071,1,0,0:0:0:0:
176,270,16221,1,0,0:0:0:0:
289,326,16371,2,0,L|390:382,1,105
289,214,16671,5,0,0:0:0:0:
259,199,16746,1,0,0:0:0:0:
229,183,16821,1,0,0:0:0:0:
197,165,16896,1,0,0:0:0:0:
168,149,16971,2,0,L|64:92,1,105
173,12,17271,5,0,0:0:0:0:
170,45,17346,1,0,0:0:0:0:
169,79,17421,1,0,0:0:0:0:
169,116,17496,1,0,0:0:0:0:
168,149,17571,1,0,0:0:0:0:
234,257,17721,1,0,0:0:0:0:
307,152,17871,1,0,0:0:0:0:
142,239,18021,1,0,0:0:0:0:
272,257,18171,5,0,0:0:0:0:
272,257,18471,5,0,0:0:0:0:
188,356,18621,1,0,0:0:0:0:
142,239,18771,1,0,0:0:0:0:
142,239,19071,1,0,0:0:0:0:
101,172,19371,2,0,P|64:240|186:306,1,245
297,258,20571,5,0,0:0:0:0:
174,224,20721,1,0,0:0:0:0:
285,160,20871,1,0,0:0:0:0:
162,126,21021,1,0,0:0:0:0:
273,62,21171,2,0,L|381:105,1,105
285,160,21471,5,0,0:0:0:0:
252,173,21546,1,0,0:0:0:0:
220,186,21621,1,0,0:0:0:0:
188,200,21696,1,0,0:0:0:0:
155,213,21771,2,0,L|57:251,1,105
159,297,22071,5,0,0:0:0:0:
191,310,22146,1,0,0:0:0:0:
223,323,22221,1,0,0:0:0:0:
255,337,22296,1,0,0:0:0:0:
285,349,22371,1,0,0:0:0:0:
398,282,22521,1,0,0:0:0:0:
257,256,22671,1,0,0:0:0:0:
427,258,22821,1,0,0:0:0:0:
285,349,22971,5,0,0:0:0:0:
285,349,23271,1,0,0:0:0:0:
409,357,23421,1,0,0:0:0:0:
348,244,23571,1,0,0:0:0:0:
348,244,23871,1,0,0:0:0:0:
425,261,24171,2,0,P|396:309|269:229,1,245
261,113,25371,5,0,0:0:0:0:
351,207,25521,1,0,0:0:0:0:
220,178,25671,1,0,0:0:0:0:
338,131,25821,1,0,0:0:0:0:
267,236,25971,2,0,L|201:337,1,105
369,314,26271,5,0,0:0:0:0:
389,285,26346,1,0,0:0:0:0:
407,255,26421,1,0,0:0:0:0:
424,225,26496,1,0,0:0:0:0:
444,195,26571,2,0,L|500:106,1,105
339,122,26871,5,0,0:0:0:0:
321,151,26946,1,0,0:0:0:0:
303,179,27021,1,0,0:0:0:0:
283,209,27096,1,0,0:0:0:0:
267,236,27171,1,0,0:0:0:0:
272,358,27321,1,0,0:0:0:0:
162,295,27471,1,0,0:0:0:0:
210,176,27621,1,0,0:0:0:0:
192,313,27771,5,0,0:0:0:0:
192,313,28071,5,0,0:0:0:0:
95,229,28221,1,0,0:0:0:0:
210,176,28371,1,0,0:0:0:0:
106,314,28571,5,0,0:0:0:0:
106,314,28671,1,0,0:0:0:0:
72,155,28871,5,0,0:0:0:0:
72,155,28971,2,0,L|61:97,1,46.6666666666667
59,78,29271,1,0,0:0:0:0:
200,151,29496,1,0,0:0:0:0:
200,151,29571,5,0,0:0:0:0:
88,270,29796,1,0,0:0:0:0:
88,270,29871,5,0,0:0:0:0:
217,362,30096,1,0,0:0:0:0:
217,362,30171,6,0,L|248:385,2,35
128,275,30621,1,0,0:0:0:0:
59,377,30771,1,0,0:0:0:0:
223,283,30921,1,0,0:0:0:0:
223,283,30996,1,0,0:0:0:0:
223,283,31071,2,0,L|256:261,1,35
154,168,31296,1,0,0:0:0:0:
154,168,31371,6,0,L|128:120,4,35
248,294,31896,1,0,0:0:0:0:
248,294,31971,1,0,0:0:0:0:
298,145,32196,1,0,0:0:0:0:
298,145,32271,2,0,L|323:70,1,70
397,178,32496,1,0,0:0:0:0:
397,178,32571,6,0,L|372:253,2,70
270,227,33096,1,0,0:0:0:0:
270,227,33171,6,0,L|245:302,2,70
135,270,33696,1,0,0:0:0:0:
135,270,33771,2,0,P|136:326|177:386,1,105
235,370,34071,1,0,0:0:0:0:
235,370,34371,5,0,0:0:0:0:
220,211,34571,1,0,0:0:0:0:
220,211,34671,2,0,B|181:207|177:192|177:192|161:200|161:200|150:182|115:176,1,105.000004005432
24,104,34971,2,0,P|1:150|-1:171,2,70
150,52,35471,1,0,0:0:0:0:
150,52,35571,6,0,L|144:134,2,70
175,28,36071,1,0,0:0:0:0:
277,106,36271,1,0,0:0:0:0:
215,155,36371,1,0,0:0:0:0:
144,121,36471,1,0,0:0:0:0:
255,33,36671,1,0,0:0:0:0:
255,33,36771,6,0,L|253:120,1,46.6666666666667
254,137,36971,1,0,0:0:0:0:
379,328,37271,1,0,0:0:0:0:
403,260,37371,6,0,L|425:206,1,46.6666666666667
254,137,37571,1,0,0:0:0:0:
284,209,37671,6,0,L|301:252,1,46.6666666666667
131,328,37871,1,0,0:0:0:0:
160,255,37971,2,0,L|177:211,1,46.6666666666667
285,212,38171,1,0,0:0:0:0:
254,137,38271,6,0,L|237:93,1,46.6666666666667
120,148,38471,1,0,0:0:0:0:
151,73,38571,6,0,L|168:29,1,46.6666666666667
246,17,38771,1,0,0:0:0:0:
310,65,38871,1,0,0:0:0:0:
337,139,38971,1,0,0:0:0:0:
319,217,39071,1,0,0:0:0:0:
263,273,39171,1,0,0:0:0:0:
186,289,39271,1,0,0:0:0:0:
112,261,39371,1,0,0:0:0:0:
64,198,39471,2,0,P|48:149|57:93,1,93.3333333333333
106,22,39771,5,0,0:0:0:0:
187,194,39971,1,0,0:0:0:0:
227,109,40071,2,0,L|257:40,1,46.6666666666667
302,175,40271,1,0,0:0:0:0:
342,260,40371,2,0,L|372:329,1,46.6666666666667
265,381,40671,1,0,0:0:0:0:
447,332,40871,1,0,0:0:0:0:
421,230,40971,2,0,L|399:149,1,46.6666666666667
376,63,41271,5,0,0:0:0:0:
260,90,41571,2,0,P|289:163|430:170,1,210
507,105,42171,1,0,0:0:0:0:
301,174,42396,1,0,0:0:0:0:
250,240,42471,2,0,L|204:297,1,70
104,302,42771,2,0,P|82:317|112:321,3,70
226,314,43371,2,0,B|291:330|274:294|348:319,1,105
357,325,43671,1,0,0:0:0:0:
471,253,43871,1,0,0:0:0:0:
471,253,43971,5,0,0:0:0:0:
391,260,44071,1,0,0:0:0:0:
356,188,44171,1,0,0:0:0:0:
407,127,44271,1,0,0:0:0:0:
164,282,44571,5,0,0:0:0:0:
148,150,44721,2,0,L|137:69,2,70
348,282,45171,1,0,0:0:0:0:
364,150,45321,2,0,L|375:69,2,70
348,282,45771,1,0,0:0:0:0:
216,266,45921,2,0,L|135:255,2,70
348,282,46371,2,0,L|390:287,4,35
305,164,46971,1,0,0:0:0:0:
317,348,47571,6,0,P|275:354|298:329,3,70
305,164,48171,1,0,0:0:0:0:
