osu file format v14

[General]
AudioFilename: audio.mp3
AudioLeadIn: 0
PreviewTime: 8571
Countdown: 0
SampleSet: Normal
StackLeniency: 0.7
Mode: 1
LetterboxInBreaks: 0
WidescreenStoryboard: 0

[Editor]
DistanceSpacing: 1.1
BeatDivisor: 2
GridSize: 4
TimelineZoom: 2.6

[Metadata]
Title:Mayoi ga Ongaku ni Awasete Araragi-san no Namae o Yobu Douga
TitleUnicode:真宵が音楽に合わせて阿良々木さんの名前を呼ぶ動画
Artist:fillin
ArtistUnicode:fillin
Creator:Karee Pan
Version:Oni
Source:
Tags:Araragi Koyomi, Hachikuji Mayoi, Emiri Katou, Monogatari Series, Nico Nico Douga, Mog's Theme, Final Fantasy VI, ff6, MAD
BeatmapID:1300500
BeatmapSetID:616686

[Difficulty]
HPDrainRate:6
CircleSize:3
OverallDifficulty:5
ApproachRate:9
SliderMultiplier:1.4
SliderTickRate:1

[Events]
//Background and Video events
0,0,"bg.jpg",0,100
//Break Periods
//Storyboard Layer 0 (Background)
//Storyboard Layer 1 (Fail)
//Storyboard Layer 2 (Pass)
//Storyboard Layer 3 (Foreground)
//Storyboard Sound Samples

[TimingPoints]
3771,300,4,1,0,80,1,0
30171,-100,4,1,0,80,0,1
39771,-100,4,1,0,80,0,0

[Colours]
Combo1 : 206,103,0
Combo2 : 173,5,64
Combo3 : 43,65,142
Combo4 : 255,128,255

[HitObjects]
256,200,3771,5,4,0:0:0:0:
256,200,4071,1,0,0:0:0:0:
256,200,4371,1,12,0:0:0:0:
256,200,4671,1,8,0:0:0:0:
256,200,4971,1,4,0:0:0:0:
256,200,5271,1,0,0:0:0:0:
256,200,5571,1,12,0:0:0:0:
256,200,5871,1,8,0:0:0:0:
256,200,6171,1,4,0:0:0:0:
256,200,6471,1,0,0:0:0:0:
256,200,6771,1,12,0:0:0:0:
256,200,7071,1,8,0:0:0:0:
256,200,7371,1,4,0:0:0:0:
256,200,7671,1,0,0:0:0:0:
256,200,7971,1,12,0:0:0:0:
256,200,8271,1,8,0:0:0:0:
256,192,8571,1,8,0:0:0:0:
256,192,8721,1,0,0:0:0:0:
256,192,8871,1,8,0:0:0:0:
256,192,9021,1,0,0:0:0:0:
256,192,9171,1,8,0:0:0:0:
256,192,9471,1,0,0:0:0:0:
256,192,9621,1,8,0:0:0:0:
256,192,9771,1,0,0:0:0:0:
256,192,10071,1,0,0:0:0:0:
256,192,10221,1,0,0:0:0:0:
256,192,10371,1,8,0:0:0:0:
233,185,10671,1,0,0:0:0:0:
233,185,10971,1,4,0:0:0:0:
233,185,11121,1,0,0:0:0:0:
233,185,11271,1,8,0:0:0:0:
233,185,11421,1,0,0:0:0:0:
233,185,11571,1,8,0:0:0:0:
241,190,11871,1,8,0:0:0:0:
241,190,11971,1,0,0:0:0:0:
241,190,12071,1,0,0:0:0:0:
241,190,12171,1,8,0:0:0:0:
235,192,12471,1,0,0:0:0:0:
235,192,12571,1,0,0:0:0:0:
235,192,12671,1,0,0:0:0:0:
235,192,12771,1,8,0:0:0:0:
232,193,12921,1,8,0:0:0:0:
235,192,13071,1,0,0:0:0:0:
235,192,13371,1,0,0:0:0:0:
235,215,13571,1,8,0:0:0:0:
235,215,13671,1,0,0:0:0:0:
236,207,13971,1,0,0:0:0:0:
235,192,14121,1,0,0:0:0:0:
235,192,14271,1,8,0:0:0:0:
232,193,14571,1,0,0:0:0:0:
213,190,14721,1,8,0:0:0:0:
200,187,14796,1,8,0:0:0:0:
213,190,14871,1,0,0:0:0:0:
221,185,15021,1,0,0:0:0:0:
213,190,15171,1,8,0:0:0:0:
213,190,15321,1,8,0:0:0:0:
213,190,15471,1,0,0:0:0:0:
213,190,15621,1,8,0:0:0:0:
174,209,15771,1,0,0:0:0:0:
213,190,15921,1,0,0:0:0:0:
213,190,16071,1,8,0:0:0:0:
213,190,16221,1,0,0:0:0:0:
213,190,16371,1,8,0:0:0:0:
224,192,16671,1,0,0:0:0:0:
224,192,16771,1,0,0:0:0:0:
224,192,16871,1,0,0:0:0:0:
224,192,16971,1,8,0:0:0:0:
224,192,17271,1,8,0:0:0:0:
224,192,17371,1,0,0:0:0:0:
224,192,17471,1,0,0:0:0:0:
224,192,17571,1,8,0:0:0:0:
234,180,17721,1,0,0:0:0:0:
233,180,17871,1,8,0:0:0:0:
233,180,18171,1,0,0:0:0:0:
233,179,18371,1,8,0:0:0:0:
233,179,18471,1,0,0:0:0:0:
246,183,18771,1,0,0:0:0:0:
246,183,18921,1,0,0:0:0:0:
246,183,19071,1,8,0:0:0:0:
246,183,19221,1,8,0:0:0:0:
246,183,19371,1,0,0:0:0:0:
268,177,19671,1,8,0:0:0:0:
246,183,19821,1,8,0:0:0:0:
246,183,19971,1,0,0:0:0:0:
246,183,20121,1,0,0:0:0:0:
246,183,20271,1,8,0:0:0:0:
246,184,20571,1,8,0:0:0:0:
246,183,20721,1,8,0:0:0:0:
246,183,20871,1,8,0:0:0:0:
246,183,21021,1,0,0:0:0:0:
246,183,21171,1,8,0:0:0:0:
246,184,21471,1,0,0:0:0:0:
246,184,21571,1,8,0:0:0:0:
246,183,21671,1,8,0:0:0:0:
246,183,21771,1,8,0:0:0:0:
246,183,22071,1,0,0:0:0:0:
246,183,22171,1,8,0:0:0:0:
246,184,22271,1,8,0:0:0:0:
246,184,22371,1,8,0:0:0:0:
249,177,22521,1,0,0:0:0:0:
246,183,22671,1,8,0:0:0:0:
246,183,22971,1,0,0:0:0:0:
246,184,23171,1,8,0:0:0:0:
251,185,23271,1,0,0:0:0:0:
246,183,23571,1,8,0:0:0:0:
246,183,23721,1,8,0:0:0:0:
246,183,23871,1,0,0:0:0:0:
248,177,24171,1,0,0:0:0:0:
246,183,24321,1,8,0:0:0:0:
231,176,24396,1,8,0:0:0:0:
246,183,24471,1,0,0:0:0:0:
246,165,24621,1,0,0:0:0:0:
246,183,24771,1,8,0:0:0:0:
246,186,24921,1,8,0:0:0:0:
246,186,25071,1,0,0:0:0:0:
246,183,25221,1,0,0:0:0:0:
246,183,25371,1,8,0:0:0:0:
246,183,25521,1,8,0:0:0:0:
246,183,25671,1,0,0:0:0:0:
246,183,25821,1,0,0:0:0:0:
246,186,25971,1,8,0:0:0:0:
251,173,26271,1,0,0:0:0:0:
251,173,26371,1,0,0:0:0:0:
251,173,26471,1,0,0:0:0:0:
251,173,26571,1,8,0:0:0:0:
251,173,26871,1,0,0:0:0:0:
251,173,26971,1,0,0:0:0:0:
251,173,27071,1,0,0:0:0:0:
251,173,27171,1,8,0:0:0:0:
240,175,27321,1,8,0:0:0:0:
240,175,27471,1,0,0:0:0:0:
240,175,27771,1,0,0:0:0:0:
251,173,27971,1,8,0:0:0:0:
251,173,28071,1,0,0:0:0:0:
240,175,28371,1,8,0:0:0:0:
240,175,28521,1,0,0:0:0:0:
240,175,28671,1,8,0:0:0:0:
240,175,28821,1,8,0:0:0:0:
240,175,28971,1,0,0:0:0:0:
240,175,29271,1,8,0:0:0:0:
240,175,29471,1,8,0:0:0:0:
240,175,29571,1,0,0:0:0:0:
240,175,29771,1,0,0:0:0:0:
240,175,29871,1,8,0:0:0:0:
240,175,30171,1,4,0:0:0:0:
240,175,30371,1,0,0:0:0:0:
240,175,30471,1,0,0:0:0:0:
240,175,30671,1,0,0:0:0:0:
240,175,30771,1,8,0:0:0:0:
240,175,30971,1,8,0:0:0:0:
240,175,31071,1,8,0:0:0:0:
240,175,31271,1,8,0:0:0:0:
240,175,31371,1,0,0:0:0:0:
240,175,31471,1,8,0:0:0:0:
240,175,31571,1,8,0:0:0:0:
240,175,31671,1,0,0:0:0:0:
231,179,31871,1,0,0:0:0:0:
240,175,31971,1,8,0:0:0:0:
231,179,32171,1,0,0:0:0:0:
231,179,32471,1,8,0:0:0:0:
231,179,32571,1,0,0:0:0:0:
231,179,32771,1,8,0:0:0:0:
231,179,32871,1,0,0:0:0:0:
231,179,33171,1,8,0:0:0:0:
231,179,33471,1,8,0:0:0:0:
231,179,33671,1,8,0:0:0:0:
231,179,33771,1,0,0:0:0:0:
231,179,34071,1,8,0:0:0:0:
231,179,34371,1,8,0:0:0:0:
231,179,34571,1,0,0:0:0:0:
231,179,34671,1,8,0:0:0:0:
231,179,34971,1,4,0:0:0:0:
231,179,35171,1,8,0:0:0:0:
231,179,35271,1,8,0:0:0:0:
231,179,35471,1,8,0:0:0:0:
231,179,35571,1,0,0:0:0:0:
231,179,35771,1,0,0:0:0:0:
231,179,35871,1,0,0:0:0:0:
231,179,36071,1,0,0:0:0:0:
231,179,36171,1,8,0:0:0:0:
231,179,36271,1,8,0:0:0:0:
231,179,36371,1,8,0:0:0:0:
231,179,36471,1,0,0:0:0:0:
231,179,36671,1,0,0:0:0:0:
231,179,36771,1,8,0:0:0:0:
231,179,36971,1,0,0:0:0:0:
231,179,37271,1,0,0:0:0:0:
231,179,37371,1,8,0:0:0:0:
231,179,37571,1,8,0:0:0:0:
231,179,37671,1,0,0:0:0:0:
231,179,37971,1,8,0:0:0:0:
231,179,38171,1,0,0:0:0:0:
231,179,38271,1,8,0:0:0:0:
231,179,38471,1,0,0:0:0:0:
231,179,38571,1,8,0:0:0:0:
231,179,38671,1,8,0:0:0:0:
231,179,38771,1,0,0:0:0:0:
231,179,38871,1,8,0:0:0:0:
240,180,38971,1,8,0:0:0:0:
231,179,39071,1,0,0:0:0:0:
231,179,39171,1,8,0:0:0:0:
231,179,39371,1,8,0:0:0:0:
231,179,39471,1,0,0:0:0:0:
231,179,39571,1,0,0:0:0:0:
231,179,39671,1,8,0:0:0:0:
231,179,39771,1,4,0:0:0:0:
240,180,39971,1,0,0:0:0:0:
231,179,40071,1,8,0:0:0:0:
231,179,40271,1,8,0:0:0:0:
231,179,40371,1,0,0:0:0:0:
231,179,40571,1,8,0:0:0:0:
231,179,40671,1,0,0:0:0:0:
231,179,40971,1,0,0:0:0:0:
231,186,41171,1,0,0:0:0:0:
231,186,41271,1,8,0:0:0:0:
231,186,41571,1,0,0:0:0:0:
216,183,41771,1,0,0:0:0:0:
232,144,41871,1,8,0:0:0:0:
221,171,42171,1,8,0:0:0:0:
231,186,42371,1,8,0:0:0:0:
221,171,42471,1,0,0:0:0:0:
231,186,42771,1,8,0:0:0:0:
231,186,42921,1,0,0:0:0:0:
231,186,43071,1,0,0:0:0:0:
231,186,43221,1,0,0:0:0:0:
231,186,43371,1,12,0:0:0:0:
231,186,43671,1,8,0:0:0:0:
231,186,43971,1,8,0:0:0:0:
231,186,44071,1,0,0:0:0:0:
231,186,44171,1,0,0:0:0:0:
231,186,44271,1,8,0:0:0:0:
238,187,44571,1,8,0:0:0:0:
240,188,44721,1,0,0:0:0:0:
238,188,44871,1,8,0:0:0:0:
238,188,45021,1,0,0:0:0:0:
238,187,45171,1,8,0:0:0:0:
238,188,45321,1,8,0:0:0:0:
240,188,45471,1,0,0:0:0:0:
240,188,45621,1,8,0:0:0:0:
238,188,45771,1,0,0:0:0:0:
238,187,45921,1,0,0:0:0:0:
238,187,46071,1,8,0:0:0:0:
238,187,46221,1,0,0:0:0:0:
240,188,46371,1,8,0:0:0:0:
240,188,46446,1,8,0:0:0:0:
238,188,46521,1,0,0:0:0:0:
232,180,46596,1,0,0:0:0:0:
232,180,46671,1,8,0:0:0:0:
238,187,46821,1,0,0:0:0:0:
238,187,46971,1,8,0:0:0:0:
238,188,47571,1,0,0:0:0:0:
238,187,47721,1,0,0:0:0:0:
238,187,47871,1,0,0:0:0:0:
238,188,48021,1,0,0:0:0:0:
238,188,48171,1,8,0:0:0:0:
