osu file format v14

[General]
AudioFilename: audio.mp3
AudioLeadIn: 0
PreviewTime: 8571
Countdown: 0
SampleSet: Normal
StackLeniency: 0.7
Mode: 1
LetterboxInBreaks: 0
WidescreenStoryboard: 0

[Editor]
DistanceSpacing: 1.1
BeatDivisor: 4
GridSize: 4
TimelineZoom: 2.6

[Metadata]
Title:Mayoi ga Ongaku ni Awasete Araragi-san no Namae o Yobu Douga
TitleUnicode:真宵が音楽に合わせて阿良々木さんの名前を呼ぶ動画
Artist:fillin
ArtistUnicode:fillin
Creator:Karee Pan
Version:Muzukashii
Source:
Tags:Araragi Koyomi, Hachikuji Mayoi, Emiri Katou, Monogatari Series, Nico Nico Douga, Mog's Theme, Final Fantasy VI, ff6, MAD
BeatmapID:1300499
BeatmapSetID:616686

[Difficulty]
HPDrainRate:6
CircleSize:3
OverallDifficulty:5
ApproachRate:9
SliderMultiplier:1.4
SliderTickRate:1

[Events]
//Background and Video events
0,0,"bg.jpg",0,100
//Break Periods
//Storyboard Layer 0 (Background)
//Storyboard Layer 1 (Fail)
//Storyboard Layer 2 (Pass)
//Storyboard Layer 3 (Foreground)
//Storyboard Sound Samples

[TimingPoints]
3771,300,4,1,0,80,1,0
30171,-100,4,1,0,80,0,1
39771,-100,4,1,0,60,0,0

[Colours]
Combo1 : 206,103,0
Combo2 : 173,5,64
Combo3 : 43,65,142
Combo4 : 255,128,255

[HitObjects]
256,200,3771,5,4,0:0:0:0:
256,200,4071,1,0,0:0:0:0:
256,200,4371,1,12,0:0:0:0:
256,200,4971,1,4,0:0:0:0:
256,200,5271,1,0,0:0:0:0:
256,200,5571,1,12,0:0:0:0:
256,200,6171,1,4,0:0:0:0:
256,200,6471,1,0,0:0:0:0:
256,200,6771,1,12,0:0:0:0:
256,200,7371,1,4,0:0:0:0:
256,200,7671,1,0,0:0:0:0:
256,200,7971,1,12,0:0:0:0:
248,192,8571,5,8,0:0:0:0:
248,192,8871,1,8,0:0:0:0:
248,192,9021,1,0,0:0:0:0:
248,192,9171,1,8,0:0:0:0:
248,192,9471,1,0,0:0:0:0:
248,192,9621,1,8,0:0:0:0:
248,192,9771,1,0,0:0:0:0:
248,192,10071,1,0,0:0:0:0:
248,192,10221,1,0,0:0:0:0:
248,192,10371,1,8,0:0:0:0:
248,192,10671,1,0,0:0:0:0:
248,192,10971,1,4,0:0:0:0:
248,192,11121,1,0,0:0:0:0:
248,192,11271,1,8,0:0:0:0:
248,192,11421,1,0,0:0:0:0:
248,192,11571,1,8,0:0:0:0:
248,192,11871,1,0,0:0:0:0:
248,192,12171,1,8,0:0:0:0:
248,192,12471,1,0,0:0:0:0:
248,192,12771,1,8,0:0:0:0:
248,192,12921,1,8,0:0:0:0:
248,192,13071,1,0,0:0:0:0:
248,192,13371,1,0,0:0:0:0:
248,192,13571,1,8,0:0:0:0:
256,192,13671,1,0,0:0:0:0:
248,192,13971,1,8,0:0:0:0:
248,192,14271,1,8,0:0:0:0:
248,192,14571,1,0,0:0:0:0:
248,192,15171,1,8,0:0:0:0:
182,163,15771,1,0,0:0:0:0:
232,204,15921,1,0,0:0:0:0:
248,192,16071,1,8,0:0:0:0:
248,192,16221,1,0,0:0:0:0:
248,192,16371,1,8,0:0:0:0:
95,162,16671,1,0,0:0:0:0:
238,190,16971,1,8,0:0:0:0:
94,162,17271,1,0,0:0:0:0:
251,195,17571,1,8,0:0:0:0:
172,176,17721,1,0,0:0:0:0:
254,195,17871,1,8,0:0:0:0:
106,160,18171,1,0,0:0:0:0:
251,195,18371,1,8,0:0:0:0:
176,176,18471,1,0,0:0:0:0:
181,178,18771,1,8,0:0:0:0:
181,178,19071,1,8,0:0:0:0:
181,178,19371,1,0,0:0:0:0:
181,178,19671,1,0,0:0:0:0:
181,178,19971,1,8,0:0:0:0:
181,178,20571,1,8,0:0:0:0:
181,178,20721,1,8,0:0:0:0:
181,178,20871,1,8,0:0:0:0:
181,178,21021,1,0,0:0:0:0:
181,178,21171,1,8,0:0:0:0:
181,178,21471,1,0,0:0:0:0:
181,178,21771,1,8,0:0:0:0:
181,178,22071,1,0,0:0:0:0:
181,178,22371,1,8,0:0:0:0:
181,178,22521,1,0,0:0:0:0:
181,178,22671,1,8,0:0:0:0:
181,178,22971,1,0,0:0:0:0:
181,178,23171,1,8,0:0:0:0:
208,164,23271,1,0,0:0:0:0:
180,176,23571,1,0,0:0:0:0:
73,84,23871,1,0,0:0:0:0:
176,172,24171,1,0,0:0:0:0:
176,172,24771,1,8,0:0:0:0:
176,172,25371,1,8,0:0:0:0:
176,172,25521,1,0,0:0:0:0:
176,172,25671,1,8,0:0:0:0:
176,172,25821,1,0,0:0:0:0:
176,172,25971,1,8,0:0:0:0:
176,172,26271,1,0,0:0:0:0:
176,172,26571,1,8,0:0:0:0:
176,172,26871,1,0,0:0:0:0:
176,172,27171,1,8,0:0:0:0:
176,172,27321,1,8,0:0:0:0:
176,172,27471,1,0,0:0:0:0:
176,172,27771,1,0,0:0:0:0:
176,172,27971,1,8,0:0:0:0:
84,172,28071,1,0,0:0:0:0:
176,172,28371,1,8,0:0:0:0:
176,172,28671,1,8,0:0:0:0:
176,172,28971,1,0,0:0:0:0:
176,172,29271,1,0,0:0:0:0:
176,172,29571,1,8,0:0:0:0:
349,206,30171,1,4,0:0:0:0:
163,206,30371,1,8,0:0:0:0:
163,206,30471,1,0,0:0:0:0:
349,206,30771,1,8,0:0:0:0:
349,206,31071,1,0,0:0:0:0:
349,206,31371,1,8,0:0:0:0:
349,206,31571,1,8,0:0:0:0:
349,206,31671,1,0,0:0:0:0:
349,206,31971,1,8,0:0:0:0:
336,200,32471,1,8,0:0:0:0:
288,152,32571,1,0,0:0:0:0:
349,206,32871,1,0,0:0:0:0:
349,206,33171,1,8,0:0:0:0:
349,206,33471,1,8,0:0:0:0:
349,206,33671,1,8,0:0:0:0:
349,206,33771,1,0,0:0:0:0:
349,206,34071,1,0,0:0:0:0:
349,206,34371,1,8,0:0:0:0:
349,206,34971,1,4,0:0:0:0:
349,206,35171,1,8,0:0:0:0:
349,206,35271,1,0,0:0:0:0:
349,206,35571,1,8,0:0:0:0:
349,206,35871,1,0,0:0:0:0:
384,208,36171,1,8,0:0:0:0:
349,206,36371,1,8,0:0:0:0:
349,206,36471,1,0,0:0:0:0:
349,206,36671,1,0,0:0:0:0:
312,202,36771,1,8,0:0:0:0:
337,212,36996,1,0,0:0:0:0:
349,206,37271,1,0,0:0:0:0:
343,202,37371,1,8,0:0:0:0:
349,206,37671,1,0,0:0:0:0:
349,206,37971,1,8,0:0:0:0:
349,206,38271,1,8,0:0:0:0:
349,206,38471,1,8,0:0:0:0:
172,176,38571,1,0,0:0:0:0:
349,206,38871,1,0,0:0:0:0:
349,206,39171,1,8,0:0:0:0:
349,206,39371,1,8,0:0:0:0:
349,206,39471,1,0,0:0:0:0:
349,206,39771,1,4,0:0:0:0:
284,188,40071,1,8,0:0:0:0:
326,182,40371,1,0,0:0:0:0:
148,163,40571,1,8,0:0:0:0:
148,163,40671,1,0,0:0:0:0:
176,172,40971,1,0,0:0:0:0:
192,168,41171,1,0,0:0:0:0:
176,172,41271,1,8,0:0:0:0:
176,172,41571,1,0,0:0:0:0:
176,172,42171,1,8,0:0:0:0:
176,172,42471,1,0,0:0:0:0:
176,172,42771,1,8,0:0:0:0:
176,172,42921,1,0,0:0:0:0:
176,172,43071,1,0,0:0:0:0:
176,172,43221,1,0,0:0:0:0:
176,172,43371,1,12,0:0:0:0:
176,172,43671,1,0,0:0:0:0:
176,172,43971,1,8,0:0:0:0:
176,172,44271,1,8,0:0:0:0:
176,172,44571,1,8,0:0:0:0:
176,172,44721,1,0,0:0:0:0:
176,172,44871,1,8,0:0:0:0:
176,172,45021,1,0,0:0:0:0:
176,172,45171,1,8,0:0:0:0:
7,192,45471,1,8,0:0:0:0:
80,183,45621,1,8,0:0:0:0:
80,183,45771,1,0,0:0:0:0:
80,183,46071,1,0,0:0:0:0:
80,183,46221,1,0,0:0:0:0:
80,183,46371,1,8,0:0:0:0:
80,183,46671,1,0,0:0:0:0:
80,183,46971,1,8,0:0:0:0:
80,183,47571,1,0,0:0:0:0:
80,183,47721,1,0,0:0:0:0:
80,183,47871,1,0,0:0:0:0:
80,183,48021,1,0,0:0:0:0:
80,183,48171,1,8,0:0:0:0:
