osu file format v14

[General]
AudioFilename: audio.mp3
AudioLeadIn: 0
PreviewTime: 8571
Countdown: 0
SampleSet: Normal
StackLeniency: 0.7
Mode: 1
LetterboxInBreaks: 0
WidescreenStoryboard: 0

[Editor]
DistanceSpacing: 1.1
BeatDivisor: 4
GridSize: 4
TimelineZoom: 2.6

[Metadata]
Title:Mayoi ga Ongaku ni Awasete Araragi-san no Namae o Yobu Douga
TitleUnicode:真宵が音楽に合わせて阿良々木さんの名前を呼ぶ動画
Artist:fillin
ArtistUnicode:fillin
Creator:Karee Pan
Version:Kantan
Source:
Tags:Araragi Koyomi, Hachikuji Mayoi, Emiri Katou, Monogatari Series, Nico Nico Douga, Mog's Theme, Final Fantasy VI, ff6, MAD
BeatmapID:1300498
BeatmapSetID:616686

[Difficulty]
HPDrainRate:8
CircleSize:3
OverallDifficulty:3
ApproachRate:9
SliderMultiplier:1.4
SliderTickRate:1

[Events]
//Background and Video events
0,0,"bg.jpg",0,100
//Break Periods
//Storyboard Layer 0 (Background)
//Storyboard Layer 1 (Fail)
//Storyboard Layer 2 (Pass)
//Storyboard Layer 3 (Foreground)
//Storyboard Sound Samples

[TimingPoints]
3771,300,4,1,0,80,1,0
30171,-100,4,1,0,80,0,1
39771,-100,4,1,0,60,0,0

[Colours]
Combo1 : 206,103,0
Combo2 : 173,5,64
Combo3 : 43,65,142
Combo4 : 255,128,255

[HitObjects]
252,192,3771,5,4,0:0:0:0:
252,192,4371,1,8,0:0:0:0:
252,192,4971,1,4,0:0:0:0:
260,200,5571,1,8,0:0:0:0:
252,192,6171,1,4,0:0:0:0:
252,192,6771,1,8,0:0:0:0:
252,192,7371,1,4,0:0:0:0:
252,192,7971,1,8,0:0:0:0:
252,192,8571,5,8,0:0:0:0:
252,192,9171,1,0,0:0:0:0:
252,192,9771,1,0,0:0:0:0:
252,192,10071,1,8,0:0:0:0:
252,192,10371,1,0,0:0:0:0:
252,192,10971,1,4,0:0:0:0:
252,192,11571,1,8,0:0:0:0:
252,192,12171,1,8,0:0:0:0:
252,192,12471,1,0,0:0:0:0:
252,192,12771,1,8,0:0:0:0:
216,184,13371,1,0,0:0:0:0:
240,200,13971,1,8,0:0:0:0:
240,200,14271,1,8,0:0:0:0:
252,192,14571,1,0,0:0:0:0:
252,192,15771,1,0,0:0:0:0:
252,192,16371,1,8,0:0:0:0:
252,192,16971,1,8,0:0:0:0:
216,172,17271,1,0,0:0:0:0:
252,192,17571,1,8,0:0:0:0:
252,192,18171,1,0,0:0:0:0:
252,192,18771,1,8,0:0:0:0:
240,204,19071,1,0,0:0:0:0:
252,192,19371,1,0,0:0:0:0:
248,192,20571,1,0,0:0:0:0:
248,192,21171,1,8,0:0:0:0:
248,192,21771,1,8,0:0:0:0:
248,192,22071,1,0,0:0:0:0:
248,192,22371,1,8,0:0:0:0:
248,192,22971,1,0,0:0:0:0:
248,192,23571,1,0,0:0:0:0:
256,188,23871,1,0,0:0:0:0:
248,192,24171,1,0,0:0:0:0:
248,192,25371,1,0,0:0:0:0:
248,192,25971,1,8,0:0:0:0:
248,192,26571,1,8,0:0:0:0:
248,192,26871,1,0,0:0:0:0:
256,200,27171,1,8,0:0:0:0:
248,192,27771,1,0,0:0:0:0:
248,192,28371,1,0,0:0:0:0:
248,192,28671,1,8,0:0:0:0:
248,192,28971,1,0,0:0:0:0:
248,192,30171,1,4,0:0:0:0:
248,192,30771,1,8,0:0:0:0:
248,192,31371,1,0,0:0:0:0:
248,192,31671,1,8,0:0:0:0:
248,192,31971,1,0,0:0:0:0:
248,192,32571,1,0,0:0:0:0:
248,192,33171,1,8,0:0:0:0:
248,192,33471,1,0,0:0:0:0:
248,192,33771,1,8,0:0:0:0:
248,192,34971,1,4,0:0:0:0:
248,192,35571,1,8,0:0:0:0:
248,192,36171,1,8,0:0:0:0:
248,192,36471,1,0,0:0:0:0:
248,192,36771,1,8,0:0:0:0:
248,192,37371,1,8,0:0:0:0:
248,192,37671,1,8,0:0:0:0:
248,192,37971,1,0,0:0:0:0:
248,192,38571,1,0,0:0:0:0:
248,192,39171,1,0,0:0:0:0:
244,184,39471,1,8,0:0:0:0:
260,188,39771,1,4,0:0:0:0:
248,192,40371,1,8,0:0:0:0:
248,192,40971,1,0,0:0:0:0:
248,192,41271,1,8,0:0:0:0:
248,192,41571,1,0,0:0:0:0:
248,192,42171,1,0,0:0:0:0:
248,192,42771,1,8,0:0:0:0:
248,192,43071,1,0,0:0:0:0:
248,192,43371,1,12,0:0:0:0:
248,192,44571,1,8,0:0:0:0:
228,180,44871,1,8,0:0:0:0:
248,192,45171,1,0,0:0:0:0:
248,192,45771,1,0,0:0:0:0:
248,192,46071,1,8,0:0:0:0:
248,192,46371,1,0,0:0:0:0:
248,192,46971,1,8,0:0:0:0:
248,192,48171,1,8,0:0:0:0:
