osu file format v14

[General]
AudioFilename: audio.mp3
AudioLeadIn: 0
PreviewTime: 8571
Countdown: 0
SampleSet: Normal
StackLeniency: 0.7
Mode: 1
LetterboxInBreaks: 0
WidescreenStoryboard: 0

[Editor]
DistanceSpacing: 1.1
BeatDivisor: 1
GridSize: 4
TimelineZoom: 2.6

[Metadata]
Title:Mayoi ga Ongaku ni Awasete Araragi-san no Namae o Yobu Douga
TitleUnicode:真宵が音楽に合わせて阿良々木さんの名前を呼ぶ動画
Artist:fillin
ArtistUnicode:fillin
Creator:Karee Pan
Version:Futsuu
Source:
Tags:Araragi Koyomi, Hachikuji Mayoi, Emiri Katou, Monogatari Series, Nico Nico Douga, Mog's Theme, Final Fantasy VI, ff6, MAD
BeatmapID:1300497
BeatmapSetID:616686

[Difficulty]
HPDrainRate:7
CircleSize:3
OverallDifficulty:4
ApproachRate:9
SliderMultiplier:1.4
SliderTickRate:1

[Events]
//Background and Video events
0,0,"bg.jpg",0,100
//Break Periods
//Storyboard Layer 0 (Background)
//Storyboard Layer 1 (Fail)
//Storyboard Layer 2 (Pass)
//Storyboard Layer 3 (Foreground)
//Storyboard Sound Samples

[TimingPoints]
3771,300,4,1,0,80,1,0
30171,-100,4,1,0,80,0,1
39471,-100,4,1,0,60,0,0

[Colours]
Combo1 : 206,103,0
Combo2 : 173,5,64
Combo3 : 43,65,142
Combo4 : 255,128,255

[HitObjects]
244,192,3771,5,4,0:0:0:0:
244,192,4371,1,12,0:0:0:0:
244,192,4971,1,4,0:0:0:0:
244,192,5271,1,0,0:0:0:0:
244,192,5571,1,12,0:0:0:0:
244,192,6171,1,4,0:0:0:0:
244,192,6771,1,12,0:0:0:0:
244,192,7371,1,4,0:0:0:0:
244,192,7671,1,0,0:0:0:0:
244,192,7971,1,12,0:0:0:0:
244,192,8571,1,0,0:0:0:0:
244,192,9171,1,0,0:0:0:0:
244,192,9471,1,8,0:0:0:0:
244,192,9771,1,0,0:0:0:0:
244,192,10371,1,0,0:0:0:0:
252,199,10971,1,4,0:0:0:0:
252,199,11271,1,0,0:0:0:0:
252,199,11421,1,0,0:0:0:0:
252,199,11571,1,8,0:0:0:0:
252,199,11871,1,0,0:0:0:0:
252,199,12171,1,8,0:0:0:0:
252,199,12771,1,8,0:0:0:0:
252,199,13071,1,0,0:0:0:0:
252,199,13371,1,0,0:0:0:0:
252,199,13521,1,8,0:0:0:0:
252,199,13671,1,0,0:0:0:0:
252,199,13971,1,0,0:0:0:0:
252,199,14271,1,8,0:0:0:0:
252,199,14571,1,0,0:0:0:0:
244,184,15171,1,8,0:0:0:0:
252,199,15771,1,0,0:0:0:0:
252,199,16071,1,0,0:0:0:0:
252,199,16221,1,0,0:0:0:0:
252,199,16371,1,8,0:0:0:0:
252,199,16671,1,0,0:0:0:0:
252,199,16971,1,8,0:0:0:0:
252,199,17571,1,0,0:0:0:0:
252,199,17871,1,8,0:0:0:0:
260,191,18171,1,0,0:0:0:0:
252,199,18321,1,8,0:0:0:0:
252,199,18471,1,0,0:0:0:0:
252,199,18771,1,8,0:0:0:0:
252,199,19071,1,8,0:0:0:0:
260,191,19371,1,0,0:0:0:0:
244,184,19971,1,8,0:0:0:0:
260,191,20571,1,8,0:0:0:0:
260,191,20871,1,8,0:0:0:0:
260,191,21021,1,0,0:0:0:0:
260,191,21171,1,8,0:0:0:0:
260,191,21471,1,0,0:0:0:0:
260,191,21771,1,8,0:0:0:0:
260,191,22371,1,8,0:0:0:0:
260,191,22671,1,8,0:0:0:0:
260,191,22971,1,0,0:0:0:0:
260,191,23121,1,8,0:0:0:0:
260,191,23271,1,0,0:0:0:0:
260,191,23571,1,8,0:0:0:0:
260,191,23871,1,0,0:0:0:0:
260,191,24171,1,0,0:0:0:0:
244,184,24771,1,8,0:0:0:0:
260,191,25371,1,8,0:0:0:0:
260,191,25671,1,8,0:0:0:0:
260,191,25821,1,0,0:0:0:0:
260,191,25971,1,8,0:0:0:0:
260,191,26271,1,0,0:0:0:0:
260,191,26571,1,8,0:0:0:0:
260,191,27171,1,8,0:0:0:0:
260,191,27471,1,0,0:0:0:0:
260,191,27771,1,0,0:0:0:0:
260,191,27921,1,8,0:0:0:0:
260,191,28071,1,0,0:0:0:0:
260,191,28371,1,8,0:0:0:0:
260,191,28671,1,8,0:0:0:0:
260,191,28971,1,0,0:0:0:0:
264,185,30171,1,4,0:0:0:0:
264,185,30471,1,0,0:0:0:0:
264,185,30771,1,8,0:0:0:0:
271,183,31071,1,0,0:0:0:0:
273,184,31371,1,8,0:0:0:0:
264,185,31521,1,0,0:0:0:0:
258,179,31671,1,8,0:0:0:0:
264,185,31971,1,0,0:0:0:0:
264,185,32571,1,0,0:0:0:0:
264,185,32871,1,0,0:0:0:0:
264,185,33171,1,8,0:0:0:0:
264,185,33471,1,8,0:0:0:0:
264,185,33621,1,8,0:0:0:0:
270,186,33771,1,0,0:0:0:0:
272,196,34371,1,8,0:0:0:0:
270,186,34971,1,4,0:0:0:0:
270,186,35271,1,0,0:0:0:0:
270,186,35571,1,8,0:0:0:0:
270,186,35871,1,0,0:0:0:0:
270,186,36171,1,8,0:0:0:0:
270,186,36321,1,0,0:0:0:0:
270,186,36471,1,8,0:0:0:0:
270,186,36771,1,0,0:0:0:0:
270,186,37371,1,0,0:0:0:0:
289,185,37521,1,8,0:0:0:0:
270,186,37671,1,0,0:0:0:0:
270,186,37971,1,8,0:0:0:0:
270,186,38271,1,8,0:0:0:0:
278,185,38571,1,0,0:0:0:0:
278,185,38871,1,0,0:0:0:0:
280,185,39171,1,8,0:0:0:0:
259,175,39471,1,8,0:0:0:0:
278,185,39771,1,4,0:0:0:0:
278,185,40371,1,0,0:0:0:0:
278,185,40521,1,8,0:0:0:0:
278,185,40671,1,0,0:0:0:0:
280,185,40971,1,0,0:0:0:0:
286,183,41271,1,8,0:0:0:0:
286,183,41571,1,0,0:0:0:0:
286,183,42171,1,0,0:0:0:0:
286,183,42471,1,8,0:0:0:0:
286,183,42771,1,8,0:0:0:0:
286,183,43071,1,0,0:0:0:0:
291,158,43221,1,0,0:0:0:0:
286,183,43371,1,12,0:0:0:0:
257,200,44571,1,8,0:0:0:0:
257,200,44871,1,0,0:0:0:0:
257,200,45171,1,8,0:0:0:0:
257,200,45471,1,8,0:0:0:0:
257,200,45621,1,8,0:0:0:0:
257,200,45771,1,0,0:0:0:0:
257,200,46071,1,0,0:0:0:0:
257,200,46371,1,8,0:0:0:0:
257,200,46671,1,0,0:0:0:0:
257,200,46971,1,8,0:0:0:0:
257,200,47571,1,0,0:0:0:0:
257,200,47721,1,0,0:0:0:0:
257,200,47871,1,0,0:0:0:0:
257,200,48171,1,8,0:0:0:0:
