osu file format v14

[General]
AudioFilename: Araragi.mp3
AudioLeadIn: 0
PreviewTime: -1
Countdown: 0
SampleSet: Normal
StackLeniency: 1
Mode: 0
LetterboxInBreaks: 1
WidescreenStoryboard: 1

[Editor]
DistanceSpacing: 1.6
BeatDivisor: 4
GridSize: 8
TimelineZoom: 1

[Metadata]
Title:Araragi-san
TitleUnicode:Araragi-san
Artist:fillin
ArtistUnicode:fillin
Creator:Polarni
Version:Hard
Source:bakemonogatari
Tags:bakemonogatari Araragi-san
BeatmapID:888956
BeatmapSetID:409508

[Difficulty]
HPDrainRate:6
CircleSize:4
OverallDifficulty:6
ApproachRate:6
SliderMultiplier:1.4
SliderTickRate:1

[Events]
//Background and Video events
0,0,"bakemonogatari.jpg",0,0
//Break Periods
//Storyboard Layer 0 (Background)
//Storyboard Layer 1 (Fail)
//Storyboard Layer 2 (Pass)
//Storyboard Layer 3 (Foreground)
//Storyboard Sound Samples

[TimingPoints]
6847,600,4,1,0,100,1,0
33247,-100,4,1,0,100,0,1
47347,-100,4,1,0,100,0,0

[Colours]
Combo1 : 255,255,0
Combo2 : 0,0,128
Combo3 : 0,255,0
Combo4 : 255,128,0

[HitObjects]
88,304,6847,5,8,0:0:0:0:
200,280,7147,1,8,0:0:0:0:
136,184,7447,1,0,0:0:0:0:
336,288,8047,5,8,0:0:0:0:
376,184,8347,1,8,0:0:0:0:
264,208,8647,1,0,0:0:0:0:
72,88,9247,5,8,0:0:0:0:
104,200,9547,1,8,0:0:0:0:
184,120,9847,1,0,0:0:0:0:
312,304,10447,5,8,0:0:0:0:
320,192,10747,1,8,0:0:0:0:
408,264,11047,1,0,0:0:0:0:
296,72,11647,5,0,0:0:0:0:
248,104,11797,1,0,0:0:0:0:
224,152,11947,1,0,0:0:0:0:
232,208,12097,1,0,0:0:0:0:
248,264,12247,1,0,0:0:0:0:
352,304,12547,5,0,0:0:0:0:
352,248,12697,1,0,0:0:0:0:
352,192,12847,1,0,0:0:0:0:
240,208,13147,5,0,0:0:0:0:
216,160,13297,1,0,0:0:0:0:
216,104,13447,1,0,0:0:0:0:
248,64,13597,1,0,0:0:0:0:
296,40,13747,1,4,0:0:0:0:
296,152,14047,6,0,L|304:96,4,35
184,128,14947,5,0,0:0:0:0:
136,152,15097,1,0,0:0:0:0:
88,184,15247,1,0,0:0:0:0:
112,72,15547,6,0,L|88:104,4,35
224,88,16447,5,0,0:0:0:0:
296,168,16747,2,2,B|224:184|256:256|304:232|392:112|256:248,1,210
152,256,17947,5,0,0:0:0:0:
176,144,18247,1,0,0:0:0:0:
272,88,18547,1,0,0:0:0:0:
264,200,18847,6,0,L|272:144,4,35
160,160,19747,5,0,0:0:0:0:
160,160,19897,1,0,0:0:0:0:
160,160,20047,1,0,0:0:0:0:
160,160,20347,6,0,L|136:192,4,35
272,160,21247,5,0,0:0:0:0:
160,168,21547,2,2,B|88:184|120:256|168:232|256:112|120:248,1,210
192,152,22747,5,0,0:0:0:0:
248,128,22897,1,0,0:0:0:0:
304,120,23047,1,0,0:0:0:0:
360,136,23197,1,0,0:0:0:0:
408,160,23347,1,4,0:0:0:0:
312,216,23647,6,0,L|320:160,4,35
312,328,24547,5,0,0:0:0:0:
256,328,24697,1,0,0:0:0:0:
208,296,24847,1,0,0:0:0:0:
304,240,25147,6,0,L|280:272,4,35
208,152,26047,5,0,0:0:0:0:
296,176,26347,2,2,B|224:192|256:264|304:240|392:120|256:256,1,210
152,264,27547,5,0,0:0:0:0:
96,168,27847,1,0,0:0:0:0:
208,176,28147,1,0,0:0:0:0:
280,264,28447,6,0,L|288:208,4,35
336,168,29347,5,0,0:0:0:0:
344,112,29497,1,0,0:0:0:0:
352,56,29647,1,0,0:0:0:0:
256,112,29947,6,0,L|232:144,4,35
168,184,30847,5,0,0:0:0:0:
272,224,31147,2,2,B|200:240|232:312|280:288|368:168|232:304,1,210
144,240,32347,5,0,0:0:0:0:
144,240,32497,1,0,0:0:0:0:
192,208,32647,1,0,0:0:0:0:
192,208,32797,1,0,0:0:0:0:
200,264,32947,1,4,0:0:0:0:
104,200,33247,6,0,L|112:128,1,70
168,128,33697,1,0,0:0:0:0:
224,128,33847,2,0,L|240:208,1,70
296,200,34297,1,0,0:0:0:0:
352,200,34447,2,0,L|400:128,2,70
128,240,35647,6,2,B|56:128|176:224|144:120,2,140
240,224,37147,5,0,0:0:0:0:
344,184,37447,1,0,0:0:0:0:
336,128,37597,1,0,0:0:0:0:
328,72,37747,1,0,0:0:0:0:
272,168,38047,6,0,L|272:96,1,70
272,98,38497,1,0,0:0:0:0:
272,98,38647,2,0,L|184:98,1,70
202,98,39097,1,0,0:0:0:0:
202,98,39247,2,0,L|201:184,2,70
128,240,40447,6,2,B|56:128|176:224|144:120,3,140
240,200,42547,1,0,0:0:0:0:
136,248,42847,6,2,B|56:232|168:336|40:256|96:168,1,140
144,192,43597,1,0,0:0:0:0:
200,192,43747,1,0,0:0:0:0:
288,264,44047,5,0,0:0:0:0:
328,160,44347,1,0,0:0:0:0:
224,120,44647,1,0,0:0:0:0:
200,168,44797,2,0,L|184:216,2,35
256,184,45247,1,0,0:0:0:0:
88,328,45847,2,2,B|80:264|120:304|104:240|136:360|176:256,1,140
224,160,46747,5,0,0:0:0:0:
320,216,47047,1,0,0:0:0:0:
368,192,47197,1,0,0:0:0:0:
416,160,47347,1,0,0:0:0:0:
312,120,47647,6,0,L|272:80,3,35
240,128,48247,1,8,0:0:0:0:
192,160,48397,6,0,L|224:192,2,35
176,104,48847,1,8,0:0:0:0:
232,104,48997,6,0,L|280:136,2,35
208,152,49447,1,8,0:0:0:0:
224,208,49597,6,0,L|264:224,2,35
168,200,50047,1,0,0:0:0:0:
392,216,50647,6,0,L|376:272,3,35
344,208,51247,1,12,0:0:0:0:
