osu file format v14

[General]
AudioFilename: audio.mp3
AudioLeadIn: 0
PreviewTime: 2852
Countdown: 0
SampleSet: Soft
StackLeniency: 0.7
Mode: 2
LetterboxInBreaks: 0
WidescreenStoryboard: 1

[Editor]
DistanceSpacing: 2.5
BeatDivisor: 4
GridSize: 16
TimelineZoom: 1.9

[Metadata]
Title:Morrissey
TitleUnicode:Morrissey
Artist:fiend
ArtistUnicode:fiend
Creator:OneShotFox
Version:Overdose
Source:
Tags:feind morissey english hip hop experimental drum and bass dnb breakcore jungle fever dream i cannot fucking wait until dies electronic Liyac Wanpachi Cycopton rew0825 wonjae paranoid grapes californian darknessofblue cyanine
BeatmapID:2947810
BeatmapSetID:1432225

[Difficulty]
HPDrainRate:6
CircleSize:4.1
OverallDifficulty:9.3
ApproachRate:9.3
SliderMultiplier:1.9
SliderTickRate:2

[Events]
//Background and Video events
0,0,"cover.jpg",0,0
//Break Periods
//Storyboard Layer 0 (Background)
//Storyboard Layer 1 (Fail)
//Storyboard Layer 2 (Pass)
//Storyboard Layer 3 (Foreground)
//Storyboard Layer 4 (Overlay)
//Storyboard Sound Samples

[TimingPoints]
-2745,352.941176470588,4,2,2,60,1,0
2902,-100,4,2,2,50,0,0
8549,-66.6666666666667,4,2,1,65,0,1
14196,-100,4,2,2,50,0,0
19843,-66.6666666666667,4,2,1,65,0,1
25490,-100,4,2,5,65,0,0
25843,-100,4,2,2,50,0,0
31137,-66.6666666666667,4,2,1,65,0,1
36784,-100,4,2,2,70,0,0
42431,-66.6666666666667,4,2,1,65,0,1
48078,-83.3333333333333,4,2,2,65,0,0
48431,-100,4,2,1,65,0,0
49137,-100,4,2,2,55,0,0
53725,-66.6666666666667,4,2,1,65,0,1
59372,-100,4,2,2,65,0,0
62196,-100,4,2,1,40,0,0
63607,-100,4,2,2,50,0,0
64226,-100,4,2,2,45,0,0
64314,-100,4,2,2,40,0,0
64402,-100,4,2,2,35,0,0
64490,-100,4,2,2,30,0,0
64578,-100,4,2,2,25,0,0
64667,-100,4,2,2,20,0,0
64755,-100,4,2,2,10,0,0
64843,-100,4,2,2,5,0,0
65019,-71.4285714285714,4,2,1,65,0,0
72784,-90.9090909090909,4,2,1,70,0,0

[Colours]
Combo1 : 164,164,164
Combo2 : 117,162,148
Combo3 : 221,85,85

[HitObjects]
79,213,78,5,2,0:2:0:0:
250,178,254,2,0,P|161:145|5:125,5,237.5,0|0|0|0|0|0,3:2|3:2|3:2|3:2|3:2|3:2,3:2:0:0:
321,75,2902,6,0,L|410:28,1,95,2|2,3:2|3:2,0:0:0:0:
121,42,3254,2,0,L|20:20,1,95,10|0,0:2|0:2,0:2:0:0:
185,131,3607,2,0,L|84:109,1,95,2|0,0:2|0:2,0:2:0:0:
280,189,3960,2,0,L|381:167,1,95,10|0,0:2|0:2,0:2:0:0:
216,278,4313,6,0,L|317:256,1,95,2|0,0:2|0:2,0:2:0:0:
397,326,4666,1,8,0:2:0:0:
499,303,4843,1,0,0:2:0:0:
302,101,5019,2,0,L|195:103,2,95,2|2|10,0:2|0:2|0:2,0:0:0:0:
68,56,5725,6,0,L|69:164,1,95,2|0,0:2|0:2,0:2:0:0:
255,261,6078,1,10,0:2:0:0:
148,260,6254,1,2,0:2:0:0:
404,256,6431,2,0,L|443:227,1,47.5,2|0,0:2|0:0,0:0:0:0:
398,204,6607,1,0,0:0:0:0:
159,195,6784,1,10,0:2:0:0:
466,80,7137,6,2,B|482:130|467:178|467:178|446:131|461:79,1,190,4|8,3:2|0:2,0:2:0:0:
352,60,7666,1,2,0:2:0:0:
225,60,7843,1,2,0:2:0:0:
352,60,8019,1,2,0:2:0:0:
225,60,8196,1,10,0:2:0:0:
390,61,8372,1,2,3:2:0:0:
129,168,8549,5,6,3:2:0:0:
79,175,8637,1,0,0:2:0:0:
42,208,8725,1,0,0:2:0:0:
45,257,8813,1,0,0:2:0:0:
84,288,8902,1,8,0:2:0:0:
133,285,8990,1,0,0:2:0:0:
379,226,9078,2,2,L|367:147,1,71.2500027179719,2|10,0:2|0:2,0:0:0:0:
199,183,9254,6,0,L|219:90,1,71.2500027179719,2|8,3:2|3:2,0:2:0:0:
427,129,9431,2,0,L|402:44,1,71.2500027179719,2|0,3:2|0:2,0:2:0:0:
212,303,9607,2,0,P|290:315|380:341,1,142.500005435944,10|2,0:2|3:2,0:2:0:0:
65,355,9960,6,0,L|16:195,1,142.500005435944,2|2,3:2|0:2,0:2:0:0:
276,230,10313,1,10,3:2:0:0:
37,113,10490,1,2,0:2:0:0:
20,71,10578,1,8,0:2:0:0:
104,69,10666,6,0,L|118:0,1,71.2500027179719,2|8,3:2|0:2,0:0:0:0:
15,198,10843,2,0,P|91:182|160:178,1,142.500005435944,0|10,3:2|0:2,0:2:0:0:
413,274,11196,1,0,3:2:0:0:
140,373,11372,6,0,P|87:296|214:273,1,213.750008153916,6|0,3:2|0:2,0:2:0:0:
416,348,11725,2,0,P|457:293|459:220,1,142.500005435944,8|0,0:2|0:2,0:2:0:0:
431,183,11990,1,8,0:2:0:0:
356,187,12078,5,2,3:2:0:0:
431,183,12166,2,0,L|496:152,2,71.2500027179719,8|0|0,0:2|3:2|0:2,0:0:0:0:
181,116,12431,2,0,L|161:28,1,71.2500027179719,10|2,0:2|0:2,0:2:0:0:
389,89,12607,2,0,L|409:1,1,71.2500027179719,0|0,0:2|0:2,0:0:0:0:
114,172,12784,6,0,P|136:94|221:67,1,142.500005435944,2|0,3:2|0:2,0:2:0:0:
457,306,13137,1,10,0:2:0:0:
244,338,13225,1,2,0:2:0:0:
224,295,13313,1,0,0:2:0:0:
268,262,13402,1,8,0:2:0:0:
72,245,13490,5,2,3:2:0:0:
24,231,13578,1,8,0:2:0:0:
30,181,13667,1,0,3:2:0:0:
81,178,13754,1,0,0:2:0:0:
321,149,13843,2,0,L|304:69,1,71.2500027179719,10|0,0:2|0:2,0:0:0:0:
113,82,14019,2,0,L|140:0,1,71.2500027179719,0|0,3:2|0:2,0:2:0:0:
384,328,14196,6,0,L|282:317,1,95,2|0,0:2|0:2,0:2:0:0:
144,254,14549,1,10,0:2:0:0:
144,254,14725,1,2,0:2:0:0:
459,247,14902,2,0,P|479:204|445:154,1,95,2|0,0:2|0:2,0:2:0:0:
216,152,15254,2,0,L|310:152,1,95,10|0,0:2|0:2,0:2:0:0:
469,153,15607,5,0,0:2:0:0:
384,152,15784,1,0,0:2:0:0:
469,153,15960,1,8,0:2:0:0:
396,152,16137,1,0,0:2:0:0:
236,22,16313,2,0,L|128:53,1,95,2|2,0:2|0:2,0:0:0:0:
268,21,16666,1,10,0:2:0:0:
268,21,16843,1,2,0:2:0:0:
31,179,17019,5,2,0:2:0:0:
202,181,17196,1,0,0:0:0:0:
95,182,17372,1,8,0:2:0:0:
181,181,17549,1,0,0:2:0:0:
43,354,17725,1,2,0:2:0:0:
43,354,17813,1,2,0:2:0:0:
43,354,17902,1,2,0:2:0:0:
192,354,18078,1,10,0:2:0:0:
332,349,18254,1,2,0:2:0:0:
14,249,18431,6,0,L|108:252,1,95,2|2,0:2|0:2,0:2:0:0:
249,130,18784,1,10,0:2:0:0:
127,132,18960,1,2,0:2:0:0:
369,122,19137,1,2,0:2:0:0:
411,119,19225,1,0,0:0:0:0:
369,122,19313,1,2,0:2:0:0:
117,47,19490,2,0,B|64:44|64:44|118:46,1,95,6|0,3:2|0:0,0:2:0:0:
406,39,19843,5,6,3:2:0:0:
442,98,19931,1,0,0:2:0:0:
427,166,20019,1,0,0:2:0:0:
369,204,20107,1,0,0:2:0:0:
301,192,20195,1,8,0:2:0:0:
260,136,20284,1,0,0:2:0:0:
269,67,20372,1,0,0:2:0:0:
324,24,20460,1,8,0:2:0:0:
474,294,20549,6,0,L|506:204,1,71.2500027179719,2|8,3:2|0:2,0:2:0:0:
274,347,20725,2,0,L|306:257,1,71.2500027179719,2|0,3:2|0:2,0:2:0:0:
452,159,20902,1,10,0:2:0:0:
483,128,20990,1,2,0:2:0:0:
443,98,21078,1,0,0:2:0:0:
147,257,21254,5,2,3:2:0:0:
269,242,21431,1,2,0:2:0:0:
87,126,21607,2,0,L|70:45,1,71.2500027179719,10|0,0:2|0:2,0:2:0:0:
234,117,21784,2,0,L|251:36,1,71.2500027179719,2|8,0:2|0:2,0:2:0:0:
408,203,21960,5,2,3:2:0:0:
436,220,22049,1,10,0:2:0:0:
433,253,22137,1,2,3:2:0:0:
401,270,22225,1,0,0:2:0:0:
108,49,22313,2,0,P|60:136|119:226,1,213.750008153916,10|0,0:2|0:2,0:2:0:0:
319,108,22666,5,0,3:2:0:0:
367,119,22754,1,0,0:2:0:0:
366,169,22843,1,0,0:2:0:0:
291,189,22931,1,0,0:2:0:0:
63,144,23019,2,0,B|14:143|15:80|15:80|43:34|126:31,1,213.750008153916,10|8,0:2|0:2,0:2:0:0:
286,199,23372,5,2,3:2:0:0:
229,192,23460,1,10,0:2:0:0:
171,184,23549,1,2,3:2:0:0:
415,179,23725,1,10,0:2:0:0:
457,141,23813,1,2,0:2:0:0:
499,101,23902,1,2,0:2:0:0:
212,330,24078,5,2,3:2:0:0:
472,319,24254,1,2,0:2:0:0:
315,315,24431,2,0,L|275:156,1,142.500005435944,10|2,0:2|0:2,0:2:0:0:
432,116,24696,2,0,L|449:46,1,71.2500027179719,8|2,0:2|3:2,0:0:0:0:
234,142,24872,2,0,P|184:69|208:0,1,142.500005435944,10|0,0:2|0:2,0:0:0:0:
438,218,25137,2,0,L|460:135,1,71.2500027179719,10|0,0:2|0:2,0:2:0:0:
263,291,25313,2,0,L|241:208,1,71.2500027179719,0|0,0:2|0:2,0:0:0:0:
9,384,25490,5,12,3:0:0:0:
236,348,25843,1,2,0:2:0:0:
83,349,26196,1,2,0:2:0:0:
350,371,26549,1,2,0:2:0:0:
117,279,26902,5,0,0:2:0:0:
315,281,27078,1,0,0:2:0:0:
225,281,27254,1,8,0:2:0:0:
342,277,27431,1,0,0:2:0:0:
105,285,27607,2,0,P|90:237|110:187,1,95,2|2,0:2|0:2,0:0:0:0:
350,121,27960,2,0,B|444:120,1,95,10|0,0:2|0:2,0:2:0:0:
254,118,28313,5,0,0:0:0:0:
102,37,28490,1,0,0:2:0:0:
222,40,28666,1,8,0:2:0:0:
102,37,28843,1,0,0:2:0:0:
337,171,29019,5,2,0:2:0:0:
190,170,29196,1,2,0:2:0:0:
337,171,29372,1,10,0:2:0:0:
216,171,29549,1,2,0:2:0:0:
450,170,29725,5,2,0:2:0:0:
276,173,29902,1,2,0:2:0:0:
400,171,30078,1,10,0:2:0:0:
287,299,30254,1,2,0:2:0:0:
419,325,30431,2,0,P|475:279|425:252,1,142.5,2|0,0:2|0:2,0:2:0:0:
315,258,30784,2,0,P|259:212|309:185,1,142.5,10|0,0:2|0:0,0:2:0:0:
449,163,31137,5,6,3:2:0:0:
499,162,31225,1,0,0:2:0:0:
500,113,31313,1,0,0:2:0:0:
449,113,31402,1,0,0:2:0:0:
186,121,31490,2,0,P|163:74|257:29,1,142.500005435944,10|0,0:2|0:2,0:2:0:0:
416,94,31754,6,0,B|425:53|425:53|458:32,2,71.2500027179719,8|0|8,0:2|3:2|0:2,0:0:0:0:
297,117,32019,2,0,L|314:44,1,71.2500027179719,0|0,3:2|0:2,0:0:0:0:
149,195,32196,2,0,L|120:103,1,71.2500027179719,10|0,0:2|0:2,0:2:0:0:
339,258,32372,2,0,L|368:166,1,71.2500027179719,2|0,0:2|0:2,0:2:0:0:
72,344,32549,6,0,B|45:304|30:261|30:261|64:232|107:237,1,142.500005435944,2|0,3:2|0:2,0:0:0:0:
164,293,32813,1,0,0:2:0:0:
343,347,32902,2,0,P|379:296|335:212,1,142.500005435944,10|0,0:2|0:2,0:0:0:0:
200,170,33166,1,8,0:2:0:0:
150,171,33254,5,2,3:2:0:0:
200,170,33343,1,8,0:2:0:0:
386,154,33431,1,0,3:2:0:0:
366,111,33519,1,0,0:2:0:0:
90,125,33607,2,0,P|34:60|134:17,1,213.750008153916,10|0,0:2|3:2,0:0:0:0:
368,29,33960,6,0,L|195:28,1,142.500005435944,0|0,3:2|0:2,0:2:0:0:
383,210,34313,1,10,0:2:0:0:
492,175,34490,1,2,0:2:0:0:
504,125,34578,1,8,0:2:0:0:
229,210,34666,6,0,L|167:171,2,71.2500027179719,2|8|0,3:2|0:2|3:2,0:2:0:0:
377,252,35019,2,0,B|436:193,1,71.2500027179719,10|0,0:2|0:2,0:2:0:0:
431,249,35196,1,2,0:2:0:0:
143,288,35372,6,0,B|69:320|7:283|7:283|54:286|100:275,1,213.750008153916,2|0,3:2|0:2,0:0:0:0:
320,261,35725,2,0,B|394:293|456:256|456:256|409:259|363:248,1,213.750008153916,10|8,0:2|0:2,0:0:0:0:
156,198,36078,5,2,3:2:0:0:
116,163,36166,1,8,0:2:0:0:
319,97,36254,1,0,3:2:0:0:
263,96,36343,1,0,0:2:0:0:
98,105,36431,1,10,0:2:0:0:
110,49,36519,1,0,0:2:0:0:
156,16,36607,1,0,0:2:0:0:
235,13,36696,1,0,0:2:0:0:
36,365,36784,6,0,B|17:303|101:267|101:267|246:219|241:353|488:290|488:290|362:313|270:263,1,712.5,2|0,0:2|0:0,3:2:0:0:
211,252,38196,6,0,B|116:185|23:186|23:186|196:173|196:173|60:152|60:152|270:143,1,712.5,2|0,0:2|0:0,0:2:0:0:
362,135,39607,6,0,B|468:128|468:128|492:67|442:3|442:3|217:13|217:13|303:-9|399:10|399:10|292:19,1,712.5,2|0,0:2|0:0,0:2:0:0:
187,142,41019,5,0,3:2:0:0:
154,206,41107,1,0,3:2:0:0:
167,276,41195,1,0,3:2:0:0:
220,325,41283,1,0,3:2:0:0:
291,332,41371,1,0,3:2:0:0:
352,294,41460,1,0,3:2:0:0:
378,227,41548,1,0,3:2:0:0:
359,158,41636,1,0,3:2:0:0:
106,305,41725,6,0,L|36:282,1,47.5,8|8,0:2|0:2,0:0:0:0:
243,191,41902,2,0,L|313:168,1,47.5,8|8,0:2|0:2,0:0:0:0:
76,184,42078,2,0,L|6:161,1,47.5,8|8,0:2|0:2,0:0:0:0:
243,74,42255,2,0,L|313:51,1,47.5,8|8,0:2|0:2,0:0:0:0:
89,324,42431,6,0,P|29:287|20:219,1,142.500005435944,6|2,3:2|0:2,0:2:0:0:
203,320,42696,2,0,P|258:284|275:208,1,142.500005435944,2|2,0:2|0:2,0:2:0:0:
111,171,42960,2,0,L|96:93,1,71.2500027179719,2|8,0:2|0:2,0:2:0:0:
422,129,43137,6,0,P|492:99|513:40,1,142.500005435944,2|0,3:2|3:2,0:2:0:0:
361,132,43402,2,0,P|297:105|270:36,1,142.500005435944,0|0,0:2|0:2,0:0:0:0:
351,0,43666,1,0,0:2:0:0:
106,166,43843,6,0,B|14:168|-1:88,1,142.500005435944,2|0,3:2|0:2,0:2:0:0:
151,167,44107,2,0,B|235:165|235:165|270:111,1,142.500005435944,2|2,0:2|0:2,0:2:0:0:
166,323,44372,2,0,L|138:249,1,71.2500027179719,2|8,0:2|0:2,0:2:0:0:
359,352,44549,5,0,3:2:0:0:
401,344,44637,1,8,3:2:0:0:
405,301,44725,1,0,3:0:0:0:
364,288,44813,1,0,0:0:0:0:
133,365,44902,2,0,P|53:323|126:242,1,213.750008153916,10|0,0:2|0:2,0:0:0:0:
303,188,45254,6,0,P|251:154|203:86,1,142.500005435944,2|2,3:2|0:2,0:2:0:0:
123,46,45519,1,2,0:2:0:0:
271,152,45607,2,0,P|345:107|365:45,1,142.500005435944,10|2,0:2|0:2,0:0:0:0:
92,256,45960,6,0,L|177:132,1,142.500005435944,2|0,3:2|3:2,0:2:0:0:
215,129,46225,1,0,0:2:0:0:
43,132,46313,1,10,0:2:0:0:
144,235,46490,1,2,0:2:0:0:
390,245,46666,6,0,L|368:75,1,142.500005435944,2|0,3:2|0:2,0:2:0:0:
496,201,46931,2,0,L|480:33,1,142.500005435944,2|0,0:2|0:2,0:2:0:0:
239,24,47196,1,2,0:2:0:0:
194,46,47284,1,10,0:2:0:0:
237,69,47372,6,0,L|378:29,1,142.500005435944,2|0,3:2|3:2,0:0:0:0:
188,176,47725,2,0,L|28:119,1,142.500005435944,10|0,0:2|0:0,0:0:0:0:
143,283,48078,6,0,B|317:273,1,170.999994781494,0|0,0:2|0:2,0:2:0:0:
512,323,48431,2,2,B|402:359|319:333|319:333|271:277|299:166,1,332.5,6|0,0:2|0:2,0:2:0:0:
453,206,49137,2,0,P|490:143|444:113,1,126.666666666667,10|2,0:2|0:2,0:2:0:0:
211,101,49490,2,0,L|367:99,1,142.5,2|2,0:2|0:2,0:2:0:0:
108,98,49843,2,0,P|69:142|122:192,1,126.666666666667,10|2,0:2|0:2,0:0:0:0:
318,303,50196,2,0,L|128:304,2,190,2|10|0,0:2|0:2|0:2,0:2:0:0:
92,206,51254,5,10,0:2:0:0:
242,210,51431,1,2,0:2:0:0:
92,206,51607,1,2,0:2:0:0:
242,210,51784,1,0,0:2:0:0:
92,206,51960,2,0,P|44:132|96:78,1,142.5,10|0,0:2|0:0,0:2:0:0:
276,95,52313,6,0,B|373:95|373:95|277:96,1,190,2|10,0:2|0:2,0:2:0:0:
450,186,52843,1,2,0:2:0:0:
277,204,53019,1,8,0:2:0:0:
440,338,53196,2,0,L|460:276,1,47.5,8|8,0:2|0:2,0:0:0:0:
241,350,53372,5,8,0:2:0:0:
225,345,53416,1,8,0:2:0:0:
211,335,53460,1,8,0:2:0:0:
203,320,53504,1,8,0:2:0:0:
205,303,53549,1,8,0:2:0:0:
214,289,53593,1,8,0:2:0:0:
229,282,53637,1,8,0:2:0:0:
418,211,53725,5,4,3:2:0:0:
466,200,53813,1,0,0:2:0:0:
466,149,53902,1,0,0:2:0:0:
416,141,53990,1,0,0:2:0:0:
219,64,54078,2,0,L|292:272,1,213.750008153916,10|8,0:2|0:2,0:2:0:0:
52,324,54431,5,0,3:2:0:0:
9,282,54519,1,8,0:2:0:0:
28,228,54607,1,0,3:2:0:0:
83,213,54696,1,0,0:2:0:0:
238,153,54784,1,8,0:2:0:0:
194,123,54872,1,0,0:2:0:0:
173,70,54960,1,0,0:2:0:0:
184,14,55049,1,0,0:2:0:0:
353,199,55137,6,0,P|389:148|362:73,1,142.500005435944,2|0,3:2|0:2,0:2:0:0:
337,84,55402,1,0,0:2:0:0:
86,236,55490,2,0,L|190:105,1,142.500005435944,10|0,0:2|0:2,0:2:0:0:
394,167,55754,1,8,0:2:0:0:
437,192,55843,5,2,3:2:0:0:
428,240,55931,1,8,0:0:0:0:
378,243,56019,1,0,3:2:0:0:
123,166,56196,2,0,B|67:169|57:149|57:149|41:108|58:44|119:33,1,213.750008153916,10|0,0:2|0:2,0:0:0:0:
360,90,56549,5,0,3:2:0:0:
401,99,56637,1,0,0:2:0:0:
403,141,56725,1,0,0:2:0:0:
361,152,56813,1,0,0:2:0:0:
189,317,56902,2,0,P|116:277|78:227,1,142.500005435944,10|0,0:2|0:2,0:0:0:0:
44,244,57166,1,10,0:2:0:0:
244,128,57254,6,0,L|91:80,1,142.500005435944,2|0,3:2|3:2,0:2:0:0:
296,200,57607,2,0,L|451:188,1,142.500005435944,8|0,0:2|0:2,0:0:0:0:
172,205,57960,6,0,L|79:71,1,142.500005435944,2|0,3:2|0:2,0:0:0:0:
264,208,58225,1,0,0:2:0:0:
306,167,58313,2,0,L|213:33,1,142.500005435944,10|2,0:2|0:2,0:0:0:0:
337,73,58666,6,0,B|419:81|419:81|458:225,1,213.750008153916,2|0,3:2|0:2,0:0:0:0:
152,139,59019,1,10,0:2:0:0:
105,122,59107,1,0,0:2:0:0:
104,71,59196,1,8,0:2:0:0:
151,52,59284,1,0,0:2:0:0:
398,180,59372,6,8,L|422:111,1,47.5,8|8,3:2|0:2,0:2:0:0:
74,152,59549,2,8,L|58:107,1,47.5,8|8,3:2|0:2,0:2:0:0:
398,180,59725,6,8,L|422:111,1,47.5,8|8,3:2|0:2,0:2:0:0:
117,139,59902,2,8,L|101:94,1,47.5,8|8,3:2|0:2,0:2:0:0:
398,180,60078,6,8,L|422:111,1,47.5,8|8,3:2|0:2,0:2:0:0:
153,128,60255,2,8,L|137:83,1,47.5,8|8,3:2|0:2,0:2:0:0:
398,180,60431,6,8,L|422:111,1,47.5,8|8,3:2|0:2,0:2:0:0:
188,115,60608,2,8,L|172:70,1,47.5,8|8,3:2|0:2,0:2:0:0:
339,367,60784,5,8,0:2:0:0:
382,338,60872,1,8,0:2:0:0:
426,310,60960,1,8,0:2:0:0:
469,281,61049,1,8,0:2:0:0:
512,252,61137,5,8,0:2:0:0:
469,281,61226,1,8,0:2:0:0:
425,309,61314,1,8,0:2:0:0:
382,337,61402,1,8,0:2:0:0:
339,367,61490,5,8,0:2:0:0:
382,338,61578,1,8,0:2:0:0:
426,310,61666,1,8,0:2:0:0:
469,281,61755,1,8,0:2:0:0:
512,252,61843,5,8,0:2:0:0:
469,281,61932,1,8,0:2:0:0:
425,309,62020,1,8,0:2:0:0:
382,337,62108,1,8,0:2:0:0:
163,302,62196,5,8,0:2:0:0:
127,301,62240,1,8,0:2:0:0:
163,302,62284,1,8,0:2:0:0:
127,301,62328,1,8,0:2:0:0:
163,302,62372,5,8,0:2:0:0:
127,301,62416,1,8,0:2:0:0:
163,302,62460,1,8,0:2:0:0:
127,301,62504,1,8,0:2:0:0:
163,302,62548,5,8,0:2:0:0:
127,301,62592,1,8,0:2:0:0:
163,302,62636,1,8,0:2:0:0:
127,301,62680,1,8,0:2:0:0:
163,302,62725,5,8,0:2:0:0:
127,301,62769,1,8,0:2:0:0:
163,302,62813,1,8,0:2:0:0:
127,301,62857,1,8,0:2:0:0:
163,302,62901,5,8,0:2:0:0:
127,301,62945,1,8,0:2:0:0:
163,302,62990,1,8,0:2:0:0:
127,301,63034,1,8,0:2:0:0:
163,302,63078,5,8,0:2:0:0:
127,301,63122,1,8,0:2:0:0:
163,302,63166,1,8,0:2:0:0:
127,301,63210,1,8,0:2:0:0:
163,302,63254,5,8,0:2:0:0:
127,301,63298,1,8,0:2:0:0:
163,302,63342,1,8,0:2:0:0:
127,301,63386,1,8,0:2:0:0:
163,302,63430,5,8,0:2:0:0:
127,301,63474,1,8,0:2:0:0:
163,302,63519,1,8,0:2:0:0:
442,73,63607,5,8,0:2:0:0:
477,73,63629,1,8,0:2:0:0:
442,73,63652,1,8,0:2:0:0:
477,73,63674,1,8,0:2:0:0:
442,73,63696,5,8,0:2:0:0:
477,73,63718,1,8,0:2:0:0:
442,73,63741,1,8,0:2:0:0:
477,73,63763,1,8,0:2:0:0:
442,73,63784,5,8,0:2:0:0:
477,73,63806,1,8,0:2:0:0:
442,73,63829,1,8,0:2:0:0:
477,73,63851,1,8,0:2:0:0:
442,73,63872,5,8,0:2:0:0:
477,73,63894,1,8,0:2:0:0:
442,73,63917,1,8,0:2:0:0:
477,73,63939,1,8,0:2:0:0:
442,73,63960,5,8,0:2:0:0:
477,73,63982,1,8,0:2:0:0:
442,73,64005,1,8,0:2:0:0:
477,73,64027,1,8,0:2:0:0:
442,73,64049,5,8,0:2:0:0:
477,73,64071,1,8,0:2:0:0:
442,73,64094,1,8,0:2:0:0:
477,73,64116,1,8,0:2:0:0:
442,73,64138,5,8,0:2:0:0:
477,73,64160,1,8,0:2:0:0:
442,73,64181,1,8,0:2:0:0:
477,73,64203,1,8,0:2:0:0:
442,73,64225,5,8,0:2:0:0:
476,73,64247,1,8,0:2:0:0:
443,73,64269,1,8,0:2:0:0:
475,73,64291,1,8,0:2:0:0:
444,73,64313,5,8,0:2:0:0:
474,73,64335,1,8,0:2:0:0:
445,73,64357,1,8,0:2:0:0:
473,73,64379,1,8,0:2:0:0:
446,73,64402,5,8,0:2:0:0:
472,73,64424,1,8,0:2:0:0:
447,73,64446,1,8,0:2:0:0:
471,73,64468,1,8,0:2:0:0:
448,73,64490,5,8,0:2:0:0:
470,73,64512,1,8,0:2:0:0:
449,73,64534,1,8,0:2:0:0:
469,73,64556,1,8,0:2:0:0:
449,73,64578,5,8,0:2:0:0:
469,73,64600,1,8,0:2:0:0:
450,73,64622,1,8,0:2:0:0:
468,73,64644,1,8,0:2:0:0:
451,73,64666,5,8,0:2:0:0:
467,73,64688,1,8,0:2:0:0:
452,73,64710,1,8,0:2:0:0:
466,73,64732,1,8,0:2:0:0:
453,73,64754,5,8,0:2:0:0:
465,73,64777,1,8,0:2:0:0:
454,73,64799,1,8,0:2:0:0:
464,73,64821,1,8,0:2:0:0:
455,73,64843,5,8,0:2:0:0:
463,73,64865,1,8,0:2:0:0:
456,73,64887,1,8,0:2:0:0:
462,73,64909,1,8,0:2:0:0:
459,73,64931,5,8,0:2:0:0:
162,106,65019,5,6,3:2:0:0:
111,81,65107,1,0,0:0:0:0:
157,60,65196,1,0,0:0:0:0:
422,196,65372,2,0,B|474:164|474:105|444:64,1,132.999995941162,8|0,0:2|0:2,0:0:0:0:
159,181,65725,6,0,L|144:93,1,66.4999979705811,2|8,3:2|0:2,0:2:0:0:
372,307,65902,2,0,L|387:219,1,66.4999979705811,2|0,3:2|0:2,0:2:0:0:
166,247,66078,2,0,L|156:160,1,66.4999979705811,10|0,0:2|0:2,0:2:0:0:
341,322,66254,2,0,L|351:235,1,66.4999979705811,0|0,0:2|0:2,0:2:0:0:
174,303,66431,5,2,3:2:0:0:
122,289,66519,1,0,0:2:0:0:
127,236,66607,1,0,0:2:0:0:
176,216,66696,1,0,0:2:0:0:
355,209,66784,1,8,0:2:0:0:
406,197,66872,1,0,0:2:0:0:
406,143,66960,1,0,0:2:0:0:
353,129,67049,1,8,0:2:0:0:
159,70,67137,6,0,B|126:57|126:57|83:69,2,66.4999979705811,2|10|2,3:2|0:2|3:2,0:0:0:0:
340,269,67490,2,0,L|351:185,1,66.4999979705811,8|0,0:2|0:2,0:2:0:0:
124,236,67666,2,0,L|107:162,1,66.4999979705811,2|0,0:2|0:2,0:2:0:0:
411,150,67843,5,6,3:2:0:0:
461,133,67931,1,0,0:0:0:0:
459,79,68019,1,0,0:0:0:0:
407,65,68107,1,0,0:2:0:0:
67,262,68196,2,0,P|28:197|85:171,1,132.999995941162,8|0,0:2|0:2,0:0:0:0:
348,216,68549,6,0,L|372:127,1,66.4999979705811,2|8,3:2|0:2,0:2:0:0:
189,221,68725,2,0,L|171:129,1,66.4999979705811,2|0,3:2|0:2,0:2:0:0:
396,164,68902,2,0,L|433:77,1,66.4999979705811,10|0,0:2|0:2,0:2:0:0:
210,141,69078,2,0,L|187:48,1,66.4999979705811,0|0,0:2|0:2,0:2:0:0:
381,233,69254,5,2,3:2:0:0:
433,224,69343,1,0,0:2:0:0:
439,171,69431,1,0,0:2:0:0:
389,151,69519,1,0,0:2:0:0:
220,131,69607,1,8,0:2:0:0:
168,122,69696,1,0,0:2:0:0:
162,69,69784,1,0,0:2:0:0:
212,49,69872,1,8,0:2:0:0:
404,64,69960,6,0,B|432:41|432:41|461:65,2,66.4999979705811,2|10|2,3:2|0:2|3:2,0:0:0:0:
122,212,70313,2,0,L|102:138,1,66.4999979705811,8|0,0:2|0:2,0:2:0:0:
346,196,70490,2,0,L|365:106,1,66.4999979705811,2|0,0:2|0:2,0:2:0:0:
132,353,70666,5,6,3:2:0:0:
80,341,70754,1,0,0:0:0:0:
85,287,70843,1,0,0:0:0:0:
133,265,70931,1,0,0:2:0:0:
371,309,71019,2,0,B|391:307|392:276|392:276|390:174,1,132.999995941162,8|0,0:2|0:2,0:0:0:0:
133,265,71372,6,0,L|114:173,1,66.4999979705811,2|8,3:2|0:2,0:2:0:0:
318,233,71549,2,0,L|337:141,1,66.4999979705811,2|0,3:2|0:2,0:2:0:0:
100,266,71725,2,0,L|81:174,1,66.4999979705811,10|0,0:2|0:2,0:2:0:0:
287,232,71902,2,0,L|306:140,1,66.4999979705811,0|0,0:2|0:2,0:2:0:0:
143,137,72078,5,0,3:0:0:0:
108,96,72166,1,0,0:0:0:0:
128,46,72254,1,0,0:0:0:0:
179,32,72342,1,0,0:0:0:0:
299,126,72431,1,0,3:0:0:0:
350,112,72519,1,0,0:0:0:0:
370,62,72607,1,0,0:0:0:0:
335,21,72695,1,0,0:0:0:0:
105,321,72784,6,0,L|47:312,1,52.2500015945435,0|0,3:2|3:2,0:0:0:0:
337,287,72960,2,0,L|395:278,1,52.2500015945435,0|0,3:2|3:2,0:0:0:0:
103,226,73137,2,0,L|45:217,1,52.2500015945435,0|0,3:2|3:2,0:0:0:0:
335,192,73313,2,0,L|393:183,1,52.2500015945435,0|0,3:2|3:2,0:0:0:0:
