osu file format v14

[General]
AudioFilename: audio.mp3
AudioLeadIn: 0
PreviewTime: 17587
Countdown: 0
SampleSet: Normal
StackLeniency: 0.7
Mode: 1
LetterboxInBreaks: 0
WidescreenStoryboard: 0

[Editor]
DistanceSpacing: 0.2
BeatDivisor: 12
GridSize: 8
TimelineZoom: 1.7

[Metadata]
Title:Morrissey
TitleUnicode:Morrissey
Artist:fiend
ArtistUnicode:fiend
Creator:Nifty
Version:Oni
Source:
Tags:english hip hop experimental drum and bass dnb breakcore jungle fever dream i cannot fucking wait until dies jpegmafia peggy jpeg
BeatmapID:2694900
BeatmapSetID:1299326

[Difficulty]
HPDrainRate:5
CircleSize:2
OverallDifficulty:5
ApproachRate:10
SliderMultiplier:1.4
SliderTickRate:1

[Events]
//Background and Video events
0,0,"cover.png",0,0
//Break Periods
//Storyboard Layer 0 (Background)
//Storyboard Layer 1 (Fail)
//Storyboard Layer 2 (Pass)
//Storyboard Layer 3 (Foreground)
//Storyboard Layer 4 (Overlay)
//Storyboard Sound Samples

[TimingPoints]
29,352.941176470588,4,1,0,80,1,0
29,-125,4,1,0,80,0,0
5676,-125,4,1,0,80,0,0
5852,-121.739066918748,4,1,0,80,0,0
6028,-118.644087905778,4,1,0,80,0,0
6205,-115.702441090102,4,1,0,80,0,0
6558,-110.236203112409,4,1,0,80,0,0
6734,-107.692357396473,4,1,0,80,0,0
6911,-105.263157894737,4,1,0,80,0,0
7087,-102.941131055383,4,1,0,80,0,0
7617,-96.5517507728968,4,1,0,80,0,0
7793,-94.594581811543,4,1,0,80,0,0
7970,-92.7152686285836,4,1,0,80,0,0
8146,-90.9090909090909,4,1,0,80,0,0
8499,-83.3333333333333,4,1,0,80,0,1
14146,-83.3333333333333,4,1,0,80,0,0
14259,-100,4,1,0,80,0,0
18381,-100,4,1,0,80,0,0
18734,-107.090115261091,4,1,0,80,0,0
19087,-115.262348631721,4,1,0,80,0,0
19440,-124.784902025134,4,1,0,80,0,0
19793,-83.2376793667943,4,1,0,80,0,1
25440,-50,4,1,0,80,0,0
25707,-100,4,1,0,80,0,0
31087,-83.3333333333333,4,1,0,80,0,1
36734,-83.3333333333333,4,1,0,80,0,0
36911,-100,4,1,0,80,0,0
40970,-100,4,1,0,80,0,0
41058,-98.7654320987654,4,1,0,80,0,0
41146,-97.5609756097561,4,1,0,80,0,0
41234,-96.3855421686747,4,1,0,80,0,0
41323,-95.2380952380952,4,1,0,80,0,0
41411,-94.1176470588235,4,1,0,80,0,0
41499,-93.0232558139535,4,1,0,80,0,0
41587,-91.9540229885058,4,1,0,80,0,0
41676,-90.9090909090909,4,1,0,80,0,0
41764,-89.8876404494382,4,1,0,80,0,0
41852,-88.8888888888889,4,1,0,80,0,0
41940,-87.9120879120879,4,1,0,80,0,0
42028,-86.9565217391304,4,1,0,80,0,0
42117,-86.0215053763441,4,1,0,80,0,0
42205,-85.1063829787234,4,1,0,80,0,0
42293,-84.2105263157895,4,1,0,80,0,0
42381,-83.3333333333333,4,1,0,80,0,1
48028,-83.3333333333333,4,1,0,80,0,0
48149,-100,4,1,0,80,0,0
50852,-100,4,1,0,80,0,0
51205,-97.5671627956895,4,1,0,80,0,0
51381,-96.3945544788284,4,1,0,80,0,0
51558,-95.2498880813815,4,1,0,80,0,0
51734,-94.1319994201469,4,1,0,80,0,0
51911,-93.0401328613097,4,1,0,80,0,0
52087,-91.9732210769512,4,1,0,80,0,0
52264,-90.9305835924855,4,1,0,80,0,0
52440,-89.9112396242429,4,1,0,80,0,0
52617,-88.9145753217596,4,1,0,80,0,0
52793,-87.9396874447629,4,1,0,80,0,0
52970,-86.9860213463696,4,1,0,80,0,0
53146,-86.0527434475138,4,1,0,80,0,0
53234,-85.5935743191887,4,1,0,80,0,0
53323,-85.1393518341145,4,1,0,80,0,0
53381,-84.8391576829069,4,1,0,80,0,0
53440,-84.5410730122069,4,1,0,80,0,0
53499,-84.2450756647147,4,1,0,80,0,0
53587,-83.8049456650635,4,1,0,80,0,0
53676,-83.3693905947656,4,1,0,80,0,1
59323,-83.3333333333333,4,1,0,80,0,1
59411,-82.687338501292,4,1,0,80,0,1
59499,-82.0512820512821,4,1,0,80,0,1
59587,-81.4249363867685,4,1,0,80,0,1
59676,-80.8080808080808,4,1,0,80,0,1
59764,-80.2005012531328,4,1,0,80,0,1
59852,-79.6019900497512,4,1,0,80,0,1
59940,-79.0123456790123,4,1,0,80,0,1
60028,-78.4313725490196,4,1,0,80,0,1
60117,-77.8588807785888,4,1,0,80,0,1
60205,-77.2946859903382,4,1,0,80,0,1
60293,-76.7386091127098,4,1,0,80,0,1
60381,-76.1904761904762,4,1,0,80,0,1
60470,-75.6501182033097,4,1,0,80,0,1
60558,-75.1173708920188,4,1,0,80,0,1
60646,-74.5920745920746,4,1,0,80,0,1
60734,-74.0740740740741,4,1,0,80,0,1
60823,-73.5632183908046,4,1,0,80,0,1
60911,-73.0593607305936,4,1,0,80,0,1
60999,-72.562358276644,4,1,0,80,0,1
61087,-72.0720720720721,4,1,0,80,0,1
61176,-71.5883668903803,4,1,0,80,0,1
61264,-71.1111111111111,4,1,0,80,0,1
61352,-70.6401766004415,4,1,0,80,0,1
61440,-70.1754385964912,4,1,0,80,0,1
61528,-69.7167755991285,4,1,0,80,0,1
61617,-69.2640692640693,4,1,0,80,0,1
61705,-68.8172043010753,4,1,0,80,0,1
61793,-68.3760683760684,4,1,0,80,0,1
61881,-67.9405520169851,4,1,0,80,0,1
61970,-67.5105485232068,4,1,0,80,0,1
62058,-67.0859538784067,4,1,0,80,0,1
62146,-66.6666666666667,4,1,0,80,0,1
63558,-50,4,1,0,80,0,1
64970,-83.3333333333333,4,1,0,80,0,0

[HitObjects]
323,94,2852,5,0,0:0:0:0:
322,106,3028,1,0,0:0:0:0:
322,106,3205,1,8,0:0:0:0:
317,84,3381,1,0,0:0:0:0:
318,84,3734,1,8,0:0:0:0:
323,94,3911,1,0,0:0:0:0:
336,89,3999,1,0,0:0:0:0:
336,89,4087,1,8,0:0:0:0:
336,89,4264,1,0,0:0:0:0:
336,89,4440,1,0,0:0:0:0:
336,89,4617,1,8,0:0:0:0:
336,89,4793,1,8,0:0:0:0:
336,89,5146,1,0,0:0:0:0:
336,89,5323,1,8,0:0:0:0:
336,89,5499,1,0,0:0:0:0:
336,89,5587,1,8,0:0:0:0:
336,89,5676,1,0,0:0:0:0:
331,81,5852,1,0,0:0:0:0:
336,89,6028,1,8,0:0:0:0:
336,89,6205,1,0,0:0:0:0:
336,89,6558,1,8,0:0:0:0:
338,86,6734,1,0,0:0:0:0:
340,81,6911,1,0,0:0:0:0:
327,166,7087,2,8,L|373:153,4,34.0000148228301
338,102,7617,1,0,0:0:0:0:
342,101,7793,1,8,0:0:0:0:
344,100,7970,1,8,0:0:0:0:
344,100,8146,1,0,0:0:0:0:
354,81,8499,1,8,0:0:0:0:
353,85,8676,1,0,0:0:0:0:
352,86,8764,1,0,0:0:0:0:
352,86,8852,1,8,0:0:0:0:
351,86,9028,1,0,0:0:0:0:
350,88,9117,1,8,0:0:0:0:
354,81,9293,1,8,0:0:0:0:
354,81,9381,1,0,0:0:0:0:
354,81,9558,1,8,0:0:0:0:
354,74,9734,1,0,0:0:0:0:
355,79,9823,1,8,0:0:0:0:
355,79,9911,1,0,0:0:0:0:
348,79,10087,1,0,0:0:0:0:
354,81,10264,1,8,0:0:0:0:
354,81,10440,1,0,0:0:0:0:
354,81,10528,1,8,0:0:0:0:
349,79,10705,1,8,0:0:0:0:
350,71,10793,1,0,0:0:0:0:
350,71,10881,1,0,0:0:0:0:
350,71,10970,1,8,0:0:0:0:
350,71,11146,1,8,0:0:0:0:
351,73,11234,1,8,0:0:0:0:
350,71,11323,1,0,0:0:0:0:
350,71,11499,1,0,0:0:0:0:
350,71,11676,1,8,0:0:0:0:
350,71,11852,1,0,0:0:0:0:
350,71,11940,1,8,0:0:0:0:
350,71,12117,1,8,0:0:0:0:
350,71,12205,1,0,0:0:0:0:
351,62,12381,1,8,0:0:0:0:
351,62,12558,1,0,0:0:0:0:
351,62,12646,1,8,0:0:0:0:
351,62,12734,1,0,0:0:0:0:
351,62,12911,1,0,0:0:0:0:
352,60,13087,1,8,0:0:0:0:
352,60,13264,1,0,0:0:0:0:
352,60,13352,1,8,0:0:0:0:
351,62,13528,1,8,0:0:0:0:
351,62,13617,1,0,0:0:0:0:
351,62,13705,1,0,0:0:0:0:
351,62,13793,1,8,0:0:0:0:
351,62,13970,1,8,0:0:0:0:
352,60,14058,1,8,0:0:0:0:
352,60,14146,1,0,0:0:0:0:
351,62,14499,1,8,0:0:0:0:
365,63,14676,1,0,0:0:0:0:
370,60,14852,1,8,0:0:0:0:
374,64,15205,1,8,0:0:0:0:
374,61,15381,1,0,0:0:0:0:
369,58,15558,1,0,0:0:0:0:
370,60,15911,1,8,0:0:0:0:
374,64,16087,1,0,0:0:0:0:
374,61,16440,1,8,0:0:0:0:
370,60,16617,1,0,0:0:0:0:
370,60,16793,1,8,0:0:0:0:
370,60,16970,1,0,0:0:0:0:
374,61,17323,1,8,0:0:0:0:
370,60,17499,1,0,0:0:0:0:
370,60,17676,1,8,0:0:0:0:
374,61,18028,1,8,0:0:0:0:
374,61,18205,1,0,0:0:0:0:
370,60,18381,1,0,0:0:0:0:
373,52,18734,1,0,0:0:0:0:
373,52,19087,1,0,0:0:0:0:
373,52,19440,1,8,0:0:0:0:
373,52,19793,1,8,0:0:0:0:
373,52,19970,1,0,0:0:0:0:
373,52,20058,1,0,0:0:0:0:
373,52,20146,1,8,0:0:0:0:
373,52,20323,1,0,0:0:0:0:
373,52,20411,1,8,0:0:0:0:
373,52,20587,1,8,0:0:0:0:
373,52,20676,1,0,0:0:0:0:
373,52,20852,1,8,0:0:0:0:
373,52,20940,1,0,0:0:0:0:
373,52,21028,1,8,0:0:0:0:
379,44,21205,1,0,0:0:0:0:
379,44,21381,1,0,0:0:0:0:
379,44,21470,1,0,0:0:0:0:
379,44,21558,1,8,0:0:0:0:
379,44,21734,1,0,0:0:0:0:
374,43,21823,1,8,0:0:0:0:
373,43,21999,1,8,0:0:0:0:
379,44,22087,1,0,0:0:0:0:
379,44,22264,1,8,0:0:0:0:
379,44,22352,1,8,0:0:0:0:
379,44,22440,1,0,0:0:0:0:
379,44,22617,1,0,0:0:0:0:
374,43,22793,1,0,0:0:0:0:
374,43,22881,1,0,0:0:0:0:
374,43,22970,1,8,0:0:0:0:
368,45,23146,1,0,0:0:0:0:
368,45,23234,1,8,0:0:0:0:
368,45,23411,1,8,0:0:0:0:
368,44,23499,1,0,0:0:0:0:
366,45,23676,1,8,0:0:0:0:
366,45,23764,1,0,0:0:0:0:
365,46,23852,1,8,0:0:0:0:
365,46,24028,1,0,0:0:0:0:
368,45,24205,1,8,0:0:0:0:
368,45,24293,1,0,0:0:0:0:
368,45,24381,1,8,0:0:0:0:
366,45,24558,1,0,0:0:0:0:
366,45,24646,1,8,0:0:0:0:
365,46,24823,1,8,0:0:0:0:
365,46,24911,1,0,0:0:0:0:
368,45,25087,1,8,0:0:0:0:
368,45,25176,1,0,0:0:0:0:
368,45,25264,1,0,0:0:0:0:
366,45,25440,1,12,0:0:0:0:
364,43,26852,1,0,0:0:0:0:
371,50,27205,1,8,0:0:0:0:
368,50,27381,1,0,0:0:0:0:
371,50,27558,1,0,0:0:0:0:
368,50,27734,1,8,0:0:0:0:
371,50,28087,1,8,0:0:0:0:
371,50,28264,1,0,0:0:0:0:
383,62,28617,1,8,0:0:0:0:
383,62,28793,1,0,0:0:0:0:
376,56,28970,1,8,0:0:0:0:
376,56,29146,1,8,0:0:0:0:
376,56,29499,1,0,0:0:0:0:
376,55,29676,1,8,0:0:0:0:
376,56,30028,1,8,0:0:0:0:
376,56,30205,1,0,0:0:0:0:
376,56,30381,1,0,0:0:0:0:
376,56,30558,1,8,0:0:0:0:
376,55,30734,1,0,0:0:0:0:
376,56,31087,1,8,0:0:0:0:
386,51,31264,1,0,0:0:0:0:
386,51,31352,1,0,0:0:0:0:
389,52,31440,1,8,0:0:0:0:
389,52,31617,1,0,0:0:0:0:
385,54,31705,1,8,0:0:0:0:
385,54,31881,1,8,0:0:0:0:
385,54,31970,1,0,0:0:0:0:
376,56,32058,1,0,0:0:0:0:
384,51,32146,1,8,0:0:0:0:
386,51,32323,1,0,0:0:0:0:
389,52,32411,1,8,0:0:0:0:
389,52,32499,1,0,0:0:0:0:
385,54,32676,1,8,0:0:0:0:
385,54,32764,1,0,0:0:0:0:
385,54,32852,1,8,0:0:0:0:
385,54,33028,1,0,0:0:0:0:
385,54,33117,1,8,0:0:0:0:
386,51,33293,1,8,0:0:0:0:
389,52,33381,1,0,0:0:0:0:
389,52,33558,1,8,0:0:0:0:
385,54,33646,1,0,0:0:0:0:
394,52,33734,1,8,0:0:0:0:
397,52,33823,1,8,0:0:0:0:
397,52,33911,1,0,0:0:0:0:
396,51,34087,1,0,0:0:0:0:
396,51,34176,1,0,0:0:0:0:
397,50,34264,1,8,0:0:0:0:
397,50,34440,1,0,0:0:0:0:
397,50,34528,1,8,0:0:0:0:
394,52,34705,1,8,0:0:0:0:
397,52,34793,1,0,0:0:0:0:
382,60,34881,1,0,0:0:0:0:
396,51,34970,1,8,0:0:0:0:
396,51,35146,1,8,0:0:0:0:
405,58,35234,1,8,0:0:0:0:
397,50,35323,1,0,0:0:0:0:
397,50,35499,1,0,0:0:0:0:
394,52,35587,1,0,0:0:0:0:
394,52,35676,1,8,0:0:0:0:
397,52,35852,1,0,0:0:0:0:
396,51,35940,1,8,0:0:0:0:
396,51,36117,1,8,0:0:0:0:
397,50,36205,1,0,0:0:0:0:
397,50,36381,1,8,0:0:0:0:
397,50,36470,1,8,0:0:0:0:
394,52,36558,1,0,0:0:0:0:
394,52,36646,1,8,0:0:0:0:
394,52,36734,1,0,0:0:0:0:
383,60,37087,1,8,0:0:0:0:
383,60,37264,1,0,0:0:0:0:
383,60,37440,1,0,0:0:0:0:
380,60,37617,1,8,0:0:0:0:
383,60,37970,1,0,0:0:0:0:
383,60,38146,1,0,0:0:0:0:
383,60,38499,1,8,0:0:0:0:
383,60,38852,1,0,0:0:0:0:
383,60,39028,1,8,0:0:0:0:
383,60,39205,1,8,0:0:0:0:
383,60,39381,1,0,0:0:0:0:
383,60,39558,1,0,0:0:0:0:
383,60,39911,1,8,0:0:0:0:
383,60,40087,1,0,0:0:0:0:
383,60,40264,1,8,0:0:0:0:
383,60,40440,1,8,0:0:0:0:
383,60,40793,1,8,0:0:0:0:
383,60,40970,1,0,0:0:0:0:
383,60,41058,1,0,0:0:0:0:
383,60,41146,1,0,0:0:0:0:
383,60,41234,1,0,0:0:0:0:
383,60,41323,1,8,0:0:0:0:
383,60,41499,1,0,0:0:0:0:
383,60,41676,1,8,0:0:0:0:
383,60,41764,1,8,0:0:0:0:
383,60,41852,1,8,0:0:0:0:
383,60,41940,1,8,0:0:0:0:
383,60,42028,1,0,0:0:0:0:
372,69,42205,1,8,0:0:0:0:
372,68,42381,1,0,0:0:0:0:
383,60,42558,1,8,0:0:0:0:
383,60,42646,1,0,0:0:0:0:
383,60,42734,1,8,0:0:0:0:
383,60,42911,1,0,0:0:0:0:
383,60,42999,1,8,0:0:0:0:
383,60,43176,1,8,0:0:0:0:
390,52,43264,1,0,0:0:0:0:
372,53,43440,1,8,0:0:0:0:
390,74,43528,1,0,0:0:0:0:
390,52,43617,1,8,0:0:0:0:
372,53,43793,1,0,0:0:0:0:
372,53,43970,1,8,0:0:0:0:
372,53,44058,1,0,0:0:0:0:
372,53,44146,1,8,0:0:0:0:
372,53,44323,1,0,0:0:0:0:
372,53,44411,1,8,0:0:0:0:
372,53,44587,1,8,0:0:0:0:
372,53,44676,1,0,0:0:0:0:
372,53,44852,1,8,0:0:0:0:
372,53,44940,1,8,0:0:0:0:
372,53,45028,1,0,0:0:0:0:
372,53,45117,1,8,0:0:0:0:
379,54,45205,1,0,0:0:0:0:
379,49,45381,1,8,0:0:0:0:
379,49,45470,1,0,0:0:0:0:
379,49,45558,1,8,0:0:0:0:
378,47,45734,1,0,0:0:0:0:
385,46,45823,1,8,0:0:0:0:
385,46,45999,1,8,0:0:0:0:
385,46,46087,1,0,0:0:0:0:
385,46,46264,1,8,0:0:0:0:
385,46,46352,1,0,0:0:0:0:
385,46,46440,1,8,0:0:0:0:
385,46,46617,1,0,0:0:0:0:
385,46,46793,1,0,0:0:0:0:
385,46,46881,1,0,0:0:0:0:
385,46,46970,1,8,0:0:0:0:
385,46,47146,1,0,0:0:0:0:
395,47,47234,1,8,0:0:0:0:
395,47,47411,1,8,0:0:0:0:
395,46,47499,1,0,0:0:0:0:
395,46,47676,1,8,0:0:0:0:
395,46,47764,1,8,0:0:0:0:
395,46,47852,1,0,0:0:0:0:
395,46,47940,1,0,0:0:0:0:
395,46,48028,1,8,0:0:0:0:
402,47,48381,1,8,0:0:0:0:
408,50,48558,1,0,0:0:0:0:
403,48,48734,1,0,0:0:0:0:
395,46,48911,1,8,0:0:0:0:
396,34,49264,1,8,0:0:0:0:
402,47,49440,1,0,0:0:0:0:
403,48,49793,1,8,0:0:0:0:
401,40,49970,1,0,0:0:0:0:
402,47,50146,1,8,0:0:0:0:
402,47,50323,1,8,0:0:0:0:
403,48,50676,1,8,0:0:0:0:
403,48,50852,1,0,0:0:0:0:
402,47,51205,1,8,0:0:0:0:
403,48,51381,1,0,0:0:0:0:
401,37,51558,1,8,0:0:0:0:
403,48,51734,1,8,0:0:0:0:
404,35,51911,1,0,0:0:0:0:
402,47,52087,1,8,0:0:0:0:
402,47,52264,1,0,0:0:0:0:
401,37,52440,1,0,0:0:0:0:
401,37,52617,1,8,0:0:0:0:
404,35,52793,1,0,0:0:0:0:
402,39,52970,1,8,0:0:0:0:
402,39,53146,1,8,0:0:0:0:
402,39,53234,1,8,0:0:0:0:
401,37,53323,1,0,0:0:0:0:
437,51,53411,1,0,0:0:0:0:
426,44,53499,1,8,0:0:0:0:
420,39,53676,1,0,0:0:0:0:
417,34,53852,1,8,0:0:0:0:
414,34,53940,1,0,0:0:0:0:
414,34,54028,1,8,0:0:0:0:
413,34,54205,1,0,0:0:0:0:
413,34,54293,1,8,0:0:0:0:
413,34,54470,1,8,0:0:0:0:
413,34,54558,1,0,0:0:0:0:
419,35,54734,1,8,0:0:0:0:
385,44,54823,1,8,0:0:0:0:
385,44,54911,1,0,0:0:0:0:
414,34,54999,1,8,0:0:0:0:
413,34,55087,1,0,0:0:0:0:
413,34,55264,1,0,0:0:0:0:
413,34,55352,1,0,0:0:0:0:
413,34,55440,1,8,0:0:0:0:
413,34,55617,1,0,0:0:0:0:
410,38,55705,1,8,0:0:0:0:
424,37,55881,1,8,0:0:0:0:
420,36,55970,1,0,0:0:0:0:
413,34,56146,1,8,0:0:0:0:
413,34,56234,1,0,0:0:0:0:
413,34,56323,1,8,0:0:0:0:
413,34,56499,1,0,0:0:0:0:
410,38,56676,1,0,0:0:0:0:
413,34,56764,1,0,0:0:0:0:
410,34,56852,1,8,0:0:0:0:
408,32,57028,1,0,0:0:0:0:
413,34,57117,1,8,0:0:0:0:
413,34,57293,1,8,0:0:0:0:
413,34,57381,1,0,0:0:0:0:
413,34,57558,1,8,0:0:0:0:
410,38,57646,1,8,0:0:0:0:
413,34,57734,1,0,0:0:0:0:
410,34,57823,1,8,0:0:0:0:
392,44,57911,1,8,0:0:0:0:
392,44,58087,1,8,0:0:0:0:
392,42,58176,1,0,0:0:0:0:
413,34,58264,1,0,0:0:0:0:
413,34,58440,1,8,0:0:0:0:
401,38,58617,1,8,0:0:0:0:
397,37,58705,1,0,0:0:0:0:
397,37,58881,1,8,0:0:0:0:
397,37,58970,1,0,0:0:0:0:
397,37,59058,1,8,0:0:0:0:
397,37,59146,1,8,0:0:0:0:
397,37,59323,1,0,0:0:0:0:
372,81,59411,1,0,0:0:0:0:
401,38,59499,1,0,0:0:0:0:
397,37,59676,1,0,0:0:0:0:
372,81,59764,1,0,0:0:0:0:
397,37,59852,1,0,0:0:0:0:
397,37,60028,1,0,0:0:0:0:
372,81,60117,1,0,0:0:0:0:
397,37,60205,1,0,0:0:0:0:
397,37,60381,1,0,0:0:0:0:
372,81,60470,1,0,0:0:0:0:
394,38,60558,1,0,0:0:0:0:
397,37,60734,1,8,0:0:0:0:
375,61,60823,1,8,0:0:0:0:
397,37,60911,1,8,0:0:0:0:
397,37,61087,1,8,0:0:0:0:
375,61,61176,1,8,0:0:0:0:
397,37,61264,1,8,0:0:0:0:
375,61,61440,1,8,0:0:0:0:
374,60,61528,1,8,0:0:0:0:
397,37,61617,1,8,0:0:0:0:
397,37,61793,1,8,0:0:0:0:
375,61,61881,1,8,0:0:0:0:
397,37,61970,1,8,0:0:0:0:
310,179,62146,2,0,L|379:165,14,52.5000020027161
256,192,63558,12,0,64617,0:0:0:0:
354,81,64970,5,8,0:0:0:0:
353,85,65146,1,0,0:0:0:0:
352,86,65234,1,0,0:0:0:0:
352,86,65323,1,8,0:0:0:0:
351,86,65499,1,0,0:0:0:0:
350,88,65587,1,8,0:0:0:0:
354,81,65764,1,8,0:0:0:0:
354,81,65852,1,0,0:0:0:0:
354,81,66028,1,8,0:0:0:0:
354,74,66205,1,0,0:0:0:0:
355,79,66293,1,8,0:0:0:0:
355,79,66381,1,0,0:0:0:0:
348,79,66558,1,0,0:0:0:0:
354,81,66646,1,0,0:0:0:0:
354,81,66734,1,8,0:0:0:0:
354,81,66911,1,0,0:0:0:0:
354,81,66999,1,8,0:0:0:0:
349,79,67176,1,8,0:0:0:0:
350,71,67264,1,0,0:0:0:0:
350,71,67440,1,8,0:0:0:0:
350,71,67528,1,0,0:0:0:0:
350,71,67617,1,8,0:0:0:0:
350,71,67793,1,0,0:0:0:0:
350,71,67970,1,0,0:0:0:0:
350,71,68058,1,0,0:0:0:0:
350,71,68146,1,8,0:0:0:0:
350,71,68323,1,0,0:0:0:0:
350,71,68411,1,8,0:0:0:0:
350,71,68587,1,8,0:0:0:0:
350,71,68676,1,0,0:0:0:0:
351,62,68852,1,8,0:0:0:0:
351,62,69028,1,0,0:0:0:0:
351,62,69117,1,8,0:0:0:0:
351,62,69205,1,0,0:0:0:0:
351,62,69381,1,0,0:0:0:0:
351,62,69470,1,0,0:0:0:0:
352,60,69558,1,8,0:0:0:0:
352,60,69734,1,0,0:0:0:0:
352,60,69823,1,8,0:0:0:0:
351,62,69999,1,8,0:0:0:0:
351,62,70087,1,0,0:0:0:0:
351,62,70264,1,8,0:0:0:0:
351,62,70352,1,0,0:0:0:0:
351,62,70440,1,8,0:0:0:0:
354,81,70617,1,0,0:0:0:0:
353,85,70793,1,0,0:0:0:0:
352,86,70881,1,0,0:0:0:0:
352,86,70970,1,8,0:0:0:0:
351,86,71146,1,0,0:0:0:0:
350,88,71234,1,8,0:0:0:0:
354,81,71411,1,8,0:0:0:0:
354,81,71499,1,0,0:0:0:0:
354,81,71676,1,8,0:0:0:0:
346,76,71852,1,0,0:0:0:0:
341,79,71940,1,8,0:0:0:0:
341,79,72028,1,0,0:0:0:0:
343,78,72205,1,8,0:0:0:0:
344,78,72293,1,8,0:0:0:0:
344,78,72381,1,0,0:0:0:0:
369,73,72558,1,8,0:0:0:0:
359,74,72646,1,8,0:0:0:0:
359,74,72734,1,0,0:0:0:0:
357,72,72823,1,0,0:0:0:0:
359,73,72911,1,0,0:0:0:0:
356,72,73087,1,0,0:0:0:0:
356,72,73176,1,0,0:0:0:0:
357,72,73264,1,0,0:0:0:0:
360,72,73352,1,0,0:0:0:0:
