osu file format v14

[General]
AudioFilename: audio.mp3
AudioLeadIn: 0
PreviewTime: 17587
Countdown: 0
SampleSet: Normal
StackLeniency: 0.7
Mode: 1
LetterboxInBreaks: 0
WidescreenStoryboard: 0

[Editor]
DistanceSpacing: 0.2
BeatDivisor: 4
GridSize: 8
TimelineZoom: 1.7

[Metadata]
Title:Morrissey
TitleUnicode:Morrissey
Artist:fiend
ArtistUnicode:fiend
Creator:Nifty
Version:Muzukashii
Source:
Tags:english hip hop experimental drum and bass dnb breakcore jungle fever dream i cannot fucking wait until dies jpegmafia peggy jpeg
BeatmapID:2869705
BeatmapSetID:1299326

[Difficulty]
HPDrainRate:6
CircleSize:2
OverallDifficulty:4
ApproachRate:10
SliderMultiplier:1.4
SliderTickRate:1

[Events]
//Background and Video events
0,0,"cover.png",0,0
//Break Periods
//Storyboard Layer 0 (Background)
//Storyboard Layer 1 (Fail)
//Storyboard Layer 2 (Pass)
//Storyboard Layer 3 (Foreground)
//Storyboard Layer 4 (Overlay)
//Storyboard Sound Samples

[TimingPoints]
29,352.941176470588,4,1,0,80,1,0
29,-111.111111111111,4,1,0,80,0,0
8499,-90.9090909090909,4,1,0,80,0,1
14146,-90.9090909090909,4,1,0,80,0,0
14259,-100,4,1,0,80,0,0
19793,-90.7952666611584,4,1,0,80,0,1
25440,-66.6666666666667,4,1,0,80,0,0
25707,-100,4,1,0,80,0,0
31087,-90.9090909090909,4,1,0,80,0,1
36734,-90.9090909090909,4,1,0,80,0,0
36911,-100,4,1,0,80,0,0
42381,-90.9090909090909,4,1,0,80,0,1
48028,-90.9090909090909,4,1,0,80,0,0
48149,-100,4,1,0,80,0,0
53676,-90.9090909090909,4,1,0,80,0,1
59323,-90.9090909090909,4,1,0,80,0,1
63558,-90.9090909090909,4,1,0,80,0,1
64970,-100,4,1,0,80,0,0

[HitObjects]
323,94,2852,5,0,0:0:0:0:
322,106,3205,1,8,0:0:0:0:
317,84,3381,1,0,0:0:0:0:
318,84,3734,1,8,0:0:0:0:
323,94,3911,1,0,0:0:0:0:
336,89,4087,1,8,0:0:0:0:
336,89,4264,1,0,0:0:0:0:
336,89,4617,1,8,0:0:0:0:
336,89,4793,1,8,0:0:0:0:
336,89,5146,1,0,0:0:0:0:
336,89,5323,1,8,0:0:0:0:
336,89,5499,1,0,0:0:0:0:
336,89,5676,1,0,0:0:0:0:
336,89,6028,1,8,0:0:0:0:
336,89,6205,1,0,0:0:0:0:
336,89,6558,1,8,0:0:0:0:
338,86,6734,1,0,0:0:0:0:
327,166,7087,2,8,L|364:154,4,31.4999990386963
342,101,7793,1,8,0:0:0:0:
344,100,7970,1,8,0:0:0:0:
344,100,8146,1,0,0:0:0:0:
354,81,8499,1,8,0:0:0:0:
353,85,8676,1,0,0:0:0:0:
352,86,8852,1,8,0:0:0:0:
350,88,9117,1,8,0:0:0:0:
338,95,9293,1,0,0:0:0:0:
354,81,9381,1,0,0:0:0:0:
354,81,9558,1,8,0:0:0:0:
354,74,9734,1,0,0:0:0:0:
355,79,9911,1,0,0:0:0:0:
354,81,10264,1,8,0:0:0:0:
354,81,10528,1,8,0:0:0:0:
346,88,10705,1,0,0:0:0:0:
350,71,10793,1,0,0:0:0:0:
350,71,10970,1,8,0:0:0:0:
350,71,11146,1,8,0:0:0:0:
350,71,11323,1,0,0:0:0:0:
354,81,11411,1,0,0:0:0:0:
350,71,11499,1,0,0:0:0:0:
350,71,11676,1,8,0:0:0:0:
350,71,11940,1,8,0:0:0:0:
354,85,12117,1,0,0:0:0:0:
350,71,12205,1,0,0:0:0:0:
351,62,12381,1,8,0:0:0:0:
351,62,12558,1,0,0:0:0:0:
351,62,12734,1,0,0:0:0:0:
352,60,13087,1,8,0:0:0:0:
352,60,13352,1,8,0:0:0:0:
343,71,13528,1,0,0:0:0:0:
351,62,13617,1,0,0:0:0:0:
351,62,13793,1,8,0:0:0:0:
351,62,13970,1,8,0:0:0:0:
352,60,14146,1,0,0:0:0:0:
365,63,14499,1,8,0:0:0:0:
370,60,15028,1,0,0:0:0:0:
374,64,15205,1,8,0:0:0:0:
369,58,15558,1,0,0:0:0:0:
370,60,15911,1,8,0:0:0:0:
374,64,16087,1,0,0:0:0:0:
374,61,16440,1,8,0:0:0:0:
370,60,16617,1,0,0:0:0:0:
370,60,16970,1,0,0:0:0:0:
374,61,17323,1,8,0:0:0:0:
370,60,17852,1,0,0:0:0:0:
374,61,18028,1,8,0:0:0:0:
370,60,18381,1,0,0:0:0:0:
373,52,18734,1,0,0:0:0:0:
373,52,19087,1,0,0:0:0:0:
373,52,19440,1,8,0:0:0:0:
373,52,19793,1,8,0:0:0:0:
373,52,19970,1,0,0:0:0:0:
373,52,20146,1,8,0:0:0:0:
373,52,20411,1,8,0:0:0:0:
359,64,20587,1,0,0:0:0:0:
373,52,20676,1,0,0:0:0:0:
373,52,20852,1,8,0:0:0:0:
373,52,21028,1,8,0:0:0:0:
379,44,21205,1,0,0:0:0:0:
379,44,21558,1,8,0:0:0:0:
374,43,21823,1,8,0:0:0:0:
362,62,21999,1,0,0:0:0:0:
379,44,22087,1,0,0:0:0:0:
379,44,22264,1,8,0:0:0:0:
379,44,22440,1,0,0:0:0:0:
379,44,22617,1,0,0:0:0:0:
374,43,22705,1,0,0:0:0:0:
374,43,22793,1,0,0:0:0:0:
374,43,22970,1,8,0:0:0:0:
368,45,23234,1,8,0:0:0:0:
356,57,23411,1,0,0:0:0:0:
350,64,23499,1,0,0:0:0:0:
366,45,23676,1,8,0:0:0:0:
365,46,23852,1,8,0:0:0:0:
365,46,24028,1,0,0:0:0:0:
368,45,24381,1,8,0:0:0:0:
366,45,24646,1,8,0:0:0:0:
356,57,24823,1,0,0:0:0:0:
365,46,24911,1,0,0:0:0:0:
368,45,25087,1,8,0:0:0:0:
366,45,25440,1,12,0:0:0:0:
364,43,26852,1,0,0:0:0:0:
371,50,27205,1,8,0:0:0:0:
371,50,27558,1,0,0:0:0:0:
368,50,27734,1,8,0:0:0:0:
371,50,28087,1,8,0:0:0:0:
371,50,28264,1,0,0:0:0:0:
383,62,28617,1,8,0:0:0:0:
376,56,28970,1,8,0:0:0:0:
376,56,29146,1,8,0:0:0:0:
376,56,29499,1,0,0:0:0:0:
376,55,29676,1,8,0:0:0:0:
376,56,30028,1,8,0:0:0:0:
376,56,30205,1,0,0:0:0:0:
376,56,30381,1,0,0:0:0:0:
371,72,31087,1,0,0:0:0:0:
372,72,31176,1,0,0:0:0:0:
386,51,31264,1,0,0:0:0:0:
389,52,31440,1,8,0:0:0:0:
385,54,31705,1,8,0:0:0:0:
384,71,31881,1,0,0:0:0:0:
385,54,31970,1,0,0:0:0:0:
384,51,32146,1,8,0:0:0:0:
386,51,32323,1,0,0:0:0:0:
389,52,32499,1,0,0:0:0:0:
385,54,32852,1,8,0:0:0:0:
385,54,33117,1,8,0:0:0:0:
376,75,33293,1,0,0:0:0:0:
389,52,33381,1,0,0:0:0:0:
389,52,33558,1,8,0:0:0:0:
394,52,33734,1,8,0:0:0:0:
397,52,33911,1,0,0:0:0:0:
385,72,33999,1,0,0:0:0:0:
396,51,34087,1,0,0:0:0:0:
397,50,34264,1,8,0:0:0:0:
397,50,34528,1,8,0:0:0:0:
376,75,34705,1,0,0:0:0:0:
394,52,34793,1,0,0:0:0:0:
396,51,34970,1,8,0:0:0:0:
396,51,35146,1,8,0:0:0:0:
397,50,35323,1,0,0:0:0:0:
394,52,35676,1,8,0:0:0:0:
396,51,35940,1,8,0:0:0:0:
376,75,36117,1,0,0:0:0:0:
397,50,36205,1,0,0:0:0:0:
397,50,36381,1,8,0:0:0:0:
394,52,36558,1,0,0:0:0:0:
394,52,36734,1,0,0:0:0:0:
383,60,37087,1,8,0:0:0:0:
383,60,37440,1,0,0:0:0:0:
380,60,37617,1,8,0:0:0:0:
383,60,38146,1,0,0:0:0:0:
383,60,38499,1,8,0:0:0:0:
383,60,38852,1,0,0:0:0:0:
383,60,39028,1,8,0:0:0:0:
383,60,39381,1,0,0:0:0:0:
383,60,39558,1,0,0:0:0:0:
383,60,39911,1,8,0:0:0:0:
383,60,40264,1,8,0:0:0:0:
383,60,40440,1,8,0:0:0:0:
383,60,40793,1,8,0:0:0:0:
383,60,40970,1,0,0:0:0:0:
383,60,41058,1,0,0:0:0:0:
383,60,41146,1,0,0:0:0:0:
383,60,41323,1,8,0:0:0:0:
383,60,41499,1,0,0:0:0:0:
383,60,41676,1,8,0:0:0:0:
383,60,41764,1,8,0:0:0:0:
383,60,41852,1,8,0:0:0:0:
383,60,42028,1,0,0:0:0:0:
372,69,42205,1,8,0:0:0:0:
372,68,42381,1,0,0:0:0:0:
383,60,42558,1,8,0:0:0:0:
383,60,42734,1,8,0:0:0:0:
383,60,42999,1,8,0:0:0:0:
377,75,43176,1,0,0:0:0:0:
390,52,43264,1,0,0:0:0:0:
372,53,43440,1,8,0:0:0:0:
390,74,43528,1,8,0:0:0:0:
390,52,43617,1,8,0:0:0:0:
372,53,43793,1,0,0:0:0:0:
372,53,44146,1,8,0:0:0:0:
372,53,44411,1,8,0:0:0:0:
377,75,44587,1,0,0:0:0:0:
372,53,44676,1,0,0:0:0:0:
372,53,44852,1,8,0:0:0:0:
372,53,45028,1,0,0:0:0:0:
379,54,45205,1,0,0:0:0:0:
379,49,45293,1,0,0:0:0:0:
379,49,45381,1,0,0:0:0:0:
379,49,45558,1,8,0:0:0:0:
385,46,45823,1,8,0:0:0:0:
377,75,45999,1,0,0:0:0:0:
385,46,46087,1,0,0:0:0:0:
385,46,46264,1,8,0:0:0:0:
385,46,46440,1,8,0:0:0:0:
385,46,46617,1,0,0:0:0:0:
385,46,46970,1,8,0:0:0:0:
395,47,47234,1,8,0:0:0:0:
377,75,47411,1,0,0:0:0:0:
395,46,47499,1,0,0:0:0:0:
395,46,47676,1,8,0:0:0:0:
395,46,47852,1,0,0:0:0:0:
395,46,48028,1,8,0:0:0:0:
402,47,48381,1,8,0:0:0:0:
403,48,48734,1,0,0:0:0:0:
395,46,48911,1,8,0:0:0:0:
402,47,49440,1,0,0:0:0:0:
403,48,49793,1,8,0:0:0:0:
402,47,50146,1,8,0:0:0:0:
402,47,50323,1,8,0:0:0:0:
403,48,50676,1,8,0:0:0:0:
403,48,50852,1,0,0:0:0:0:
402,47,51205,1,8,0:0:0:0:
401,37,51558,1,8,0:0:0:0:
403,48,51734,1,8,0:0:0:0:
404,35,51911,1,0,0:0:0:0:
402,47,52264,1,0,0:0:0:0:
401,37,52440,1,0,0:0:0:0:
401,37,52617,1,8,0:0:0:0:
402,39,52970,1,8,0:0:0:0:
402,39,53146,1,8,0:0:0:0:
401,37,53323,1,0,0:0:0:0:
437,51,53411,1,0,0:0:0:0:
426,44,53499,1,0,0:0:0:0:
420,39,53676,1,0,0:0:0:0:
417,34,53852,1,8,0:0:0:0:
414,34,54028,1,8,0:0:0:0:
413,34,54293,1,8,0:0:0:0:
377,74,54470,1,0,0:0:0:0:
413,34,54558,1,0,0:0:0:0:
419,35,54734,1,8,0:0:0:0:
385,44,54823,1,8,0:0:0:0:
385,44,54911,1,8,0:0:0:0:
413,34,55087,1,0,0:0:0:0:
413,34,55264,1,0,0:0:0:0:
413,34,55440,1,8,0:0:0:0:
410,38,55705,1,8,0:0:0:0:
377,74,55881,1,0,0:0:0:0:
420,36,55970,1,0,0:0:0:0:
413,34,56146,1,8,0:0:0:0:
413,34,56323,1,0,0:0:0:0:
342,104,56411,1,0,0:0:0:0:
413,34,56499,1,0,0:0:0:0:
410,38,56676,1,0,0:0:0:0:
410,34,56852,1,8,0:0:0:0:
413,34,57117,1,8,0:0:0:0:
378,71,57293,1,0,0:0:0:0:
413,34,57381,1,0,0:0:0:0:
413,34,57558,1,8,0:0:0:0:
410,38,57646,1,8,0:0:0:0:
413,34,57734,1,8,0:0:0:0:
392,44,57911,1,8,0:0:0:0:
413,34,58264,1,0,0:0:0:0:
413,34,58440,1,0,0:0:0:0:
401,38,58617,1,8,0:0:0:0:
397,37,59146,1,8,0:0:0:0:
397,37,59323,1,0,0:0:0:0:
372,81,59411,1,0,0:0:0:0:
401,38,59499,1,0,0:0:0:0:
397,37,59676,1,0,0:0:0:0:
397,37,59852,1,0,0:0:0:0:
397,37,60028,1,0,0:0:0:0:
372,81,60117,1,0,0:0:0:0:
397,37,60205,1,0,0:0:0:0:
397,37,60381,1,0,0:0:0:0:
394,38,60558,1,0,0:0:0:0:
397,37,60734,1,8,0:0:0:0:
375,61,60823,1,8,0:0:0:0:
397,37,60911,1,8,0:0:0:0:
397,37,61087,1,8,0:0:0:0:
397,37,61264,1,8,0:0:0:0:
375,61,61440,1,8,0:0:0:0:
374,60,61528,1,8,0:0:0:0:
397,37,61617,1,8,0:0:0:0:
397,37,61793,1,8,0:0:0:0:
397,37,61970,1,8,0:0:0:0:
310,179,62146,2,0,L|368:169,14,38.5000011749268
256,192,63558,12,0,64440,0:0:0:0:
354,81,64970,5,8,0:0:0:0:
353,85,65146,1,0,0:0:0:0:
352,86,65323,1,8,0:0:0:0:
350,88,65587,1,8,0:0:0:0:
336,85,65764,1,0,0:0:0:0:
354,81,65852,1,0,0:0:0:0:
354,81,66028,1,8,0:0:0:0:
355,79,66381,1,0,0:0:0:0:
348,79,66558,1,0,0:0:0:0:
354,81,66734,1,8,0:0:0:0:
354,81,66999,1,8,0:0:0:0:
339,83,67176,1,0,0:0:0:0:
350,71,67264,1,0,0:0:0:0:
350,71,67440,1,8,0:0:0:0:
350,71,67617,1,8,0:0:0:0:
350,71,67793,1,0,0:0:0:0:
350,71,67970,1,0,0:0:0:0:
350,71,68146,1,8,0:0:0:0:
350,71,68411,1,8,0:0:0:0:
345,81,68587,1,0,0:0:0:0:
350,71,68676,1,0,0:0:0:0:
351,62,68852,1,8,0:0:0:0:
351,62,69205,1,0,0:0:0:0:
351,62,69381,1,0,0:0:0:0:
352,60,69558,1,8,0:0:0:0:
352,60,69823,1,8,0:0:0:0:
345,81,69999,5,0,0:0:0:0:
351,62,70087,1,0,0:0:0:0:
351,62,70264,1,8,0:0:0:0:
351,62,70440,1,8,0:0:0:0:
354,81,70617,1,0,0:0:0:0:
353,85,70793,1,0,0:0:0:0:
352,86,70970,1,8,0:0:0:0:
350,88,71234,1,8,0:0:0:0:
346,80,71411,1,0,0:0:0:0:
354,81,71499,1,0,0:0:0:0:
354,81,71676,1,8,0:0:0:0:
341,79,72028,1,0,0:0:0:0:
343,78,72205,1,8,0:0:0:0:
344,78,72381,1,0,0:0:0:0:
369,73,72558,1,8,0:0:0:0:
359,74,72734,1,0,0:0:0:0:
359,73,72911,1,0,0:0:0:0:
356,72,73087,1,0,0:0:0:0:
343,78,73176,1,0,0:0:0:0:
357,72,73264,1,0,0:0:0:0:
