osu file format v14

[General]
AudioFilename: audio.mp3
AudioLeadIn: 0
PreviewTime: 17587
Countdown: 0
SampleSet: Normal
StackLeniency: 0.7
Mode: 1
LetterboxInBreaks: 0
WidescreenStoryboard: 0

[Editor]
DistanceSpacing: 0.2
BeatDivisor: 4
GridSize: 8
TimelineZoom: 1.7

[Metadata]
Title:Morrissey
TitleUnicode:Morrissey
Artist:fiend
ArtistUnicode:fiend
Creator:Nifty
Version:Futsuu
Source:
Tags:english hip hop experimental drum and bass dnb breakcore jungle fever dream i cannot fucking wait until dies jpegmafia peggy jpeg
BeatmapID:2869703
BeatmapSetID:1299326

[Difficulty]
HPDrainRate:6.5
CircleSize:2
OverallDifficulty:3.5
ApproachRate:10
SliderMultiplier:1.4
SliderTickRate:1

[Events]
//Background and Video events
0,0,"cover.png",0,0
//Break Periods
//Storyboard Layer 0 (Background)
//Storyboard Layer 1 (Fail)
//Storyboard Layer 2 (Pass)
//Storyboard Layer 3 (Foreground)
//Storyboard Layer 4 (Overlay)
//Storyboard Sound Samples

[TimingPoints]
29,352.941176470588,4,1,0,80,1,0
29,-100,4,1,0,80,0,0
8499,-100,4,1,0,80,0,1
14146,-100,4,1,0,80,0,0
14259,-100,4,1,0,80,0,0
19793,-100,4,1,0,80,0,1
25440,-100,4,1,0,80,0,0
25707,-100,4,1,0,80,0,0
31087,-100,4,1,0,80,0,1
36734,-100,4,1,0,80,0,0
36911,-100,4,1,0,80,0,0
42381,-100,4,1,0,80,0,1
48028,-100,4,1,0,80,0,0
48149,-100,4,1,0,80,0,0
53676,-100,4,1,0,80,0,1
59323,-100,4,1,0,80,0,1
63558,-100,4,1,0,80,0,1
64970,-100,4,1,0,80,0,0

[HitObjects]
323,94,2852,5,0,0:0:0:0:
322,106,3205,1,8,0:0:0:0:
318,84,3734,1,8,0:0:0:0:
323,94,3911,1,0,0:0:0:0:
336,89,4264,1,0,0:0:0:0:
336,89,4617,1,8,0:0:0:0:
336,89,5146,1,0,0:0:0:0:
336,89,5323,1,8,0:0:0:0:
336,89,5676,1,0,0:0:0:0:
336,89,6028,1,8,0:0:0:0:
336,89,6558,1,8,0:0:0:0:
338,86,6734,1,0,0:0:0:0:
327,166,7087,2,8,L|369:153,4,35
342,101,7793,1,8,0:0:0:0:
344,100,7970,1,8,0:0:0:0:
344,100,8146,1,0,0:0:0:0:
354,81,8499,1,0,0:0:0:0:
352,86,8852,1,8,0:0:0:0:
350,88,9117,1,8,0:0:0:0:
354,81,9381,1,0,0:0:0:0:
354,81,9558,1,8,0:0:0:0:
355,79,9911,1,0,0:0:0:0:
354,81,10264,1,8,0:0:0:0:
350,71,10793,1,0,0:0:0:0:
350,71,10970,1,8,0:0:0:0:
354,81,11146,1,8,0:0:0:0:
350,71,11323,1,0,0:0:0:0:
350,71,11676,1,8,0:0:0:0:
350,71,11940,1,8,0:0:0:0:
350,71,12205,1,0,0:0:0:0:
351,62,12381,1,8,0:0:0:0:
351,62,12734,1,0,0:0:0:0:
352,60,13087,1,8,0:0:0:0:
351,62,13617,1,0,0:0:0:0:
351,62,13793,1,8,0:0:0:0:
352,60,13970,1,8,0:0:0:0:
352,60,14146,1,0,0:0:0:0:
365,63,14499,1,8,0:0:0:0:
374,64,15205,1,8,0:0:0:0:
369,58,15558,1,0,0:0:0:0:
370,60,15911,1,8,0:0:0:0:
374,61,16440,1,8,0:0:0:0:
370,60,16617,1,0,0:0:0:0:
370,60,16970,1,0,0:0:0:0:
374,61,17323,1,8,0:0:0:0:
374,61,18028,1,8,0:0:0:0:
370,60,18381,1,0,0:0:0:0:
373,52,18734,1,0,0:0:0:0:
373,52,19087,1,0,0:0:0:0:
373,52,19440,1,8,0:0:0:0:
373,52,19793,1,0,0:0:0:0:
373,52,20146,1,8,0:0:0:0:
373,52,20411,1,8,0:0:0:0:
373,52,20676,1,0,0:0:0:0:
373,52,20852,1,8,0:0:0:0:
379,44,21205,1,0,0:0:0:0:
374,43,21381,1,0,0:0:0:0:
379,44,21558,1,8,0:0:0:0:
379,44,21911,1,8,0:0:0:0:
379,44,22087,1,0,0:0:0:0:
379,44,22264,1,8,0:0:0:0:
379,44,22617,1,0,0:0:0:0:
374,43,22970,1,8,0:0:0:0:
368,45,23234,1,8,0:0:0:0:
368,44,23499,1,0,0:0:0:0:
366,45,23676,1,8,0:0:0:0:
365,46,24028,1,0,0:0:0:0:
366,45,24205,1,0,0:0:0:0:
368,45,24381,1,8,0:0:0:0:
366,45,24734,1,8,0:0:0:0:
365,46,24911,1,0,0:0:0:0:
368,45,25087,1,8,0:0:0:0:
366,45,25440,1,12,0:0:0:0:
364,43,26852,1,0,0:0:0:0:
371,50,27205,1,8,0:0:0:0:
371,50,27558,1,0,0:0:0:0:
371,50,28087,1,8,0:0:0:0:
371,50,28264,1,0,0:0:0:0:
383,62,28617,1,8,0:0:0:0:
376,56,28970,1,8,0:0:0:0:
376,56,29499,1,0,0:0:0:0:
376,55,29676,1,8,0:0:0:0:
376,56,30028,1,8,0:0:0:0:
376,56,30381,1,0,0:0:0:0:
371,72,31087,1,0,0:0:0:0:
389,52,31440,1,8,0:0:0:0:
385,54,31705,1,8,0:0:0:0:
385,54,31970,1,0,0:0:0:0:
384,51,32146,1,8,0:0:0:0:
389,52,32499,1,0,0:0:0:0:
385,54,32852,1,8,0:0:0:0:
385,54,33205,1,8,0:0:0:0:
389,52,33381,1,0,0:0:0:0:
389,52,33558,1,8,0:0:0:0:
397,52,33911,1,0,0:0:0:0:
397,50,34264,1,8,0:0:0:0:
397,50,34528,1,8,0:0:0:0:
394,52,34793,1,0,0:0:0:0:
396,51,34970,1,8,0:0:0:0:
397,50,35323,1,0,0:0:0:0:
394,52,35676,1,8,0:0:0:0:
396,51,36028,5,0,0:0:0:0:
397,50,36205,1,0,0:0:0:0:
397,50,36381,1,8,0:0:0:0:
380,49,36558,1,0,0:0:0:0:
394,52,36734,1,0,0:0:0:0:
383,60,37087,1,8,0:0:0:0:
383,60,37440,1,0,0:0:0:0:
383,60,38146,1,0,0:0:0:0:
383,60,38499,1,8,0:0:0:0:
383,60,38852,1,0,0:0:0:0:
383,60,39381,1,0,0:0:0:0:
383,60,39558,1,0,0:0:0:0:
383,60,39911,1,8,0:0:0:0:
383,60,40264,1,8,0:0:0:0:
383,60,40793,1,8,0:0:0:0:
383,60,40970,1,0,0:0:0:0:
383,60,41146,1,0,0:0:0:0:
383,60,41323,1,8,0:0:0:0:
383,60,41676,1,8,0:0:0:0:
383,60,41852,1,8,0:0:0:0:
383,60,42028,1,0,0:0:0:0:
372,68,42381,1,0,0:0:0:0:
383,60,42734,1,8,0:0:0:0:
383,60,42999,1,8,0:0:0:0:
390,52,43264,1,0,0:0:0:0:
372,53,43440,1,8,0:0:0:0:
390,52,43617,1,8,0:0:0:0:
372,53,43793,1,0,0:0:0:0:
372,53,44146,1,8,0:0:0:0:
372,53,44411,1,8,0:0:0:0:
372,53,44676,1,0,0:0:0:0:
372,53,44852,1,8,0:0:0:0:
372,53,45028,1,0,0:0:0:0:
379,54,45205,1,0,0:0:0:0:
379,49,45558,1,8,0:0:0:0:
385,46,45823,1,8,0:0:0:0:
385,46,46087,1,0,0:0:0:0:
385,46,46264,1,8,0:0:0:0:
385,46,46440,1,8,0:0:0:0:
385,46,46617,1,0,0:0:0:0:
385,46,46970,1,8,0:0:0:0:
395,47,47234,1,8,0:0:0:0:
395,46,47499,1,0,0:0:0:0:
395,46,47676,1,8,0:0:0:0:
395,46,47852,1,0,0:0:0:0:
395,46,48028,1,8,0:0:0:0:
402,47,48381,1,8,0:0:0:0:
403,48,48734,1,0,0:0:0:0:
402,47,49440,1,0,0:0:0:0:
403,48,49793,1,8,0:0:0:0:
402,47,50146,1,8,0:0:0:0:
403,48,50676,1,8,0:0:0:0:
403,48,50852,1,0,0:0:0:0:
402,47,51205,1,8,0:0:0:0:
401,37,51558,1,8,0:0:0:0:
404,35,51911,1,0,0:0:0:0:
402,47,52264,1,0,0:0:0:0:
401,37,52617,1,8,0:0:0:0:
402,39,52970,1,8,0:0:0:0:
401,37,53323,1,0,0:0:0:0:
426,44,53499,1,8,0:0:0:0:
420,39,53676,1,0,0:0:0:0:
397,52,53852,1,0,0:0:0:0:
414,34,54028,1,8,0:0:0:0:
413,34,54293,1,8,0:0:0:0:
413,34,54558,1,0,0:0:0:0:
419,35,54734,1,8,0:0:0:0:
413,34,55087,1,0,0:0:0:0:
413,34,55440,1,8,0:0:0:0:
410,38,55617,1,8,0:0:0:0:
420,36,55793,1,0,0:0:0:0:
413,34,56146,1,8,0:0:0:0:
413,34,56499,1,0,0:0:0:0:
410,38,56676,1,0,0:0:0:0:
410,34,56852,1,8,0:0:0:0:
413,34,57117,1,8,0:0:0:0:
413,34,57381,1,0,0:0:0:0:
413,34,57558,1,8,0:0:0:0:
392,44,57911,1,8,0:0:0:0:
413,34,58264,1,0,0:0:0:0:
413,34,58440,1,0,0:0:0:0:
401,38,58617,1,8,0:0:0:0:
397,37,59323,1,0,0:0:0:0:
401,38,59499,1,0,0:0:0:0:
397,37,59676,1,0,0:0:0:0:
397,37,60028,1,0,0:0:0:0:
397,37,60205,1,0,0:0:0:0:
397,37,60381,1,0,0:0:0:0:
397,37,60734,1,8,0:0:0:0:
397,37,60911,1,8,0:0:0:0:
397,37,61087,1,8,0:0:0:0:
375,61,61440,1,8,0:0:0:0:
397,37,61617,1,8,0:0:0:0:
397,37,61793,1,8,0:0:0:0:
310,179,62146,2,0,L|364:168,14,35
256,192,63558,12,0,64264,0:0:0:0:
354,81,64970,5,0,0:0:0:0:
352,86,65323,1,8,0:0:0:0:
350,88,65587,1,8,0:0:0:0:
354,81,65852,1,0,0:0:0:0:
354,81,66028,1,8,0:0:0:0:
355,79,66381,1,0,0:0:0:0:
354,81,66734,1,8,0:0:0:0:
354,81,66999,1,8,0:0:0:0:
350,71,67264,1,0,0:0:0:0:
350,71,67440,1,8,0:0:0:0:
350,71,67793,1,0,0:0:0:0:
350,71,68146,1,8,0:0:0:0:
350,71,68411,1,8,0:0:0:0:
350,71,68676,1,0,0:0:0:0:
351,62,68852,1,8,0:0:0:0:
351,62,69205,1,0,0:0:0:0:
352,60,69558,1,8,0:0:0:0:
352,60,69823,1,8,0:0:0:0:
351,62,70087,1,0,0:0:0:0:
351,62,70264,1,8,0:0:0:0:
354,81,70617,1,0,0:0:0:0:
352,86,70970,1,8,0:0:0:0:
350,88,71234,1,8,0:0:0:0:
354,81,71499,1,0,0:0:0:0:
354,81,71676,1,8,0:0:0:0:
341,79,72028,1,0,0:0:0:0:
343,78,72205,1,8,0:0:0:0:
344,78,72381,1,0,0:0:0:0:
359,74,72734,1,0,0:0:0:0:
359,73,72911,1,0,0:0:0:0:
356,72,73087,1,0,0:0:0:0:
357,72,73264,1,0,0:0:0:0:
