osu file format v14

[General]
AudioFilename: audio.mp3
AudioLeadIn: 0
PreviewTime: 29198
Countdown: 0
SampleSet: Soft
StackLeniency: 0.4
Mode: 0
LetterboxInBreaks: 0
WidescreenStoryboard: 1

[Editor]
DistanceSpacing: 0.9
BeatDivisor: 4
GridSize: 32
TimelineZoom: 2.1

[Metadata]
Title:FEVER DREAM (feat. yzzyx)
TitleUnicode:FEVER DREAM (feat. yzzyx)
Artist:fiend
ArtistUnicode:fiend
Creator:Niva
Version:INSANE
Source:osu!
Tags:mappers' guild mpg instrumental electronic drum and bass drum'n'bass dnb prodbyfiend yzzyxmusic feind featuring ft. featured artist fa
BeatmapID:2916771
BeatmapSetID:1405913

[Difficulty]
HPDrainRate:5
CircleSize:4.5
OverallDifficulty:7.5
ApproachRate:8.8
SliderMultiplier:0.75
SliderTickRate:1

[Events]
//Background and Video events
0,0,"dream4k.jpg",0,0
//Break Periods
//Storyboard Layer 0 (Background)
//Storyboard Layer 1 (Fail)
//Storyboard Layer 2 (Pass)
//Storyboard Layer 3 (Foreground)
//Storyboard Layer 4 (Overlay)
//Storyboard Sound Samples

[TimingPoints]
1039,352.941176470588,4,2,77,35,1,0
3686,-50,4,2,77,35,0,0
3774,-50,4,2,77,5,0,0
3862,-100,4,2,77,35,0,0
6686,-100,4,2,77,45,0,0
9333,-50,4,2,77,45,0,0
9421,-50,4,2,77,5,0,0
9509,-100,4,2,77,45,0,0
12333,-133.333333333333,4,2,77,50,0,0
13038,-111.111111111111,4,2,77,50,0,0
13744,-95.2380952380952,4,2,77,50,0,0
14450,-83.3333333333333,4,2,77,50,0,0
15156,-74.0740740740741,4,2,77,55,0,0
16568,-62.5,4,2,77,55,0,0
16921,-62.5,4,2,2,55,0,0
16943,-62.5,4,2,77,55,0,0
17450,-62.5,4,2,2,55,0,0
17472,-62.5,4,2,77,55,0,0
17627,-62.5,4,2,2,55,0,0
17649,-62.5,4,2,77,55,0,0
17980,-58.8235294117647,4,2,77,60,0,0
18156,-58.8235294117647,4,2,2,60,0,0
18178,-58.8235294117647,4,2,77,60,0,0
19215,-58.8235294117647,4,2,2,60,0,0
19237,-58.8235294117647,4,2,77,60,0,0
19744,-58.8235294117647,4,2,2,60,0,0
19766,-58.8235294117647,4,2,77,60,0,0
19921,-58.8235294117647,4,2,77,60,0,0
20274,-58.8235294117647,4,2,2,60,0,0
20296,-58.8235294117647,4,2,77,60,0,0
20450,-58.8235294117647,4,2,2,60,0,0
20472,-58.8235294117647,4,2,77,60,0,0
20803,-33.3333333333333,4,2,77,90,0,0
21068,-33.3333333333333,4,2,77,5,0,0
21156,-33.3333333333333,4,2,77,90,0,0
21597,-33.3333333333333,4,2,77,5,0,0
21686,-33.3333333333333,4,2,77,90,0,0
21862,-66.6666666666667,4,2,77,90,0,0
22127,-66.6666666666667,4,2,77,5,0,0
22215,-66.6666666666667,4,2,77,50,0,0
22391,-66.6666666666667,4,2,77,55,0,0
22568,-66.6666666666667,4,2,77,60,0,0
22744,-66.6666666666667,4,2,77,65,0,0
22921,-40,4,2,77,70,0,0
23097,-40,4,2,77,75,0,0
23274,-40,4,2,77,80,0,0
23450,-40,4,2,77,85,0,0
23627,-100,4,2,77,85,0,0
23715,-100,4,2,77,50,0,0
25038,-133.333333333333,4,2,77,50,0,0
26450,-73.5294117647059,4,2,77,50,0,0
26472,-73.5294117647059,4,2,78,5,0,0
26627,-73.5294117647059,4,2,77,10,0,0
26803,-73.5294117647059,4,2,78,15,0,0
26980,-73.5294117647059,4,2,77,20,0,0
27156,-73.5294117647059,4,2,78,25,0,0
27333,-50,4,2,77,35,0,0
27509,-50,4,2,78,45,0,0
27686,-50,4,2,77,55,0,0
27862,-50,4,2,78,65,0,0
28038,-50,4,2,77,75,0,0
28215,-50,4,2,78,85,0,0
28391,-50,4,2,77,5,0,0
28480,-50,4,2,77,5,0,0
28568,-50,4,2,78,70,0,0
28612,-50,4,2,78,5,0,0
28744,-50,4,2,78,60,0,0
28788,-50,4,2,78,5,0,0
28921,-50,4,2,78,50,0,0
28965,-50,4,2,78,5,0,0
29097,-50,4,2,78,40,0,0
29141,-50,4,2,78,5,0,0
29274,-40,4,2,77,90,0,0
29538,-40,4,2,77,5,0,0
29627,-40,4,2,77,90,0,0
30950,-40,4,2,77,5,0,0
31038,-40,4,2,77,90,0,0
32362,-40,4,2,77,5,0,0
32450,-45.4545454545455,4,2,77,90,0,0
32538,-45.4545454545455,4,2,77,5,0,0
32627,-45.4545454545455,4,2,78,90,0,0
32715,-45.4545454545455,4,2,77,5,0,0
32803,-45.4545454545455,4,2,78,90,0,0
32891,-45.4545454545455,4,2,77,5,0,0
32980,-45.4545454545455,4,2,77,90,0,0
33068,-45.4545454545455,4,2,77,5,0,0
33156,-45.4545454545455,4,2,78,90,0,0
33244,-45.4545454545455,4,2,77,5,0,0
33333,-45.4545454545455,4,2,79,90,0,0
33421,-45.4545454545455,4,2,77,5,0,0
33509,-45.4545454545455,4,2,77,90,0,0
33774,-40,4,2,77,5,0,0
33862,-40,4,2,77,90,0,0
34127,-40,4,2,77,5,0,0
34215,-40,4,2,77,90,0,0
35186,-40,4,2,77,5,0,0
35274,-40,4,2,77,90,0,0
36597,-40,4,2,77,5,0,0
36686,-40,4,2,77,90,0,0
38009,-40,4,2,77,5,0,0
38097,-40,4,2,77,90,0,0
38450,-40,4,2,77,90,0,0
38715,-40,4,2,77,5,0,0
38803,-40,4,2,77,90,0,0
39156,-40,4,2,77,90,0,0
39421,-40,4,2,77,5,0,0
39509,-40,4,2,77,90,0,0
39862,-66.6666666666667,4,2,77,75,0,0
40568,-40,4,2,77,90,0,0
40833,-40,4,2,77,5,0,0
40921,-40,4,2,77,90,0,0
41891,-40,4,2,77,5,0,0
41980,-40,4,2,77,90,0,0
42244,-40,4,2,77,5,0,0
42333,-40,4,2,77,90,0,0
43656,-40,4,2,77,5,0,0
43744,-45.4545454545455,4,2,77,90,0,0
43833,-45.4545454545455,4,2,78,5,0,0
43921,-45.4545454545455,4,2,78,90,0,0
44009,-45.4545454545455,4,2,78,5,0,0
44097,-45.4545454545455,4,2,78,90,0,0
44186,-45.4545454545455,4,2,78,5,0,0
44274,-45.4545454545455,4,2,77,90,0,0
44362,-45.4545454545455,4,2,78,5,0,0
44450,-45.4545454545455,4,2,78,90,0,0
44538,-45.4545454545455,4,2,78,5,0,0
44627,-45.4545454545455,4,2,79,90,0,0
44715,-45.4545454545455,4,2,78,5,0,0
44803,-45.4545454545455,4,2,77,90,0,0
46213,-40,4,2,77,90,0,0
46480,-40,4,2,77,5,0,0
46568,-40,4,2,77,90,0,0
47891,-40,4,2,77,5,0,0
47980,-40,4,2,77,90,0,0
49038,-45.4545454545455,4,2,77,75,0,0
49303,-45.4545454545455,4,2,77,5,0,0
49391,-45.4545454545455,4,2,77,75,0,0
49833,-45.4545454545455,4,2,77,5,0,0
49921,-45.4545454545455,4,2,77,75,0,0
50097,-66.6666666666667,4,2,77,75,0,0
50362,-100,4,2,77,5,0,0
50450,-100,4,2,77,60,0,0
50627,-100,4,2,77,65,0,0
50803,-100,4,2,77,70,0,0
50980,-100,4,2,77,75,0,0
51156,-45.4545454545455,4,2,77,80,0,0
51333,-45.4545454545455,4,2,77,85,0,0
51509,-45.4545454545455,4,2,77,90,0,0
51686,-45.4545454545455,4,2,77,95,0,0
51862,-37.7358490566038,4,2,77,100,0,1
54333,-55.5555555555556,4,2,77,100,0,1
54686,-37.7358490566038,4,2,77,100,0,1
57156,-55.5555555555556,4,2,77,100,0,1
57509,-37.7358490566038,4,2,77,100,0,1
59274,-37.7358490566038,4,2,77,100,0,1
59627,-37.7358490566038,4,2,77,100,0,1
60333,-45.4545454545455,4,2,77,100,0,1
60597,-45.4545454545455,4,2,77,5,0,1
60686,-45.4545454545455,4,2,77,100,0,1
60774,-45.4545454545455,4,2,77,5,0,1
60862,-45.4545454545455,4,2,77,100,0,1
60950,-45.4545454545455,4,2,77,9,0,1
61038,-45.4545454545455,4,2,77,100,0,1
62450,-33.3333333333333,4,2,77,100,0,1
62803,-37.7358490566038,4,2,77,100,0,1
63068,-37.7358490566038,4,2,77,5,0,1
63156,-40,4,2,77,90,0,0
63421,-40,4,2,77,5,0,0
63509,-40,4,2,77,90,0,0
64833,-40,4,2,77,5,0,0
64921,-40,4,2,77,90,0,0
66244,-40,4,2,77,5,0,0
66333,-45.4545454545455,4,2,77,90,0,0
66421,-45.4545454545455,4,2,78,5,0,0
66509,-45.4545454545455,4,2,78,90,0,0
66597,-45.4545454545455,4,2,78,5,0,0
66686,-45.4545454545455,4,2,78,90,0,0
66774,-45.4545454545455,4,2,78,5,0,0
66862,-45.4545454545455,4,2,77,90,0,0
66950,-45.4545454545455,4,2,78,5,0,0
67038,-45.4545454545455,4,2,78,90,0,0
67127,-45.4545454545455,4,2,78,5,0,0
67215,-45.4545454545455,4,2,79,90,0,0
67303,-45.4545454545455,4,2,78,5,0,0
67391,-45.4545454545455,4,2,77,90,0,0
68097,-40,4,2,77,90,0,0
69068,-40,4,2,77,5,0,0
69156,-40,4,2,77,90,0,0
70480,-40,4,2,77,5,0,0
70568,-40,4,2,77,90,0,0
71627,-40,4,2,77,90,0,0
71715,-40,4,2,77,5,0,0
71803,-40,4,2,78,90,0,0
71891,-40,4,2,77,5,0,0
71980,-40,4,2,78,90,0,0
72068,-40,4,2,77,5,0,0
72156,-40,4,2,78,90,0,0
72244,-40,4,2,77,5,0,0
72333,-52.6315789473684,4,2,77,75,0,0
73038,-45.4545454545455,4,2,77,75,0,0
73215,-52.6315789473684,4,2,77,80,0,0
73568,-40,4,2,77,85,0,0
73921,-40,4,2,77,90,0,0
74362,-40,4,2,77,5,0,0
74450,-40,4,2,77,90,0,0
74715,-40,4,2,77,5,0,0
74803,-40,4,2,77,90,0,0
74891,-40,4,2,77,5,0,0
74980,-40,4,2,77,90,0,0
75244,-40,4,2,77,5,0,0
75333,-40,4,2,77,90,0,0
75421,-40,4,2,77,5,0,0
75509,-40,4,2,77,90,0,0
75862,-40,4,2,77,90,0,0
75950,-40,4,2,77,5,0,0
76038,-40,4,2,77,90,0,0
76127,-40,4,2,77,5,0,0
76215,-40,4,2,77,90,0,0
76303,-40,4,2,77,5,0,0
76391,-40,4,2,77,90,0,0
76480,-40,4,2,77,5,0,0
76568,-40,4,2,77,90,0,0
76921,-40,4,2,77,90,0,0
77274,-40,4,2,77,90,0,0
77538,-40,4,2,77,5,0,0
77627,-40,4,2,77,90,0,0
77715,-40,4,2,77,5,0,0
77803,-40,4,2,77,90,0,0
78068,-40,4,2,77,5,0,0
78156,-40,4,2,77,90,0,0
78244,-40,4,2,77,5,0,0
78333,-40,4,2,77,90,0,0
78603,-40,4,2,77,5,0,0
78686,-40,4,2,77,90,0,0
78774,-40,4,2,77,5,0,0
78862,-40,4,2,77,90,0,0
78950,-40,4,2,77,5,0,0
79038,-40,4,2,77,90,0,0
79127,-40,4,2,77,5,0,0
79215,-40,4,2,77,90,0,0
79303,-40,4,2,77,5,0,0
79391,-40,4,2,77,90,0,0
79744,-40,4,2,77,90,0,0
80097,-40,4,2,77,90,0,0
80362,-40,4,2,77,5,0,0
80450,-40,4,2,77,90,0,0
80538,-40,4,2,77,5,0,0
80627,-40,4,2,77,90,0,0
80891,-40,4,2,77,5,0,0
80980,-40,4,2,77,90,0,0
81068,-40,4,2,77,5,0,0
81156,-40,4,2,77,90,0,0
81509,-40,4,2,77,90,0,0
81597,-40,4,2,77,5,0,0
81686,-40,4,2,77,90,0,0
81774,-40,4,2,77,5,0,0
81862,-40,4,2,77,90,0,0
81950,-40,4,2,77,5,0,0
82038,-40,4,2,77,90,0,0
82127,-40,4,2,77,5,0,0
82215,-40,4,2,77,90,0,0
82568,-40,4,2,77,90,0,0
82921,-40,4,2,77,90,0,0
83891,-40,4,2,77,5,0,0
83980,-40,4,2,77,90,0,0
86009,-40,4,2,77,5,0,0
86097,-40,4,2,77,90,0,0
87421,-40,4,2,77,5,0,0
87509,-40,4,2,77,90,0,0
88833,-40,4,2,77,5,0,0
88921,-40,4,2,77,90,0,0
91656,-40,4,2,77,5,0,0
91744,-40,4,2,77,90,0,0
93068,-40,4,2,77,5,0,0
93156,-40,4,2,77,90,0,0
94127,-40,4,2,77,5,0,0
94215,-40,4,2,77,90,0,0
96597,-40,4,2,77,5,0,0
96686,-40,4,2,77,90,0,0
97303,-40,4,2,77,5,0,0
97391,-40,4,2,77,90,0,0
98715,-40,4,2,77,5,0,0
98803,-40,4,2,77,90,0,0
100127,-40,4,2,77,5,0,0
100215,-45.4545454545455,4,2,77,90,0,0
100303,-45.4545454545455,4,2,77,5,0,0
100391,-45.4545454545455,4,2,78,90,0,0
100480,-45.4545454545455,4,2,77,5,0,0
100568,-45.4545454545455,4,2,78,90,0,0
100656,-45.4545454545455,4,2,77,5,0,0
100744,-45.4545454545455,4,2,77,90,0,0
100833,-45.4545454545455,4,2,77,5,0,0
100921,-45.4545454545455,4,2,78,90,0,0
101009,-45.4545454545455,4,2,77,5,0,0
101097,-45.4545454545455,4,2,79,90,0,0
101186,-45.4545454545455,4,2,77,5,0,0
101274,-45.4545454545455,4,2,77,90,0,0
101980,-40,4,2,77,90,0,0
102950,-40,4,2,77,5,0,0
103038,-40,4,2,77,90,0,0
104362,-40,4,2,77,5,0,0
104450,-40,4,2,77,90,0,0
105774,-40,4,2,77,5,0,0
105862,-40,4,2,77,90,0,0
106127,-40,4,2,77,5,0,0
106215,-36.3636363636364,4,2,77,90,0,0
106480,-36.3636363636364,4,2,77,5,0,0
106568,-36.3636363636364,4,2,77,90,0,0
106833,-36.3636363636364,4,2,77,5,0,0
106921,-53.3333333333333,4,2,77,90,0,0
106943,-33.3333333333333,4,2,78,5,0,0
107009,-33.3333333333333,4,2,77,10,0,0
107097,-33.3333333333333,4,2,78,15,0,0
107186,-33.3333333333333,4,2,77,20,0,0
107274,-33.3333333333333,4,2,78,25,0,0
107362,-33.3333333333333,4,2,77,30,0,0
107450,-33.3333333333333,4,2,78,35,0,0
107538,-33.3333333333333,4,2,77,40,0,0
107627,-33.3333333333333,4,2,78,45,0,0
107715,-33.3333333333333,4,2,77,50,0,0
107803,-33.3333333333333,4,2,78,60,0,0
107891,-33.3333333333333,4,2,77,70,0,0
107980,-33.3333333333333,4,2,78,80,0,0
108068,-33.3333333333333,4,2,77,90,0,0
108156,-33.3333333333333,4,2,78,100,0,0
108244,-33.3333333333333,4,2,77,5,0,0
108333,-37.7358490566038,4,2,77,100,0,1
110803,-55.5555555555556,4,2,77,100,0,1
111156,-37.7358490566038,4,2,77,100,0,1
113274,-37.7358490566038,4,2,77,100,0,1
113450,-37.7358490566038,4,2,77,100,0,1
113627,-37.7358490566038,4,2,77,100,0,1
113803,-37.7358490566038,4,2,77,100,0,1
113980,-37.7358490566038,4,2,77,100,0,1
116891,-37.7358490566038,4,2,77,5,0,1
116980,-37.7358490566038,4,2,77,100,0,1
117068,-37.7358490566038,4,2,77,5,0,1
117156,-37.7358490566038,4,2,77,100,0,1
117244,-37.7358490566038,4,2,77,5,0,1
117333,-37.7358490566038,4,2,77,100,0,1
117421,-37.7358490566038,4,2,77,5,0,1
117509,-34.4827586206897,4,2,77,100,0,1
117597,-34.4827586206897,4,2,77,5,0,1
117686,-34.4827586206897,4,2,77,100,0,1
117774,-34.4827586206897,4,2,77,5,0,1
117862,-34.4827586206897,4,2,77,100,0,1
117950,-34.4827586206897,4,2,77,5,0,1
118038,-34.4827586206897,4,2,77,100,0,1
118127,-34.4827586206897,4,2,77,5,0,1
118215,-37.7358490566038,4,2,77,100,0,1
118480,-37.7358490566038,4,2,77,5,0,1
118568,-37.7358490566038,4,2,77,100,0,1
118833,-37.7358490566038,4,2,77,5,0,1
118921,-37.7358490566038,4,2,77,100,0,1
119450,-37.7358490566038,4,2,77,100,0,0
119627,-37.7358490566038,4,2,77,100,0,1
122097,-55.5555555555556,4,2,77,100,0,1
122450,-37.7358490566038,4,2,77,100,0,1
126068,-37.7358490566038,4,2,77,5,0,1
126156,-37.7358490566038,4,2,77,100,0,1
126244,-37.7358490566038,4,2,77,5,0,1
126333,-37.7358490566038,4,2,77,100,0,1
126421,-37.7358490566038,4,2,77,100,0,1
126509,-37.7358490566038,4,2,77,100,0,1
126597,-37.7358490566038,4,2,77,100,0,1
126686,-37.7358490566038,4,2,77,100,0,1
128362,-37.7358490566038,4,2,77,5,0,1
128450,-37.7358490566038,4,2,77,100,0,1
128715,-37.7358490566038,4,2,77,5,0,1
128803,-37.7358490566038,4,2,77,100,0,1
129244,-37.7358490566038,4,2,77,5,0,1
129333,-37.7358490566038,4,2,77,100,0,1
129421,-37.7358490566038,4,2,77,5,0,1
129509,-37.7358490566038,4,2,77,100,0,1
129597,-37.7358490566038,4,2,77,5,0,1
129686,-37.7358490566038,4,2,77,100,0,1
129774,-37.7358490566038,4,2,77,5,0,1
129862,-37.7358490566038,4,2,77,100,0,1
130568,-100,4,2,77,100,0,1
130921,-100,4,2,77,100,0,0
131097,-100,4,2,77,95,0,0
131274,-100,4,2,77,90,0,0
131450,-100,4,2,77,85,0,0
131627,-100,4,2,77,80,0,0
131803,-100,4,2,77,75,0,0
131980,-100,4,2,77,70,0,0
132156,-100,4,2,77,65,0,0
132333,-100,4,2,77,60,0,0
132509,-100,4,2,77,55,0,0
132686,-100,4,2,77,50,0,0
132862,-100,4,2,77,45,0,0
133038,-100,4,2,77,40,0,0
133215,-100,4,2,77,35,0,0
133391,-100,4,2,77,30,0,0
133568,-100,4,2,77,25,0,0
133744,-100,4,2,77,50,0,0

[Colours]
Combo1 : 17,254,176
Combo2 : 173,255,95
Combo3 : 255,88,100
Combo4 : 255,94,55

[HitObjects]
198,318,1039,6,0,B|189:347|166:366|126:361|103:333|110:298|110:298|130:215,1,225,6|0,0:0|0:0,0:0:0:0:
148,132,2274,1,2,0:0:0:0:
166,47,2450,5,2,0:0:0:0:
166,47,3686,1,2,0:0:0:0:
101,101,3862,6,0,B|233:80|233:80|266:118|316:104,1,225,0|0,0:0|0:0,0:0:0:0:
391,40,5097,1,2,0:0:0:0:
419,157,5274,5,2,0:0:0:0:
419,157,6509,1,2,0:0:0:0:
347,274,6686,6,0,P|246:289|171:202,1,225,2|0,0:0|0:0,0:0:0:0:
108,268,7921,1,2,0:0:0:0:
45,331,8097,5,2,0:0:0:0:
45,331,9333,1,2,0:0:0:0:
0,258,9509,6,0,B|93:298|93:298|117:291|117:291|208:331,1,225,0|0,0:0|0:0,0:0:0:0:
298,272,10744,1,2,0:0:0:0:
187,192,10921,5,2,0:0:0:0:
187,192,12156,1,2,0:0:0:0:
252,88,12333,6,0,L|235:115,3,28.1250010728836,2|0|0|0,0:0|0:0|0:0|0:0,0:0:0:0:
333,116,13038,6,0,L|328:152,3,33.7499989700318,0|0|0|2,0:0|0:0|0:0|0:0,0:0:0:0:
420,108,13744,6,0,L|437:145,3,39.3749987983704,2|0|0|0,0:0|0:0|0:0|0:0,0:0:0:0:
497,60,14450,6,0,L|542:86,3,44.999998626709,0|0|0|2,0:0|0:0|0:0|0:0,0:0:0:0:
512,204,15156,6,0,P|446:169|372:187,1,151.875000579357,0|0,0:0|0:0,0:0:0:0:
300,128,15862,2,0,B|286:104|257:104|257:104|285:104|300:84,1,101.250000386238,0|0,0:0|0:0,0:0:0:0:
300,83,16391,1,2,0:0:0:0:
214,245,16568,6,0,P|236:236|214:221,2,60,2|0|8,0:0|0:0|0:0,0:0:0:0:
187,324,17097,2,0,P|236:291|294:297,1,120,0|8,0:0|0:0,0:0:0:0:
386,253,17627,1,8,0:0:0:0:
164,123,17980,5,2,3:2:0:0:
85,177,18156,2,0,L|275:145,1,191.250003647804,8|0,0:0|0:0,0:0:0:0:
351,94,18862,2,0,P|290:101|242:58,1,127.50000243187,0|10,3:2|0:2,0:0:0:0:
473,158,19391,6,0,P|485:186|516:204,1,63.7500012159348,2|0,3:2|0:0,0:0:0:0:
512,203,19744,1,8,0:0:0:0:
405,262,19921,6,0,P|429:280|465:280,1,63.7500012159348,0|0,3:2|0:0,0:0:0:0:
460,281,20274,1,8,0:0:0:0:
406,380,20450,5,8,0:0:0:0:
256,314,20803,6,0,B|213:331|171:292|179:288|189:283|148:246|107:263,1,168.750006437302,4|0,1:2|0:0,0:0:0:0:
107,263,21156,1,0,3:0:0:0:
259,286,21333,6,0,B|224:259|175:283|183:290|190:296|138:322|102:294,1,168.750006437302,8|0,1:3|0:0,0:0:0:0:
102,294,21686,1,0,3:0:0:0:
10,365,21862,6,0,B|3:351|-14:351|-14:351|2:351|9:340,1,56.2500021457673,4|0,1:3|0:0,0:0:0:0:
0,216,22215,5,8,0:0:0:0:
16,227,22303,1,8,0:0:0:0:
32,234,22391,1,8,0:0:0:0:
54,237,22480,1,8,0:0:0:0:
81,232,22568,1,8,0:0:0:0:
109,216,22656,1,8,0:0:0:0:
127,188,22744,1,8,0:0:0:0:
132,151,22833,1,8,0:0:0:0:
122,111,22921,6,0,L|71:80,3,46.875,8|8|8|8,0:0|0:0|0:0|0:0,0:0:0:0:
205,46,23274,6,0,P|199:22|205:0,3,46.875,8|8|8|8,0:0|0:0|0:0|0:0,0:0:0:0:
311,102,23627,6,0,B|348:93|366:60|366:60|291:198,1,225,6|0,0:0|0:0,0:0:0:0:
184,230,24862,1,2,0:0:0:0:
250,328,25038,6,0,P|323:288|408:299,1,168.750006437302,2|0,0:0|0:0,0:0:0:0:
457,219,26274,1,2,0:0:0:0:
385,134,26450,6,2,B|352:108|356:63|356:63|329:351|329:351|326:380|283:411|246:373|248:347|248:347|250:320,1,510.000003112793,0|0,0:2|0:0,0:1:0:0:
53,192,28568,5,2,0:3:0:0:
155,224,28744,1,2,0:3:0:0:
63,205,28921,5,2,0:3:0:0:
165,237,29097,1,2,0:3:0:0:
15,368,29274,6,0,P|66:325|139:334,1,140.625,6|0,1:2|0:0,0:0:0:0:
135,332,29627,1,8,0:0:0:0:
210,237,29803,1,0,1:2:0:0:
210,237,29891,1,0,1:2:0:0:
210,237,29980,2,0,B|186:221|186:198|186:198|186:221|163:239,1,93.75,0|8,1:2|0:0,0:0:0:0:
303,342,30333,1,0,1:2:0:0:
335,335,30421,1,0,1:2:0:0:
367,328,30509,1,2,1:2:0:0:
399,322,30597,1,0,1:2:0:0:
431,316,30686,6,0,P|466:267|426:201,1,140.625,2|0,1:2|0:0,0:0:0:0:
430,203,31038,1,8,0:0:0:0:
292,214,31215,1,0,1:2:0:0:
307,221,31303,1,0,1:2:0:0:
322,228,31391,1,8,0:0:0:0:
300,120,31568,1,0,1:2:0:0:
285,113,31656,1,0,1:2:0:0:
270,105,31744,2,0,B|280:84|280:84|267:58,2,46.875,0|0|10,1:2|1:2|0:0,0:0:0:0:
165,216,32097,6,0,P|114:174|43:178,1,140.625,0|0,1:2|0:0,0:0:0:0:
33,146,32450,5,8,0:0:0:0:
129,153,32627,5,2,3:0:0:0:
220,111,32803,5,2,0:3:0:0:
255,17,32980,6,0,B|263:8|273:13|273:13|266:22|255:16,1,41.2500012588501,8|0,0:0|0:0,0:0:0:0:
220,111,33156,6,0,B|232:109|236:120|236:120|225:122|220:111,1,41.2500012588501,2|0,0:3|0:0,0:0:0:0:
129,153,33333,6,0,B|138:161|133:171|133:171|124:164|129:153,1,41.2500012588501,2|0,0:3|0:0,0:0:0:0:
37,242,33509,6,0,L|21:78,2,165.000005035401,2|8|8,1:2|0:0|0:0,0:0:0:0:
110,346,34391,1,0,1:2:0:0:
88,337,34480,1,0,1:2:0:0:
64,336,34568,1,0,1:2:0:0:
43,347,34656,1,0,1:2:0:0:
29,366,34744,1,10,0:0:0:0:
202,230,34921,6,0,B|146:218|146:218|124:229|124:229|65:215,1,140.625,2|0,1:2|0:0,0:0:0:0:
66,215,35274,1,8,0:0:0:0:
16,117,35450,1,0,1:2:0:0:
16,117,35538,1,0,1:2:0:0:
16,117,35627,2,0,B|-6:76|-6:76|17:30,1,93.75,0|8,1:2|0:0,0:0:0:0:
178,103,35980,1,0,1:2:0:0:
184,134,36068,1,0,1:2:0:0:
190,166,36156,1,2,1:2:0:0:
196,198,36244,1,0,1:2:0:0:
202,230,36333,6,0,P|139:252|108:317,1,140.625,2|0,1:2|0:0,0:0:0:0:
108,315,36686,1,8,0:0:0:0:
4,193,36862,1,0,1:2:0:0:
8,208,36950,1,0,1:2:0:0:
13,223,37038,1,8,0:0:0:0:
129,90,37215,1,0,1:2:0:0:
126,105,37303,1,0,1:2:0:0:
123,121,37391,2,0,P|106:135|88:121,2,46.875,0|0|10,1:2|1:2|0:0,0:0:0:0:
296,74,37744,6,0,B|314:65|325:35|325:35|295:121,1,140.625,0|0,1:2|0:2,0:0:0:0:
295,121,38097,1,8,0:0:0:0:
370,256,38274,1,0,1:2:0:0:
361,256,38362,1,8,0:0:0:0:
352,256,38450,6,0,B|350:276|371:300|371:300|311:231,1,140.625,0|0,1:2|0:2,0:0:0:0:
311,231,38803,1,8,0:0:0:0:
157,238,38980,1,2,1:2:0:0:
157,229,39068,1,8,0:0:0:0:
157,220,39156,6,0,B|140:208|108:214|108:214|198:197,1,140.625,2|0,1:2|0:0,0:0:0:0:
198,197,39509,1,8,0:0:0:0:
312,56,39686,1,0,1:2:0:0:
312,56,39774,1,8,0:0:0:0:
312,56,39862,6,0,L|321:113,1,56.2500021457673,0|0,1:2|0:0,0:0:0:0:
231,67,40215,2,0,L|240:124,1,56.2500021457673,0|2,1:2|0:0,0:0:0:0:
388,166,40568,6,0,P|421:224|390:286,1,140.625,6|0,1:2|0:0,0:0:0:0:
390,285,40921,1,8,0:0:0:0:
280,369,41097,1,0,1:2:0:0:
283,358,41186,1,0,1:2:0:0:
287,347,41274,5,2,1:2:0:0:
256,357,41362,1,2,0:0:0:0:
223,350,41450,1,10,0:0:0:0:
203,323,41538,1,2,0:0:0:0:
201,290,41627,2,0,L|153:290,2,46.875,2|2|2,1:2|1:2|1:2,0:0:0:0:
330,216,41980,6,0,P|395:199|407:133,1,140.625,2|0,1:2|0:0,0:0:0:0:
407,133,42333,1,8,0:0:0:0:
296,33,42509,1,0,1:2:0:0:
306,38,42597,1,0,1:2:0:0:
317,42,42686,5,10,0:0:0:0:
284,47,42774,1,2,0:0:0:0:
251,53,42862,1,2,1:2:0:0:
219,60,42950,1,2,1:2:0:0:
186,66,43038,2,0,P|192:44|185:22,2,46.875,2|2|10,1:2|1:2|0:2,0:0:0:0:
88,176,43391,6,0,B|144:187|144:187|157:205|157:205|220:216,1,140.625,2|0,1:2|0:0,0:0:0:0:
226,237,43744,5,8,0:0:0:0:
275,160,43921,5,2,0:3:0:0:
376,138,44097,5,2,0:3:0:0:
478,169,44274,6,0,B|476:156|486:152|486:152|488:163|478:169,1,41.2500012588501,8|0,0:0|0:0,0:0:0:0:
376,138,44450,6,0,B|371:127|379:119|379:119|385:129|376:137,1,41.2500012588501,2|0,0:3|0:0,0:0:0:0:
275,160,44627,6,0,B|264:154|266:143|266:143|277:147|275:160,1,41.2500012588501,2|0,0:3|0:0,0:0:0:0:
160,92,44803,6,0,P|82:96|39:23,2,165.000005035401,2|8|8,1:2|0:0|0:0,0:0:0:0:
309,71,45686,1,0,1:2:0:0:
293,57,45774,1,0,1:2:0:0:
277,42,45862,1,2,1:2:0:0:
261,27,45950,1,0,1:2:0:0:
245,13,46038,1,8,0:0:0:0:
285,175,46215,6,0,L|323:311,1,140.625,2|0,1:2|0:0,0:0:0:0:
322,310,46568,1,8,0:0:0:0:
410,267,46744,1,0,1:2:0:0:
410,267,46833,1,0,1:2:0:0:
410,267,46921,2,0,P|455:266|484:230,1,93.75,0|8,1:2|0:0,0:0:0:0:
245,357,47274,1,0,1:2:0:0:
212,351,47362,1,0,1:2:0:0:
179,345,47450,1,2,1:2:0:0:
146,339,47538,1,0,1:2:0:0:
113,333,47627,6,0,B|24:315|24:315|53:321|66:339,1,140.625,2|0,1:2|0:0,0:0:0:0:
66,339,47980,1,8,0:0:0:0:
46,196,48156,1,0,1:2:0:0:
47,205,48245,1,0,1:2:0:0:
48,214,48333,5,10,0:0:0:0:
77,227,48421,1,2,0:0:0:0:
109,225,48509,1,2,1:2:0:0:
134,204,48598,1,0,1:2:0:0:
139,171,48686,2,0,B|133:159|119:159|119:159|133:159|139:149,2,46.875,0|0|10,1:2|1:2|0:0,0:0:0:0:
231,282,49038,6,0,P|290:289|338:245,1,123.75000377655,6|0,1:2|0:0,0:0:0:0:
336,249,49391,1,0,3:2:0:0:
264,250,49568,6,0,P|309:289|369:282,1,123.75000377655,8|0,1:3|0:0,0:0:0:0:
369,282,49921,1,0,3:0:0:0:
465,358,50097,6,0,B|472:346|489:346|489:346|472:346|465:333,1,56.2500021457673,4|0,1:3|0:0,0:0:0:0:
512,228,50450,5,8,0:0:0:0:
506,212,50538,1,8,0:0:0:0:
500,195,50627,1,8,0:0:0:0:
493,175,50715,1,8,0:0:0:0:
485,151,50803,1,8,0:0:0:0:
476,124,50891,1,8,0:0:0:0:
468,96,50980,1,8,0:0:0:0:
458,64,51068,1,8,0:0:0:0:
447,27,51156,6,0,L|457:-12,3,41.2500012588501,8|8|8|8,0:0|0:0|0:0|0:0,0:0:0:0:
341,18,51509,6,0,L|330:-22,3,41.2500012588501,8|8|8|8,0:0|0:0|0:0|0:0,0:0:0:0:
252,80,51862,5,6,1:2:0:0:
272,110,51950,1,2,0:0:0:0:
274,147,52038,1,2,0:0:0:0:
260,182,52127,1,2,0:0:0:0:
228,202,52215,1,10,0:0:0:0:
190,205,52303,1,2,0:0:0:0:
156,187,52391,1,2,1:2:0:0:
137,153,52480,1,0,1:2:0:0:
135,116,52568,6,0,L|81:108,3,49.6875020849706,2|2|10|2,1:2|0:2|0:0|0:0,0:0:0:0:
230,60,52921,2,0,L|284:68,3,49.6875020849706,2|2|2|0,1:2|1:2|1:2|1:2,0:0:0:0:
319,179,53274,5,2,1:2:0:0:
351,175,53362,1,2,0:0:0:0:
383,172,53450,1,2,0:0:0:0:
416,169,53538,1,0,0:0:0:0:
448,166,53627,2,0,B|458:144|458:144|447:120,1,49.6875020849706,10|2,0:0|0:0,0:0:0:0:
492,253,53803,2,0,L|549:246,1,49.6875020849706,2|0,1:2|1:2,0:0:0:0:
456,357,53980,6,0,P|415:326|365:329,1,99.3750041699411,10|2,0:0|1:2,0:0:0:0:
363,320,54244,1,2,1:2:0:0:
357,313,54333,2,0,L|310:313,2,33.7499989700318,2|2|10,1:2|1:2|0:0,0:0:0:0:
216,356,54686,5,2,1:2:0:0:
184,375,54774,1,2,0:0:0:0:
147,369,54862,1,2,0:0:0:0:
122,340,54950,1,2,0:0:0:0:
128,303,55038,1,10,0:0:0:0:
135,266,55127,1,2,0:0:0:0:
117,233,55215,1,2,1:2:0:0:
80,224,55303,1,0,1:2:0:0:
47,242,55391,6,0,L|34:186,3,49.6875020849706,2|2|10|2,1:2|0:0|0:0|0:0,0:0:0:0:
136,137,55744,2,0,L|146:89,3,49.6875020849706,2|2|2|2,1:2|1:2|1:2|1:2,0:0:0:0:
236,219,56097,5,2,1:2:0:0:
243,248,56186,1,2,0:0:0:0:
249,278,56274,1,2,0:0:0:0:
256,308,56362,1,2,0:0:0:0:
264,337,56450,2,0,B|250:342|250:356|250:356|250:342|236:337,1,49.6875020849706,10|2,0:0|0:0,0:0:0:0:
375,300,56627,2,0,B|361:295|361:281|361:281|361:295|347:300,1,49.6875020849706,2|0,1:2|1:2,0:0:0:0:
459,337,56803,6,0,P|503:326|511:275,1,99.3750041699411,10|2,0:0|1:2,0:0:0:0:
506,272,57068,1,2,1:2:0:0:
499,267,57156,2,0,L|499:231,2,33.7499989700318,2|2|10,1:2|1:2|0:0,0:0:0:0:
425,138,57509,5,2,1:2:0:0:
397,162,57597,1,2,0:0:0:0:
359,167,57686,1,2,0:0:0:0:
324,153,57774,1,2,0:0:0:0:
306,120,57862,2,0,L|297:175,3,49.6875020849706,10|2|2|0,0:0|0:0|1:2|1:2,0:0:0:0:
152,101,58215,5,2,1:2:0:0:
162,134,58303,1,2,0:0:0:0:
174,169,58391,1,10,0:0:0:0:
185,203,58480,1,2,0:0:0:0:
195,238,58568,2,0,L|204:180,3,49.6875020849706,2|2|2|0,1:2|1:2|1:2|1:2,0:0:0:0:
72,216,58921,5,2,1:2:0:0:
35,222,59009,1,2,0:0:0:0:
8,247,59097,1,2,0:0:0:0:
0,283,59186,1,0,0:0:0:0:
10,318,59274,1,10,0:0:0:0:
33,346,59362,1,2,0:0:0:0:
69,354,59450,1,2,1:2:0:0:
105,347,59538,1,0,1:2:0:0:
132,321,59627,6,0,B|155:331|155:331|132:340,1,49.6875020849706,10|2,0:0|0:0,0:0:0:0:
48,251,59803,2,0,B|25:261|25:261|48:270,1,49.6875020849706,2|2,1:2|1:2,0:0:0:0:
151,182,59980,6,0,B|161:191|174:191|174:191|161:191|151:200,1,49.6875020849706,2|2,1:2|1:2,0:0:0:0:
41,117,60156,2,0,B|31:126|18:126|18:126|31:126|41:135,1,49.6875020849706,10|0,0:0|0:0,0:0:0:0:
165,62,60333,6,0,P|228:65|271:20,1,123.75000377655,2|0,1:2|0:0,0:0:0:0:
266,0,60686,2,0,L|277:85,1,82.5000025177003,2|2,1:2|1:2,0:0:0:0:
357,162,61038,5,10,0:0:0:0:
216,195,61391,5,10,0:0:0:0:
143,324,61744,5,10,0:0:0:0:
122,338,61833,1,2,1:2:0:0:
98,345,61921,1,2,1:2:0:0:
73,342,62009,1,0,1:2:0:0:
51,330,62097,1,2,1:2:0:0:
37,309,62186,1,2,1:2:0:0:
31,284,62274,1,10,0:2:0:0:
33,259,62362,1,0,1:2:0:0:
45,232,62450,6,0,L|6:232,4,37.5000014305115,2|2|0|2|2,1:2|0:0|0:0|0:2|0:0,0:0:0:0:
150,257,62803,6,0,B|196:266|222:233|222:233|291:233,1,149.062506254912,2|0,1:2|0:0,0:0:0:0:
307,218,63156,6,0,B|320:231|320:263|320:263|320:158,1,140.625,4|0,1:2|0:0,0:0:0:0:
320,170,63509,1,8,0:0:0:0:
265,53,63686,1,0,1:2:0:0:
265,53,63774,1,0,1:2:0:0:
265,53,63862,2,0,P|309:52|340:16,1,93.75,0|8,1:2|0:0,0:0:0:0:
170,135,64215,1,0,1:2:0:0:
137,128,64303,1,0,1:2:0:0:
105,120,64391,1,2,1:2:0:0:
73,111,64480,1,0,1:2:0:0:
41,103,64568,6,0,P|40:169|96:208,1,140.625,2|0,1:2|0:0,0:0:0:0:
96,208,64921,1,8,0:0:0:0:
180,323,65097,1,0,1:2:0:0:
164,320,65185,1,0,1:2:0:0:
149,317,65274,5,10,0:0:0:0:
181,312,65362,1,2,0:0:0:0:
213,308,65450,1,2,1:2:0:0:
245,304,65538,1,0,1:2:0:0:
277,300,65627,2,0,P|283:278|273:251,2,46.875,0|0|10,1:2|1:2|0:0,0:0:0:0:
366,137,65980,6,0,P|301:146|247:93,1,140.625,2|0,1:2|0:0,0:0:0:0:
242,120,66333,5,8,0:0:0:0:
156,80,66509,5,2,0:3:0:0:
55,97,66686,5,2,0:3:0:0:
4,192,66862,6,0,B|-5:199|-14:192|-14:192|-5:184|4:192,1,41.2500012588501,8|0,0:0|0:0,0:0:0:0:
55,97,67038,6,0,B|44:91|46:80|46:80|56:85|55:97,1,41.2500012588501,2|0,0:3|0:0,0:0:0:0:
156,80,67215,6,0,B|151:68|160:62|160:62|165:72|156:80,1,41.2500012588501,2|0,0:3|0:0,0:0:0:0:
262,0,67391,6,0,L|277:175,2,165.000005035401,2|8|8,1:2|0:0|0:0,0:0:0:0:
399,124,68274,1,0,1:2:0:0:
400,104,68363,1,0,1:2:0:0:
402,85,68451,1,2,1:2:0:0:
403,66,68539,1,0,1:2:0:0:
404,47,68627,1,8,0:0:0:0:
330,235,68803,6,0,P|272:201|202:210,1,140.625,2|0,1:2|0:0,0:0:0:0:
201,210,69156,1,8,0:0:0:0:
75,129,69333,1,0,1:2:0:0:
75,129,69421,1,0,1:2:0:0:
75,129,69509,2,0,P|121:136|161:104,1,93.75,0|8,1:2|0:0,0:0:0:0:
0,238,69862,1,0,1:2:0:0:
31,228,69950,1,0,1:2:0:0:
63,233,70038,1,2,1:2:0:0:
88,254,70127,1,0,1:2:0:0:
97,285,70215,6,0,B|152:269|152:269|173:277|173:277|231:259,1,140.625,2|0,1:2|0:0,0:0:0:0:
231,258,70568,1,8,0:0:0:0:
349,168,70744,1,0,1:2:0:0:
337,165,70833,1,0,1:2:0:0:
325,163,70921,5,10,0:0:0:0:
337,193,71009,1,2,0:0:0:0:
349,223,71097,1,2,1:2:0:0:
362,253,71186,1,0,1:2:0:0:
374,283,71274,2,0,L|395:329,2,46.875,0|0|10,1:2|1:2|0:0,0:0:0:0:
256,333,71627,5,10,0:0:0:0:
231,257,71803,1,2,0:3:0:0:
191,379,71980,1,2,0:3:0:0:
151,257,72156,1,2,0:3:0:0:
127,332,72333,6,0,P|59:346|10:299,1,142.49999619484,0|0,1:2|1:2,0:0:0:0:
127,54,73038,5,2,1:2:0:0:
181,133,73215,6,0,L|215:126,2,35.6249990487099,0|0|8,1:2|1:2|0:0,0:0:0:0:
90,198,73568,6,0,L|42:192,2,46.875,0|0|8,1:2|1:2|0:0,0:0:0:0:
201,281,73921,5,0,1:2:0:0:
222,278,74009,1,0,1:2:0:0:
243,275,74097,2,0,P|278:326|350:321,1,140.625,2|0,1:2|0:0,0:0:0:0:
407,270,74450,5,6,1:2:0:0:
407,270,74539,1,2,0:0:0:0:
407,270,74627,2,0,P|395:315|418:357,1,93.75,2|10,0:0|0:0,0:0:0:0:
502,263,74980,1,2,1:2:0:0:
502,263,75069,1,2,1:2:0:0:
502,263,75156,2,0,P|522:304|510:348,1,93.75,2|10,1:2|0:0,0:0:0:0:
441,177,75509,1,2,1:2:0:0:
440,167,75597,1,2,1:2:0:0:
439,157,75686,1,2,1:2:0:0:
438,147,75774,1,0,0:2:0:0:
437,137,75862,5,2,1:2:0:0:
348,182,76038,1,2,0:0:0:0:
258,137,76215,2,0,B|237:121|214:121|214:121|237:121|258:106,1,93.75,10|2,0:0|1:2,0:0:0:0:
216,242,76568,1,10,0:0:0:0:
108,211,76744,1,0,1:2:0:0:
98,207,76833,1,0,1:2:0:0:
88,203,76921,2,0,B|42:203,2,46.875,0|0|10,1:2|1:2|0:0,0:0:0:0:
250,160,77274,5,2,1:2:0:0:
250,160,77362,1,2,0:0:0:0:
250,160,77450,2,0,P|218:190|222:245,1,93.75,2|10,0:0|0:0,0:0:0:0:
336,196,77803,1,2,1:2:0:0:
336,196,77891,1,2,1:2:0:0:
336,196,77980,2,0,P|336:240|305:272,1,93.75,2|10,1:2|0:0,0:0:0:0:
220,382,78333,1,2,1:2:0:0:
229,380,78421,1,2,1:2:0:0:
238,377,78509,1,2,1:2:0:0:
247,375,78597,1,0,0:2:0:0:
256,372,78686,5,2,1:2:0:0:
159,339,78862,1,2,0:0:0:0:
62,306,79038,2,0,B|41:320|18:320|18:320|41:320|62:336,1,93.75,10|2,0:0|1:2,0:0:0:0:
164,321,79391,1,10,0:0:0:0:
267,306,79568,1,0,1:2:0:0:
267,296,79656,1,0,1:2:0:0:
267,286,79744,2,0,P|281:271|266:253,2,46.875,0|0|10,1:2|1:2|0:0,0:0:0:0:
157,186,80097,5,2,1:2:0:0:
157,186,80186,1,2,0:0:0:0:
157,186,80274,2,0,P|109:190|73:162,1,93.75,2|10,0:0|0:0,0:0:0:0:
181,102,80627,1,2,1:2:0:0:
181,102,80715,1,2,1:2:0:0:
181,102,80803,2,0,P|143:75|98:79,1,93.75,2|10,1:2|0:0,0:0:0:0:
256,247,81156,1,2,1:2:0:0:
265,244,81244,1,2,1:2:0:0:
274,242,81333,1,2,1:2:0:0:
283,239,81421,1,0,0:2:0:0:
292,236,81509,5,2,1:2:0:0:
242,349,81686,1,2,0:0:0:0:
215,224,81862,2,0,P|195:182|214:140,1,93.75,10|2,0:0|1:2,0:0:0:0:
311,309,82215,1,10,0:0:0:0:
185,296,82391,1,0,1:2:0:0:
175,296,82480,1,0,1:2:0:0:
165,296,82568,2,0,L|115:296,2,46.875,0|0|10,1:2|1:2|0:0,0:0:0:0:
308,244,82921,5,0,1:2:0:0:
208,197,83097,1,10,0:0:0:0:
319,234,83274,5,10,0:0:0:0:
165,298,83450,1,2,1:2:0:0:
399,347,83627,2,0,P|330:342|274:383,1,140.625,10|0,0:0|0:0,0:0:0:0:
274,382,83980,1,10,0:0:0:0:
488,258,84156,1,10,0:2:0:0:
488,251,84244,1,8,0:2:0:0:
488,244,84333,6,0,L|394:213,1,93.75,2|10,1:2|0:0,0:0:0:0:
444,339,84686,1,10,0:0:0:0:
488,202,84862,1,8,0:0:0:0:
488,209,84950,1,8,0:0:0:0:
488,216,85039,6,0,L|394:247,1,93.75,2|2,1:2|1:2,0:0:0:0:
283,188,85391,1,10,0:0:0:0:
223,335,85568,1,2,1:2:0:0:
237,331,85656,1,0,1:2:0:0:
252,327,85744,6,0,B|183:312|183:312|155:334|115:322,1,140.625,6|0,1:2|0:0,0:0:0:0:
116,322,86097,1,10,0:0:0:0:
50,233,86274,1,0,1:2:0:0:
50,233,86362,1,0,1:2:0:0:
50,233,86450,2,0,B|26:220|26:196|26:196|26:220|2:233,1,93.75,2|8,1:2|0:0,0:0:0:0:
129,141,86803,2,0,P|174:139|206:101,1,93.75,2|0,1:2|1:2,0:0:0:0:
19,39,87156,6,0,B|-2:34|-29:41|-29:41|72:13,1,140.625,2|0,1:2|0:0,0:0:0:0:
59,16,87509,1,10,0:0:0:0:
122,121,87686,1,0,1:2:0:0:
130,108,87774,1,0,1:2:0:0:
138,95,87862,1,10,0:0:0:0:
260,116,88038,1,0,1:2:0:0:
252,102,88126,1,0,1:2:0:0:
244,88,88215,2,0,L|266:43,2,46.875,2|0|8,1:2|1:2|0:0,0:0:0:0:
302,214,88568,6,0,P|232:206|173:240,1,140.625,2|0,1:2|0:0,0:0:0:0:
173,240,88921,1,10,0:0:0:0:
76,161,89097,1,0,1:2:0:0:
76,161,89186,1,0,1:2:0:0:
76,161,89274,2,0,B|60:180|36:182|36:182|60:180|81:199,1,93.75,2|8,1:2|0:0,0:0:0:0:
173,80,89627,2,0,B|188:99|211:102|211:102|188:99|166:118,1,93.75,2|0,1:2|1:2,0:0:0:0:
38,35,89980,6,0,L|77:316,1,281.25,2|0,1:2|1:2,0:0:0:0:
202,371,90686,2,0,P|219:330|197:287,1,93.75,10|0,0:0|1:2,0:0:0:0:
208,282,90950,1,0,1:2:0:0:
216,274,91038,2,0,L|170:274,2,46.875,0|0|8,1:2|1:2|0:0,0:0:0:0:
338,217,91391,6,0,P|406:219|443:163,1,140.625,2|0,1:2|0:0,0:0:0:0:
442,163,91744,1,10,0:0:0:0:
369,73,91921,1,0,1:2:0:0:
369,73,92009,1,0,1:2:0:0:
369,73,92097,2,0,B|393:58|393:58|316:58,1,93.75,2|8,1:2|0:0,0:0:0:0:
235,145,92450,2,0,B|215:130|191:130|191:130|215:130|235:115,1,93.75,2|0,1:2|1:2,0:0:0:0:
348,295,92803,6,0,P|291:256|224:267,1,140.625,2|0,1:2|0:0,0:0:0:0:
223,267,93156,1,10,0:0:0:0:
320,134,93333,1,0,1:2:0:0:
324,148,93421,1,0,1:2:0:0:
329,162,93509,1,10,0:0:0:0:
280,18,93686,1,0,1:2:0:0:
276,32,93774,1,0,1:2:0:0:
271,46,93862,2,0,P|248:52|225:46,2,46.875,2|0|8,1:2|1:2|0:0,0:0:0:0:
390,100,94215,5,10,0:0:0:0:
364,103,94303,1,2,1:2:0:0:
342,115,94391,1,2,1:2:0:0:
331,137,94480,1,0,1:2:0:0:
329,162,94568,2,0,L|375:161,3,46.875,10|2|2|0,0:0|1:2|1:2|1:2,0:0:0:0:
256,226,94921,5,2,1:2:0:0:
239,197,95009,1,2,1:2:0:0:
209,183,95097,1,10,0:0:0:0:
176,179,95186,1,2,1:2:0:0:
143,185,95274,2,0,L|160:139,3,46.875,10|2|2|2,0:0|1:2|1:2|1:2,0:0:0:0:
38,153,95627,6,0,B|17:182|23:231|23:231|-1:30,1,281.25,10|0,0:2|1:2,0:0:0:0:
121,51,96333,2,0,B|148:36|148:14|148:14|148:36|168:71|212:63,1,140.625,10|0,0:0|0:0,0:0:0:0:
213,63,96686,1,8,0:0:0:0:
293,166,96862,1,8,0:0:0:0:
293,152,96950,1,8,0:0:0:0:
293,138,97038,6,0,P|329:198|394:202,1,140.625,6|0,1:2|0:0,0:0:0:0:
394,201,97391,1,8,0:0:0:0:
482,291,97568,1,0,1:2:0:0:
482,291,97656,1,0,1:2:0:0:
482,291,97744,2,0,B|497:385,1,93.75,0|8,1:2|0:0,0:0:0:0:
335,308,98097,1,0,1:2:0:0:
340,275,98186,1,0,1:2:0:0:
345,242,98274,1,2,1:2:0:0:
349,209,98362,1,0,1:2:0:0:
354,176,98450,6,0,P|423:179|465:128,1,140.625,2|0,1:2|0:0,0:0:0:0:
465,127,98803,1,8,0:0:0:0:
392,5,98980,1,0,1:2:0:0:
394,19,99068,1,0,1:2:0:0:
396,33,99156,5,10,0:0:0:0:
363,28,99244,1,2,0:0:0:0:
330,22,99333,1,2,1:2:0:0:
297,16,99421,1,0,1:2:0:0:
264,11,99509,2,0,L|218:4,2,46.875,0|0|10,1:2|1:2|0:0,0:0:0:0:
182,159,99862,6,0,B|162:148|132:150|132:150|231:140,1,140.625,2|0,1:2|0:0,0:0:0:0:
219,122,100215,5,8,0:0:0:0:
318,90,100391,5,2,0:3:0:0:
424,130,100568,5,2,0:3:0:0:
462,238,100744,6,0,B|471:244|481:238|481:238|471:232|462:237,1,41.2500012588501,8|0,0:0|0:0,0:0:0:0:
424,130,100921,6,0,B|434:127|436:115|436:115|424:118|424:129,1,41.2500012588501,2|0,0:3|0:0,0:0:0:0:
318,90,101097,6,0,B|325:81|320:70|320:70|313:79|318:89,1,41.2500012588501,2|0,0:3|0:0,0:0:0:0:
230,181,101274,6,0,B|220:204|226:235|226:235|206:127,2,165.000005035401,2|8|8,1:2|0:0|0:0,0:0:0:0:
115,316,102156,1,0,1:2:0:0:
117,293,102244,1,0,1:2:0:0:
118,270,102332,1,2,1:2:0:0:
119,247,102421,1,0,1:2:0:0:
121,224,102509,1,8,0:0:0:0:
358,381,102686,6,0,P|309:340|233:342,1,140.625,2|0,1:2|0:0,0:0:0:0:
235,341,103038,1,8,0:0:0:0:
387,267,103215,1,0,1:2:0:0:
387,267,103303,1,0,1:2:0:0:
387,267,103391,2,0,P|433:267|469:234,1,93.75,0|8,1:2|0:0,0:0:0:0:
299,180,103744,1,0,1:2:0:0:
274,194,103833,1,0,1:2:0:0:
244,194,103921,1,2,1:2:0:0:
219,180,104009,1,0,1:2:0:0:
209,153,104097,6,0,L|195:297,1,140.625,2|0,1:2|0:0,0:0:0:0:
195,292,104450,1,8,0:0:0:0:
90,384,104627,1,0,1:2:0:0:
88,372,104715,1,0,1:2:0:0:
87,360,104803,5,10,0:0:0:0:
55,369,104891,1,2,0:0:0:0:
22,361,104980,1,2,1:2:0:0:
3,333,105068,1,0,1:2:0:0:
3,300,105156,2,0,B|-3:288|-17:288|-17:288|-3:288|3:278,2,46.875,0|0|10,1:2|1:2|0:0,0:0:0:0:
136,154,105509,6,0,B|100:154|100:154|60:154|72:174|29:174|29:174|-1:174,1,140.625,10|0,0:0|0:0,0:0:0:0:
0,154,105862,2,0,B|30:154|30:154|73:154|61:174|101:174|101:174|136:174,1,140.625,0|0,1:2|0:0,0:0:0:0:
227,248,106215,6,0,B|265:248|265:248|307:248|299:272|344:272|344:272|376:272,1,154.687501475215,0|0,1:2|0:0,0:0:0:0:
377,248,106568,2,0,B|345:248|345:248|300:248|308:272|266:272|266:272|228:272,1,154.687501475215,8|0,0:0|0:0,0:0:0:0:
311,384,106921,6,2,B|308:368|308:368|311:365|311:365|307:346|307:346|310:344|310:344|305:326|305:326|308:324|308:324|304:308|304:308|307:306|307:306|303:289|303:289|306:288|306:288|302:271|302:271|304:269|304:269|300:253|300:253|303:251|303:251|299:234|299:234|302:232|302:232|298:215|298:215|301:213|301:213|296:195|296:195|299:192|299:192|295:175|295:175|298:173|298:173|294:156|294:156|297:155|297:155|292:136|292:136|295:134|295:134|291:118|291:118|294:116|294:116|290:99|290:99|293:98|293:98|288:82|288:82|291:81|291:81|287:64|287:64|290:62|290:62|286:43|286:43|289:40|289:40|284:25|284:25|287:22|287:22|283:-2,1,421.837506050526,8|0,0:0|1:2,0:1:0:0:
123,270,108333,5,6,1:2:0:0:
86,286,108421,1,2,0:0:0:0:
47,278,108509,1,2,0:0:0:0:
20,248,108597,1,2,0:0:0:0:
14,208,108686,1,10,0:0:0:0:
29,171,108774,1,2,0:0:0:0:
64,152,108862,1,2,1:2:0:0:
103,154,108950,1,0,1:2:0:0:
136,174,109038,6,0,L|128:117,3,49.6875020849706,2|2|10|2,1:2|0:0|0:0|0:0,0:0:0:0:
86,286,109391,2,0,L|46:317,3,49.6875020849706,2|2|2|2,1:2|1:2|1:2|1:2,0:0:0:0:
207,275,109744,5,2,1:2:0:0:
236,282,109833,1,2,0:0:0:0:
264,290,109921,1,2,0:0:0:0:
292,298,110009,1,0,0:0:0:0:
321,304,110097,2,0,L|275:320,1,49.6875020849706,10|2,0:0|0:0,0:0:0:0:
414,224,110274,2,0,L|354:211,1,49.6875020849706,2|0,1:2|1:2,0:0:0:0:
510,321,110450,6,0,P|459:328|426:362,1,99.3750041699411,10|2,0:0|1:2,0:0:0:0:
420,354,110715,1,2,1:2:0:0:
413,348,110803,2,0,L|413:313,2,33.7499989700318,2|2|10,1:2|1:2|0:0,0:0:0:0:
319,232,111156,5,2,1:2:0:0:
280,222,111244,1,2,0:0:0:0:
241,212,111333,1,2,0:0:0:0:
202,201,111421,1,2,0:0:0:0:
163,192,111509,1,10,0:0:0:0:
128,210,111597,1,2,0:0:0:0:
116,248,111686,1,2,1:2:0:0:
128,285,111774,1,0,1:2:0:0:
163,304,111862,6,0,B|172:314|185:314|185:314|172:314|163:324,3,49.6875020849706,2|2|10|2,1:2|0:0|0:0|0:0,0:0:0:0:
279,240,112215,2,0,B|270:250|257:250|257:250|270:250|279:260,3,49.6875020849706,2|2|2|0,1:2|1:2|1:2|1:2,0:0:0:0:
370,347,112568,6,0,L|378:297,3,49.6875020849706,2|2|2|0,1:2|0:0|0:0|0:0,0:0:0:0:
477,217,112921,2,0,L|486:271,3,49.6875020849706,10|2|2|0,0:2|0:2|1:2|1:0,0:0:0:0:
447,378,113274,5,10,0:0:0:0:
460,375,113362,1,2,0:0:0:0:
473,372,113450,1,2,1:2:0:0:
486,369,113539,1,0,1:2:0:0:
499,366,113627,5,2,1:2:0:0:
459,361,113715,1,2,1:2:0:0:
419,355,113803,1,10,0:0:0:0:
379,350,113891,1,2,0:0:0:0:
339,346,113980,6,0,P|295:365|250:347,1,99.3750041699411,2|2,1:2|0:0,0:0:0:0:
129,362,114333,5,10,0:0:0:0:
133,383,114509,5,2,0:0:0:0:
38,326,114686,5,0,1:2:0:0:
157,252,114862,5,10,0:2:0:0:
22,178,115038,5,2,1:2:0:0:
23,187,115127,1,0,1:2:0:0:
24,196,115215,1,2,1:2:0:0:
25,205,115303,1,0,1:2:0:0:
26,214,115391,6,0,P|44:170|24:125,1,99.3750041699411,2|2,1:2|0:0,0:0:0:0:
65,330,115744,5,10,0:0:0:0:
174,364,115921,5,2,1:2:0:0:
275,328,116097,5,10,0:0:0:0:
320,237,116274,5,2,1:2:0:0:
321,241,116362,1,0,1:2:0:0:
322,246,116450,1,2,1:2:0:0:
322,250,116539,1,0,1:2:0:0:
324,254,116627,1,10,0:0:0:0:
262,118,116803,5,2,1:2:0:0:
372,132,116980,1,2,0:0:0:0:
267,133,117156,2,0,L|377:117,1,99.3750041699411,10|2,0:0|0:0,0:0:0:0:
504,245,117509,5,2,1:2:0:0:
385,256,117686,1,2,0:0:0:0:
498,259,117862,2,0,L|374:240,1,108.750003318787,10|2,0:0|1:2,0:0:0:0:
218,384,118215,6,0,P|270:342|348:355,1,149.062506254912,10|0,0:0|0:0,0:0:0:0:
394,340,118568,2,0,P|343:337|311:302,1,99.3750041699411,10|0,0:0|0:0,0:0:0:0:
379,173,118921,1,2,1:2:0:0:
399,187,119009,1,0,1:2:0:0:
419,200,119097,1,2,1:2:0:0:
439,213,119186,1,0,1:2:0:0:
458,227,119274,2,0,B|475:206|502:206|502:206|475:206|456:185,1,99.3750041699411,10|10,0:0|0:0,0:0:0:0:
368,67,119627,5,6,1:2:0:0:
352,103,119715,1,2,0:0:0:0:
315,119,119803,1,2,0:0:0:0:
275,113,119891,1,2,0:0:0:0:
251,80,119980,1,10,0:0:0:0:
230,46,120068,1,2,0:0:0:0:
190,41,120156,1,2,1:2:0:0:
154,58,120244,1,0,1:2:0:0:
146,97,120333,6,0,B|121:104|121:104|97:97,3,49.6875020849706,2|2|10|2,1:2|0:0|0:0|0:0,0:0:0:0:
220,204,120686,2,0,B|245:197|245:197|270:204,3,49.6875020849706,2|2|2|0,1:2|1:2|1:2|1:2,0:0:0:0:
109,301,121038,5,2,1:2:0:0:
78,316,121127,1,2,0:0:0:0:
44,310,121215,1,2,0:0:0:0:
26,281,121303,1,0,0:0:0:0:
27,248,121391,2,0,L|-18:271,1,49.6875020849706,10|2,0:0|0:0,0:0:0:0:
73,149,121568,2,0,L|55:102,1,49.6875020849706,2|0,1:2|1:2,0:0:0:0:
169,253,121744,6,0,P|213:273|257:251,1,99.3750041699411,10|2,0:0|1:2,0:0:0:0:
256,240,122009,1,2,1:2:0:0:
256,229,122097,2,0,L|256:187,2,33.7499989700318,2|2|10,1:2|1:2|0:0,0:0:0:0:
318,358,122450,5,2,1:2:0:0:
323,323,122538,1,2,0:0:0:0:
334,290,122627,1,2,0:0:0:0:
355,262,122715,1,2,0:0:0:0:
380,238,122803,1,10,0:0:0:0:
411,222,122891,1,2,0:0:0:0:
444,212,122980,1,2,1:2:0:0:
478,207,123068,1,0,1:2:0:0:
512,210,123156,6,0,L|496:164,3,49.6875020849706,2|2|10|2,1:2|0:0|0:0|0:0,0:0:0:0:
389,108,123509,2,0,L|409:56,3,49.6875020849706,2|2|2|0,1:2|1:2|1:2|1:2,0:0:0:0:
321,230,123862,6,0,L|303:276,3,49.6875020849706,2|2|2|2,1:2|0:0|0:0|0:0,0:0:0:0:
210,166,124215,2,0,L|196:119,3,49.6875020849706,10|2|2|0,0:0|0:0|1:2|1:2,0:0:0:0:
205,307,124568,5,10,0:0:0:0:
197,304,124656,1,2,0:0:0:0:
190,301,124745,1,2,1:2:0:0:
183,298,124833,1,2,1:2:0:0:
176,295,124921,5,2,1:2:0:0:
193,257,125009,1,2,1:2:0:0:
231,240,125097,1,10,0:0:0:0:
273,245,125186,1,0,0:0:0:0:
302,276,125274,6,0,B|348:295|348:295|394:277,1,99.3750041699411,2|2,1:2|0:0,0:0:0:0:
468,129,125627,5,10,0:0:0:0:
347,170,125803,1,0,1:2:0:0:
479,139,125980,5,2,1:2:0:0:
302,76,126156,1,10,0:0:0:0:
504,20,126333,5,2,1:2:0:0:
495,16,126421,1,0,1:2:0:0:
486,12,126509,1,2,1:2:0:0:
477,8,126598,1,0,0:2:0:0:
468,4,126686,5,2,1:2:0:0:
479,139,126862,1,2,0:0:0:0:
361,24,127038,5,10,0:0:0:0:
354,126,127215,1,2,1:2:0:0:
222,0,127391,5,10,0:0:0:0:
236,167,127568,1,2,1:2:0:0:
235,157,127656,1,0,1:2:0:0:
234,147,127744,1,2,1:2:0:0:
233,137,127833,1,0,1:2:0:0:
232,127,127921,1,10,0:0:0:0:
58,95,128097,6,0,B|34:81|7:83|7:83|103:76,1,149.062506254912,10|0,0:0|0:0,0:0:0:0:
115,56,128450,2,0,B|138:40|137:14|137:14|138:40|166:53,1,99.3750041699411,2|0,1:2|0:0,0:0:0:0:
159,240,128803,6,0,P|282:261|354:169,1,248.437510424853,2|0,1:2|0:0,0:0:0:0:
353,174,129333,6,0,L|306:155,1,49.6875020849706,10|0,0:0|0:0,0:0:0:0:
172,105,129509,2,0,L|222:94,1,49.6875020849706,10|0,0:0|0:0,0:0:0:0:
303,0,129686,2,0,L|314:50,1,49.6875020849706,2|0,1:2|0:0,0:0:0:0:
473,131,129862,5,10,0:0:0:0:
430,117,129950,1,2,1:2:0:0:
385,122,130038,1,2,1:2:0:0:
349,150,130127,1,2,1:2:0:0:
332,192,130215,1,2,1:2:0:0:
337,236,130303,1,2,1:2:0:0:
357,275,130391,1,2,1:2:0:0:
397,294,130480,1,2,1:2:0:0:
443,293,130568,6,0,B|459:302|459:302|443:312,1,37.5,2|8,1:2|0:0,0:0:0:0:
256,192,130921,12,2,133744,0:0:0:0:
