osu file format v14

[General]
AudioFilename: audio.mp3
AudioLeadIn: 0
PreviewTime: 29198
Countdown: 0
SampleSet: Soft
StackLeniency: 0.2
Mode: 0
LetterboxInBreaks: 0
WidescreenStoryboard: 0

[Editor]
DistanceSpacing: 0.5
BeatDivisor: 4
GridSize: 32
TimelineZoom: 2.1

[Metadata]
Title:FEVER DREAM (feat. yzzyx)
TitleUnicode:FEVER DREAM (feat. yzzyx)
Artist:fiend
ArtistUnicode:fiend
Creator:Niva
Version:INFINITY
Source:osu!
Tags:mappers' guild mpg instrumental electronic drum and bass drum'n'bass dnb prodbyfiend yzzyxmusic feind featuring ft. featured artist fa
BeatmapID:2899195
BeatmapSetID:1405913

[Difficulty]
HPDrainRate:5
CircleSize:4
OverallDifficulty:8
ApproachRate:9.3
SliderMultiplier:0.75
SliderTickRate:1

[Events]
//Background and Video events
0,0,"dream4k.jpg",0,0
//Break Periods
//Storyboard Layer 0 (Background)
//Storyboard Layer 1 (Fail)
//Storyboard Layer 2 (Pass)
//Storyboard Layer 3 (Foreground)
//Storyboard Layer 4 (Overlay)
//Storyboard Sound Samples

[TimingPoints]
1039,352.941176470588,4,2,77,35,1,0
3686,-57.1428571428571,4,2,77,35,0,0
3774,-50,4,2,77,5,0,0
3862,-100,4,2,77,35,0,0
6686,-100,4,2,77,45,0,0
9333,-50,4,2,77,45,0,0
9421,-50,4,2,77,5,0,0
9509,-100,4,2,77,45,0,0
12333,-133.333333333333,4,2,77,50,0,0
13038,-111.111111111111,4,2,77,50,0,0
13744,-95.2380952380952,4,2,77,50,0,0
14450,-83.3333333333333,4,2,77,50,0,0
15156,-74.0740740740741,4,2,77,55,0,0
16568,-62.5,4,2,77,55,0,0
16921,-62.5,4,2,2,55,0,0
16943,-62.5,4,2,77,55,0,0
17450,-62.5,4,2,2,55,0,0
17472,-62.5,4,2,77,55,0,0
17627,-62.5,4,2,2,55,0,0
17649,-62.5,4,2,77,55,0,0
17980,-58.8235294117647,4,2,77,60,0,0
18156,-58.8235294117647,4,2,2,60,0,0
18178,-58.8235294117647,4,2,77,60,0,0
19215,-58.8235294117647,4,2,2,60,0,0
19237,-58.8235294117647,4,2,77,60,0,0
19744,-58.8235294117647,4,2,2,60,0,0
19766,-58.8235294117647,4,2,77,60,0,0
19921,-54.054054054054,4,2,77,60,0,0
20274,-54.054054054054,4,2,2,60,0,0
20296,-54.054054054054,4,2,77,60,0,0
20450,-54.054054054054,4,2,2,60,0,0
20472,-54.054054054054,4,2,77,60,0,0
20803,-29.8507462686567,4,2,77,90,0,0
21068,-29.8507462686567,4,2,77,5,0,0
21156,-29.8507462686567,4,2,77,90,0,0
21597,-29.8507462686567,4,2,77,5,0,0
21686,-29.8507462686567,4,2,77,90,0,0
21862,-66.6666666666667,4,2,77,90,0,0
22127,-66.6666666666667,4,2,77,5,0,0
22215,-66.6666666666667,4,2,77,50,0,0
22391,-66.6666666666667,4,2,77,55,0,0
22568,-66.6666666666667,4,2,77,60,0,0
22744,-66.6666666666667,4,2,77,65,0,0
22925,-66.6666666666667,4,2,77,70,0,0
23097,-66.6666666666667,4,2,77,75,0,0
23274,-66.6666666666667,4,2,77,80,0,0
23450,-66.6666666666667,4,2,77,85,0,0
23627,-100,4,2,77,85,0,0
23715,-100,4,2,77,50,0,0
25038,-133.333333333333,4,2,77,50,0,0
26450,-48.5436893203883,4,2,77,50,0,0
26472,-48.5436893203883,4,2,78,5,0,0
26627,-48.5436893203883,4,2,77,10,0,0
26803,-48.5436893203883,4,2,78,15,0,0
26980,-48.5436893203883,4,2,77,20,0,0
27156,-48.5436893203883,4,2,78,25,0,0
27333,-48.5436893203883,4,2,77,35,0,0
27509,-48.5436893203883,4,2,78,45,0,0
27686,-48.5436893203883,4,2,77,55,0,0
27862,-48.5436893203883,4,2,78,65,0,0
28038,-48.5436893203883,4,2,77,75,0,0
28215,-48.5436893203883,4,2,78,85,0,0
28391,-48.5436893203883,4,2,77,95,0,0
28480,-48.5436893203883,4,2,77,5,0,0
28568,-18.1818181818181,4,2,78,70,0,0
28612,-18.1818181818181,4,2,78,5,0,0
28744,-20,4,2,78,60,0,0
28788,-20,4,2,78,5,0,0
28921,-22.2222222222222,4,2,78,50,0,0
28965,-22.2222222222222,4,2,78,5,0,0
29097,-25,4,2,78,40,0,0
29141,-25,4,2,78,5,0,0
29274,-35.0877192982456,4,2,77,90,0,0
29538,-35.0877192982456,4,2,77,5,0,0
29627,-35.0877192982456,4,2,77,90,0,0
30950,-35.0877192982456,4,2,77,5,0,0
31038,-35.0877192982456,4,2,77,90,0,0
32362,-35.0877192982456,4,2,77,5,0,0
32450,-45.4545454545455,4,2,77,90,0,0
32538,-45.4545454545455,4,2,77,5,0,0
32627,-45.4545454545455,4,2,78,90,0,0
32715,-45.4545454545455,4,2,77,5,0,0
32803,-45.4545454545455,4,2,78,90,0,0
32891,-45.4545454545455,4,2,77,5,0,0
32980,-45.4545454545455,4,2,77,90,0,0
33068,-45.4545454545455,4,2,77,5,0,0
33156,-45.4545454545455,4,2,78,90,0,0
33244,-45.4545454545455,4,2,77,5,0,0
33333,-45.4545454545455,4,2,79,90,0,0
33421,-45.4545454545455,4,2,77,5,0,0
33509,-35.0877192982456,4,2,77,90,0,0
33774,-35.0877192982456,4,2,77,5,0,0
33862,-35.0877192982456,4,2,77,90,0,0
34127,-35.0877192982456,4,2,77,5,0,0
34215,-35.0877192982456,4,2,77,90,0,0
35186,-35.0877192982456,4,2,77,5,0,0
35274,-35.0877192982456,4,2,77,90,0,0
36597,-35.0877192982456,4,2,77,5,0,0
36686,-35.0877192982456,4,2,77,90,0,0
38009,-35.0877192982456,4,2,77,5,0,0
38097,-35.0877192982456,4,2,77,90,0,0
38450,-40,4,2,77,90,0,0
38715,-40,4,2,77,5,0,0
38803,-40,4,2,77,90,0,0
39156,-45.4545454545455,4,2,77,90,0,0
39421,-45.4545454545455,4,2,77,5,0,0
39509,-45.4545454545455,4,2,77,90,0,0
39862,-100,4,2,77,75,0,0
40568,-35.0877192982456,4,2,77,90,0,0
40833,-35.0877192982456,4,2,77,5,0,0
40921,-35.0877192982456,4,2,77,90,0,0
41891,-35.0877192982456,4,2,77,5,0,0
41980,-35.0877192982456,4,2,77,90,0,0
42244,-35.0877192982456,4,2,77,5,0,0
42333,-35.0877192982456,4,2,77,90,0,0
43656,-35.0877192982456,4,2,77,5,0,0
43744,-45.4545454545455,4,2,77,90,0,0
43833,-45.4545454545455,4,2,78,5,0,0
43921,-45.4545454545455,4,2,78,90,0,0
44009,-45.4545454545455,4,2,78,5,0,0
44097,-45.4545454545455,4,2,78,90,0,0
44186,-45.4545454545455,4,2,78,5,0,0
44274,-45.4545454545455,4,2,77,90,0,0
44362,-45.4545454545455,4,2,78,5,0,0
44450,-45.4545454545455,4,2,78,90,0,0
44538,-45.4545454545455,4,2,78,5,0,0
44627,-45.4545454545455,4,2,79,90,0,0
44715,-45.4545454545455,4,2,78,5,0,0
44803,-35.0877192982456,4,2,77,90,0,0
46480,-35.0877192982456,4,2,77,5,0,0
46568,-35.0877192982456,4,2,77,90,0,0
47891,-35.0877192982456,4,2,77,5,0,0
47980,-35.0877192982456,4,2,77,90,0,0
49038,-41.6666666666667,4,2,77,75,0,0
49303,-41.6666666666667,4,2,77,5,0,0
49391,-41.6666666666667,4,2,77,75,0,0
49833,-41.6666666666667,4,2,77,5,0,0
49921,-41.6666666666667,4,2,77,75,0,0
50097,-100,4,2,77,75,0,0
50362,-100,4,2,77,5,0,0
50450,-100,4,2,77,60,0,0
50627,-100,4,2,77,65,0,0
50803,-100,4,2,77,70,0,0
50980,-100,4,2,77,75,0,0
51156,-35.0877192982456,4,2,77,80,0,0
51333,-35.0877192982456,4,2,77,85,0,0
51509,-35.0877192982456,4,2,77,90,0,0
51686,-35.0877192982456,4,2,77,95,0,0
51862,-35.0877192982456,4,2,77,100,0,1
59274,-31.25,4,2,77,100,0,1
59627,-35.0877192982456,4,2,77,100,0,1
60333,-45.4545454545455,4,2,77,100,0,1
60597,-45.4545454545455,4,2,77,5,0,1
60686,-45.4545454545455,4,2,77,100,0,1
60774,-45.4545454545455,4,2,77,5,0,1
60862,-45.4545454545455,4,2,77,100,0,1
60950,-45.4545454545455,4,2,77,9,0,1
61038,-45.4545454545455,4,2,77,100,0,1
62450,-27.027027027027,4,2,77,100,0,1
62803,-25,4,2,77,100,0,1
63068,-25,4,2,77,5,0,1
63156,-35.0877192982456,4,2,77,90,0,0
63421,-35.0877192982456,4,2,77,5,0,0
63509,-35.0877192982456,4,2,77,90,0,0
64833,-35.0877192982456,4,2,77,5,0,0
64921,-35.0877192982456,4,2,77,90,0,0
66244,-35.0877192982456,4,2,77,5,0,0
66333,-45.4545454545455,4,2,77,90,0,0
66421,-45.4545454545455,4,2,78,5,0,0
66509,-45.4545454545455,4,2,78,90,0,0
66597,-45.4545454545455,4,2,78,5,0,0
66686,-45.4545454545455,4,2,78,90,0,0
66774,-45.4545454545455,4,2,78,5,0,0
66862,-45.4545454545455,4,2,77,90,0,0
66950,-45.4545454545455,4,2,78,5,0,0
67038,-45.4545454545455,4,2,78,90,0,0
67127,-45.4545454545455,4,2,78,5,0,0
67215,-45.4545454545455,4,2,79,90,0,0
67303,-45.4545454545455,4,2,78,5,0,0
67391,-35.0877192982456,4,2,77,90,0,0
69068,-35.0877192982456,4,2,77,5,0,0
69156,-35.0877192982456,4,2,77,90,0,0
70480,-35.0877192982456,4,2,77,5,0,0
70568,-35.0877192982456,4,2,77,90,0,0
71627,-45.4545454545455,4,2,77,90,0,0
71715,-45.4545454545455,4,2,77,5,0,0
71803,-45.4545454545455,4,2,78,90,0,0
71891,-45.4545454545455,4,2,77,5,0,0
71980,-45.4545454545455,4,2,78,90,0,0
72068,-45.4545454545455,4,2,77,5,0,0
72156,-45.4545454545455,4,2,78,90,0,0
72244,-45.4545454545455,4,2,77,5,0,0
72333,-52.6315789473684,4,2,77,75,0,0
73038,-35.0877192982456,4,2,77,75,0,0
73215,-35.0877192982456,4,2,77,80,0,0
73568,-35.0877192982456,4,2,77,85,0,0
73921,-35.0877192982456,4,2,77,90,0,0
74362,-35.0877192982456,4,2,77,5,0,0
74450,-28.5714285714286,4,2,77,90,0,0
74715,-28.5714285714286,4,2,77,5,0,0
74803,-28.5714285714286,4,2,77,90,0,0
74891,-28.5714285714286,4,2,77,5,0,0
74980,-28.5714285714286,4,2,77,90,0,0
75244,-28.5714285714286,4,2,77,5,0,0
75333,-28.5714285714286,4,2,77,90,0,0
75421,-28.5714285714286,4,2,77,5,0,0
75509,-28.5714285714286,4,2,77,90,0,0
75774,-28.5714285714286,4,2,77,5,0,0
75862,-35.0877192982456,4,2,77,90,0,0
75950,-35.0877192982456,4,2,77,5,0,0
76038,-35.0877192982456,4,2,77,90,0,0
76127,-35.0877192982456,4,2,77,5,0,0
76215,-35.0877192982456,4,2,77,90,0,0
76303,-35.0877192982456,4,2,77,5,0,0
76391,-35.0877192982456,4,2,77,90,0,0
76480,-35.0877192982456,4,2,77,5,0,0
76568,-35.0877192982456,4,2,77,90,0,0
76921,-66.6666666666667,4,2,77,90,0,0
77274,-28.5714285714286,4,2,77,90,0,0
77538,-28.5714285714286,4,2,77,5,0,0
77627,-28.5714285714286,4,2,77,90,0,0
77715,-28.5714285714286,4,2,77,5,0,0
77803,-28.5714285714286,4,2,77,90,0,0
78068,-28.5714285714286,4,2,77,5,0,0
78156,-28.5714285714286,4,2,77,90,0,0
78244,-28.5714285714286,4,2,77,5,0,0
78333,-28.5714285714286,4,2,77,90,0,0
78603,-28.5714285714286,4,2,77,5,0,0
78686,-35.0877192982456,4,2,77,90,0,0
78774,-35.0877192982456,4,2,77,5,0,0
78862,-35.0877192982456,4,2,77,90,0,0
78950,-35.0877192982456,4,2,77,5,0,0
79038,-35.0877192982456,4,2,77,90,0,0
79127,-35.0877192982456,4,2,77,5,0,0
79215,-35.0877192982456,4,2,77,90,0,0
79303,-35.0877192982456,4,2,77,5,0,0
79391,-35.0877192982456,4,2,77,90,0,0
79744,-66.6666666666667,4,2,77,90,0,0
80097,-28.5714285714286,4,2,77,90,0,0
80362,-28.5714285714286,4,2,77,5,0,0
80450,-28.5714285714286,4,2,77,90,0,0
80538,-28.5714285714286,4,2,77,5,0,0
80627,-28.5714285714286,4,2,77,90,0,0
80891,-28.5714285714286,4,2,77,5,0,0
80980,-28.5714285714286,4,2,77,90,0,0
81068,-28.5714285714286,4,2,77,5,0,0
81156,-28.5714285714286,4,2,77,90,0,0
81421,-28.5714285714286,4,2,77,5,0,0
81509,-35.0877192982456,4,2,77,90,0,0
81597,-35.0877192982456,4,2,77,5,0,0
81686,-35.0877192982456,4,2,77,90,0,0
81774,-35.0877192982456,4,2,77,5,0,0
81862,-35.0877192982456,4,2,77,90,0,0
81950,-35.0877192982456,4,2,77,5,0,0
82038,-35.0877192982456,4,2,77,90,0,0
82127,-35.0877192982456,4,2,77,5,0,0
82215,-35.0877192982456,4,2,77,90,0,0
82568,-66.6666666666667,4,2,77,90,0,0
82921,-35.0877192982456,4,2,77,90,0,0
83891,-35.0877192982456,4,2,77,5,0,0
83980,-35.0877192982456,4,2,77,90,0,0
86009,-35.0877192982456,4,2,77,5,0,0
86097,-35.0877192982456,4,2,77,90,0,0
87421,-35.0877192982456,4,2,77,5,0,0
87509,-35.0877192982456,4,2,77,90,0,0
88833,-35.0877192982456,4,2,77,5,0,0
88921,-35.0877192982456,4,2,77,90,0,0
91656,-35.0877192982456,4,2,77,5,0,0
91744,-35.0877192982456,4,2,77,90,0,0
93068,-35.0877192982456,4,2,77,5,0,0
93156,-35.0877192982456,4,2,77,90,0,0
94127,-35.0877192982456,4,2,77,5,0,0
94215,-35.0877192982456,4,2,77,90,0,0
96597,-35.0877192982456,4,2,77,5,0,0
96686,-35.0877192982456,4,2,77,90,0,0
97303,-35.0877192982456,4,2,77,5,0,0
97391,-35.0877192982456,4,2,77,90,0,0
98715,-35.0877192982456,4,2,77,5,0,0
98803,-35.0877192982456,4,2,77,90,0,0
100127,-35.0877192982456,4,2,77,5,0,0
100215,-45.4545454545455,4,2,77,90,0,0
100303,-45.4545454545455,4,2,77,5,0,0
100391,-45.4545454545455,4,2,78,90,0,0
100480,-45.4545454545455,4,2,77,5,0,0
100568,-45.4545454545455,4,2,78,90,0,0
100656,-45.4545454545455,4,2,77,5,0,0
100744,-45.4545454545455,4,2,77,90,0,0
100833,-45.4545454545455,4,2,77,5,0,0
100921,-45.4545454545455,4,2,78,90,0,0
101009,-45.4545454545455,4,2,77,5,0,0
101097,-45.4545454545455,4,2,79,90,0,0
101186,-45.4545454545455,4,2,77,5,0,0
101274,-35.0877192982456,4,2,77,90,0,0
102950,-35.0877192982456,4,2,77,5,0,0
103038,-35.0877192982456,4,2,77,90,0,0
104362,-35.0877192982456,4,2,77,5,0,0
104450,-35.0877192982456,4,2,77,90,0,0
105774,-35.0877192982456,4,2,77,5,0,0
105862,-35.0877192982456,4,2,77,90,0,0
106127,-35.0877192982456,4,2,77,5,0,0
106215,-30.3030303030303,4,2,77,90,0,0
106480,-30.3030303030303,4,2,77,5,0,0
106568,-30.3030303030303,4,2,77,90,0,0
106833,-30.3030303030303,4,2,77,5,0,0
106921,-27.7777777777778,4,2,77,90,0,0
106943,-27.7777777777778,4,2,78,5,0,0
107009,-27.7777777777778,4,2,77,10,0,0
107097,-27.7777777777778,4,2,78,15,0,0
107186,-27.7777777777778,4,2,77,20,0,0
107274,-27.7777777777778,4,2,78,25,0,0
107362,-27.7777777777778,4,2,77,30,0,0
107450,-27.7777777777778,4,2,78,35,0,0
107538,-27.7777777777778,4,2,77,40,0,0
107627,-27.7777777777778,4,2,78,45,0,0
107715,-27.7777777777778,4,2,77,50,0,0
107803,-27.7777777777778,4,2,78,60,0,0
107891,-27.7777777777778,4,2,77,70,0,0
107980,-27.7777777777778,4,2,78,80,0,0
108068,-27.7777777777778,4,2,77,90,0,0
108156,-27.7777777777778,4,2,78,100,0,0
108244,-27.7777777777778,4,2,77,5,0,0
108333,-35.0877192982456,4,2,77,100,0,1
113274,-45.4545454545455,4,2,77,100,0,1
113450,-38.4615384615385,4,2,77,100,0,1
113627,-33.3333333333333,4,2,77,100,0,1
113803,-29.4117647058824,4,2,77,100,0,1
113980,-35.0877192982456,4,2,77,100,0,1
116891,-35.0877192982456,4,2,77,5,0,1
116980,-35.0877192982456,4,2,77,100,0,1
117068,-35.0877192982456,4,2,77,5,0,1
117156,-35.0877192982456,4,2,77,100,0,1
117244,-35.0877192982456,4,2,77,5,0,1
117333,-35.0877192982456,4,2,77,100,0,1
117421,-35.0877192982456,4,2,77,5,0,1
117509,-35.0877192982456,4,2,77,100,0,1
117597,-35.0877192982456,4,2,77,5,0,1
117686,-35.0877192982456,4,2,77,100,0,1
117774,-35.0877192982456,4,2,77,5,0,1
117862,-35.0877192982456,4,2,77,100,0,1
117950,-35.0877192982456,4,2,77,5,0,1
118038,-35.0877192982456,4,2,77,100,0,1
118127,-35.0877192982456,4,2,77,5,0,1
118215,-35.0877192982456,4,2,77,100,0,1
118480,-35.0877192982456,4,2,77,5,0,1
118568,-35.0877192982456,4,2,77,100,0,1
118833,-35.0877192982456,4,2,77,5,0,1
118921,-35.0877192982456,4,2,77,100,0,1
119450,-35.0877192982456,4,2,77,100,0,0
119627,-35.0877192982456,4,2,77,100,0,1
126068,-35.0877192982456,4,2,77,5,0,1
126156,-35.0877192982456,4,2,77,100,0,1
126244,-35.0877192982456,4,2,77,5,0,1
126333,-35.0877192982456,4,2,77,100,0,1
126421,-35.0877192982456,4,2,77,5,0,1
126509,-35.0877192982456,4,2,77,100,0,1
126597,-35.0877192982456,4,2,77,5,0,1
126686,-35.0877192982456,4,2,77,100,0,1
128362,-35.0877192982456,4,2,77,5,0,1
128450,-66.6666666666667,4,2,77,100,0,1
128715,-66.6666666666667,4,2,77,5,0,1
128803,-35.0877192982456,4,2,77,100,0,1
129244,-35.0877192982456,4,2,77,5,0,1
129333,-35.0877192982456,4,2,77,100,0,1
129421,-35.0877192982456,4,2,77,5,0,1
129509,-35.0877192982456,4,2,77,100,0,1
129597,-35.0877192982456,4,2,77,5,0,1
129686,-35.0877192982456,4,2,77,100,0,1
129774,-35.0877192982456,4,2,77,5,0,1
129862,-35.0877192982456,4,2,77,100,0,1
130568,-100,4,2,77,100,0,1
130921,-100,4,2,77,100,0,0
131097,-100,4,2,77,95,0,0
131274,-100,4,2,77,90,0,0
131450,-100,4,2,77,85,0,0
131627,-100,4,2,77,80,0,0
131803,-100,4,2,77,75,0,0
131980,-100,4,2,77,70,0,0
132156,-100,4,2,77,65,0,0
132333,-100,4,2,77,60,0,0
132509,-100,4,2,77,55,0,0
132686,-100,4,2,77,50,0,0
132862,-100,4,2,77,45,0,0
133038,-100,4,2,77,40,0,0
133215,-100,4,2,77,35,0,0
133391,-100,4,2,77,30,0,0
133568,-100,4,2,77,25,0,0
133744,-100,4,2,77,50,0,0

[Colours]
Combo1 : 17,254,176
Combo2 : 173,255,95
Combo3 : 255,88,100
Combo4 : 255,94,55

[HitObjects]
434,130,1039,6,0,B|470:108|479:71|479:71|445:215,1,225,6|0,0:0|0:0,0:0:0:0:
351,186,2274,1,2,0:0:0:0:
258,155,2450,5,2,0:0:0:0:
258,155,3686,2,0,B|301:155,1,32.8125003129244,2|0,0:0|0:0,0:0:0:0:
244,254,3862,6,0,L|208:27,1,225
267,98,5097,1,2,0:0:0:0:
186,186,5274,5,2,0:0:0:0:
186,186,6509,1,2,0:0:0:0:
124,136,6686,6,0,B|100:119|64:119|64:119|119:101|178:120|186:187,1,225,2|0,0:0|0:0,0:0:0:0:
273,132,7921,1,2,0:0:0:0:
360,79,8097,5,2,0:0:0:0:
360,79,9333,2,0,P|346:70|360:60,1,37.5,2|0,0:0|0:0,0:0:0:0:
458,119,9509,6,0,P|333:130|280:208,1,225
298,110,10744,1,2,0:0:0:0:
376,248,10921,5,2,0:0:0:0:
376,248,12156,1,2,0:0:0:0:
456,194,12333,6,0,P|461:181|454:165,3,28.1250010728836,2|0|0|0,0:0|0:0|0:0|0:0,0:0:0:0:
362,275,13038,6,0,P|373:266|377:248,3,33.7499989700318,0|0|0|2,0:0|0:0|0:0|0:0,0:0:0:0:
220,286,13744,6,0,P|236:284|251:269,3,39.3749987983704,2|0|0|0,0:0|0:0|0:0|0:0,0:0:0:0:
78,222,14450,6,0,P|93:233|117:231,3,44.999998626709,0|0|0|2,0:0|0:0|0:0|0:0,0:0:0:0:
41,86,15156,6,0,L|88:105,1,50.6250001931191
88,87,15509,2,0,L|41:106,1,50.6250001931191
2,247,15862,2,0,P|41:220|93:225,1,101.250000386238
92,224,16391,1,2,0:0:0:0:
216,120,16568,6,0,L|146:98,1,60,2|0,0:0|0:0,0:0:0:0:
320,156,16921,1,8,0:0:0:0:
150,207,17097,6,0,L|90:225,1,60
269,173,17450,1,8,0:0:0:0:
395,138,17627,1,8,0:0:0:0:
108,91,17980,5,2,3:2:0:0:
138,16,18156,2,0,L|150:219,1,191.250003647804,8|0,0:0|0:0,0:0:0:0:
47,284,18862,2,0,P|15:237|44:179,1,127.50000243187,0|10,3:2|0:2,0:2:0:0:
196,362,19391,6,0,B|175:358|171:344|171:344|175:358|161:373,1,63.7500012159348,2|0,3:2|0:0,0:0:0:0:
161,372,19744,1,8,0:0:0:0:
333,325,19921,6,0,B|317:310|322:294|322:294|317:310|294:315,1,69.3749997353554,0|0,3:2|0:0,0:0:0:0:
296,314,20274,1,8,0:0:0:0:
431,383,20450,5,8,0:0:0:0:
512,145,20803,6,0,B|471:145|471:145|413:145|429:178|374:178|374:178|332:178,1,188.437500718832,4|0,1:2|0:0,0:0:0:0:
331,178,21156,1,0,3:0:0:0:
512,179,21333,6,0,B|471:179|471:179|413:179|429:146|374:146|374:146|332:146,1,188.437500718832,8|0,1:3|0:0,0:0:0:0:
331,146,21686,1,0,3:0:0:0:
419,21,21862,6,0,B|411:1|411:1|419:-18|419:-18|427:1|427:1|419:21,1,84.3750032186509,4|0,1:3|0:0,0:0:0:0:
473,97,22215,5,8,0:0:0:0:
447,109,22303,1,8,0:0:0:0:
419,114,22391,1,8,0:0:0:0:
390,110,22480,1,8,0:0:0:0:
365,96,22568,1,8,0:0:0:0:
343,78,22656,1,8,0:0:0:0:
315,72,22744,1,8,0:0:0:0:
286,76,22833,1,8,0:0:0:0:
261,55,22921,5,8,0:0:0:0:
263,83,23009,1,8,0:0:0:0:
265,114,23097,1,8,0:0:0:0:
266,150,23186,1,8,0:0:0:0:
268,189,23274,1,8,0:0:0:0:
271,230,23362,1,8,0:0:0:0:
274,274,23450,1,8,0:0:0:0:
278,325,23538,1,8,0:0:0:0:
282,381,23627,6,0,B|416:326|416:326|371:345|362:385,1,225,6|0,0:0|0:0,0:0:0:0:
362,381,24862,1,2,0:0:0:0:
240,254,25038,6,0,B|201:277|153:245|161:240|170:233|124:202|86:224,1,168.750006437302,2|0,0:0|0:0,0:0:0:0:
86,224,26274,1,2,0:0:0:0:
240,254,26450,6,2,B|248:272|250:301|236:342|194:367|136:359|105:322|90:273|113:235|144:212|144:212|174:186|204:161|222:111|217:45|178:-1|129:-21|47:-22|-21:25|-45:89|-33:175|20:215|87:223,1,888.37499254446,0|0,0:2|0:0,0:1:0:0:
4,237,28568,6,0,B|4:244|-2:245|-9:245|-16:243|-16:237|-16:229|-12:226|-4:226|4:229|4:237,1,51.5625004917383,2|0,0:3|0:0,0:0:0:0:
55,142,28744,6,0,B|50:145|45:142|41:136|39:130|44:126|49:124|55:124|59:130|60:138|55:142,1,46.875,2|0,0:3|0:0,0:0:0:0:
156,129,28921,6,0,B|150:127|150:123|151:116|154:112|159:112|164:114|167:118|166:124|162:130|156:129,1,42.1875016093255,2|0,0:3|0:0,0:0:0:0:
250,165,29097,6,0,B|247:161|248:157|253:154|257:152|261:155|263:158|263:163|259:167|253:169|250:165,1,37.5,2|0,0:3|0:0,0:0:0:0:
352,135,29274,6,0,P|277:128|245:53,1,160.312501528859,6|0,1:2|0:0,0:0:0:0:
244,57,29627,1,8,0:0:0:0:
458,184,29803,1,0,1:2:0:0:
458,184,29891,1,0,1:2:0:0:
458,184,29980,2,0,B|477:201|508:201|508:201|477:201|457:217,1,106.875001019239,0|8,1:2|0:0,0:0:0:0:
354,319,30333,1,0,1:2:0:0:
388,327,30421,1,0,1:2:0:0:
423,336,30509,1,2,1:2:0:0:
458,345,30597,1,0,1:2:0:0:
493,354,30686,6,0,B|424:372|424:372|407:367|407:367|338:384,1,160.312501528859,2|0,1:2|0:0,0:0:0:0:
337,384,31038,1,8,0:0:0:0:
273,225,31215,1,0,1:2:0:0:
261,246,31303,1,0,1:2:0:0:
249,267,31391,1,8,0:0:0:0:
121,135,31568,1,0,1:2:0:0:
119,158,31656,1,0,1:2:0:0:
118,181,31744,1,0,1:2:0:0:
115,205,31832,1,0,1:2:0:0:
113,229,31920,1,10,0:0:0:0:
256,0,32097,6,0,L|277:166,1,160.312501528859,0|0,1:2|0:0,0:0:0:0:
241,247,32450,6,0,P|243:268|261:257,1,41.2500012588501,8|0,0:0|0:0,0:0:0:0:
309,338,32627,2,0,P|328:336|329:316,1,41.2500012588501,2|0,3:0|0:0,0:0:0:0:
416,301,32803,2,0,P|420:282|401:274,1,41.2500012588501,2|0,0:3|0:0,0:0:0:0:
305,153,32980,6,0,P|290:164|298:182,1,41.2500012588501,8|0,0:0|0:0,0:0:0:0:
411,183,33156,2,0,P|396:172|383:186,1,41.2500012588501,2|0,0:3|0:0,0:0:0:0:
415,300,33333,2,0,P|420:281|403:274,1,41.2500012588501,2|0,0:3|0:0,0:0:0:0:
295,380,33509,6,0,B|252:389|219:345|227:343|237:340|205:298|165:307,1,160.312501528859,2|0,1:2|0:0,0:0:0:0:
156,352,33862,2,0,B|192:376|239:348|232:343|224:336|269:309|303:333,1,160.312501528859,8|0,0:0|0:0,0:0:0:0:
303,333,34215,1,8,0:0:0:0:
419,222,34391,1,0,1:2:0:0:
388,232,34480,1,0,1:2:0:0:
356,229,34568,1,0,1:2:0:0:
331,209,34656,1,0,1:2:0:0:
322,178,34744,1,10,0:0:0:0:
454,43,34921,6,0,B|471:19|465:-8|465:-8|484:95,1,160.312501528859,2|0,1:2|0:0,0:0:0:0:
485,96,35274,1,8,0:0:0:0:
330,184,35450,1,0,1:2:0:0:
330,184,35538,1,0,1:2:0:0:
330,184,35627,2,0,B|300:196|296:223|296:223|300:196|277:177,1,106.875001019239,0|8,1:2|0:0,0:0:0:0:
512,267,35980,1,0,1:2:0:0:
475,259,36068,1,0,1:2:0:0:
437,266,36156,1,2,1:2:0:0:
412,295,36244,1,0,1:2:0:0:
406,334,36333,6,0,B|358:326|358:326|327:333|327:333|302:317|302:317|248:307,1,160.312501528859,2|0,1:2|0:0,0:0:0:0:
252,307,36686,1,8,0:0:0:0:
360,146,36862,1,0,1:2:0:0:
366,171,36950,1,0,1:2:0:0:
372,196,37038,1,8,0:0:0:0:
218,52,37215,1,0,1:2:0:0:
213,78,37303,1,0,1:2:0:0:
209,105,37391,1,0,1:2:0:0:
204,131,37480,1,0,1:2:0:0:
199,157,37568,1,10,0:0:0:0:
464,75,37744,6,0,P|417:129|336:113,1,160.312501528859,0|0,1:2|0:2,0:0:0:0:
337,95,38097,1,8,0:0:0:0:
87,150,38274,1,0,1:2:0:0:
87,150,38362,1,8,0:0:0:0:
87,150,38450,6,0,P|127:196|197:182,1,140.625,0|0,1:2|0:2,0:0:0:0:
199,161,38803,1,8,0:0:0:0:
407,230,38980,1,2,1:2:0:0:
407,230,39068,1,8,0:0:0:0:
407,230,39156,6,0,P|368:271|307:258,1,123.75000377655,2|0,1:2|0:0,0:0:0:0:
307,239,39509,1,8,0:0:0:0:
146,297,39686,1,0,1:2:0:0:
146,297,39774,1,8,0:0:0:0:
146,297,39862,6,0,L|190:313,1,37.5,0|0,1:2|0:0,0:0:0:0:
182,297,40215,6,0,L|138:313,1,37.5,0|2,1:2|0:0,0:0:0:0:
170,384,40568,6,0,L|155:224,1,160.312501528859,6|0,1:2|0:0,0:0:0:0:
155,224,40921,1,8,0:0:0:0:
65,76,41097,1,0,1:2:0:0:
60,91,41186,1,0,1:2:0:0:
55,106,41274,5,2,1:2:0:0:
86,125,41362,1,2,0:0:0:0:
123,124,41450,1,10,0:0:0:0:
156,108,41538,1,2,0:0:0:0:
175,75,41627,1,2,1:2:0:0:
179,38,41715,1,2,1:2:0:0:
166,2,41803,2,0,B|156:-9|142:-8|142:-8|156:-8|166:-19,1,53.4375005096197,2|0,1:2|0:0,0:0:0:0:
284,52,41980,6,0,B|385:29|385:29|351:37|336:62,1,160.312501528859,2|0,1:2|0:0,0:0:0:0:
338,58,42333,1,8,0:0:0:0:
461,194,42509,1,0,1:2:0:0:
470,180,42597,1,0,1:2:0:0:
479,165,42686,6,0,B|426:178,1,53.4375005096197,10|2,0:0|0:0,0:0:0:0:
344,275,42862,1,2,1:2:0:0:
379,263,42950,1,2,1:2:0:0:
415,269,43038,1,2,1:2:0:0:
443,294,43127,1,2,1:2:0:0:
451,330,43215,1,10,0:2:0:0:
329,120,43391,6,0,B|398:135|398:135|409:150|409:150|482:165,1,160.312501528859,2|0,1:2|0:0,0:0:0:0:
512,99,43744,6,0,P|510:116|490:113,1,41.2500012588501,8|0,0:0|0:0,0:0:0:0:
415,62,43921,6,0,P|417:45|437:48,1,41.2500012588501,2|0,0:3|0:0,0:0:0:0:
354,128,44097,6,0,P|339:137|329:120,1,41.2500012588501,2|0,0:3|0:0,0:0:0:0:
204,141,44274,6,0,P|219:132|229:149,1,41.2500012588501,8|0,0:0|0:0,0:0:0:0:
230,25,44450,6,0,P|213:19|220:0,1,41.2500012588501,2|0,0:3|0:0,0:0:0:0:
45,67,44627,6,0,P|61:72|54:91,1,41.2500012588501,2|0,0:3|0:0,0:0:0:0:
125,246,44803,6,0,P|190:178|315:181,2,213.750002038479,2|8|8,1:2|0:0|0:0,0:0:0:0:
57,86,45686,1,0,1:2:0:0:
33,91,45774,1,0,1:2:0:0:
9,95,45862,1,2,1:2:0:0:
33,101,45950,1,0,1:2:0:0:
57,106,46038,1,8,0:0:0:0:
221,26,46215,6,0,B|245:11|252:-18|252:-18|228:90,1,160.312501528859,2|0,1:2|0:0,0:0:0:0:
229,84,46568,1,8,0:0:0:0:
49,219,46744,1,0,1:2:0:0:
49,219,46833,1,0,1:2:0:0:
49,219,46921,2,0,P|87:186|141:190,1,106.875001019239,0|8,1:2|0:0,0:0:0:0:
221,26,47274,1,0,1:2:0:0:
239,58,47362,1,0,1:2:0:0:
259,89,47450,1,2,1:2:0:0:
278,120,47538,1,0,1:2:0:0:
299,150,47627,6,0,B|256:159|223:115|231:113|241:110|210:70|169:77,1,160.312501528859,2|0,1:2|0:0,0:0:0:0:
168,77,47980,1,8,0:0:0:0:
400,54,48156,1,0,1:2:0:0:
408,42,48244,1,0,1:2:0:0:
418,30,48333,6,0,B|407:6|407:6|394:29,1,53.4375005096197,10|2,0:0|0:0,0:0:0:0:
512,101,48509,1,2,1:2:0:0:
508,138,48597,1,0,1:2:0:0:
484,167,48686,1,0,1:2:0:0:
448,178,48774,1,0,1:2:0:0:
410,173,48862,1,10,0:0:0:0:
156,215,49038,6,0,B|167:240|167:240|245:270|245:270|254:300,1,134.999995880127,6|0,1:2|0:0,0:0:0:0:
251,293,49391,1,0,3:2:0:0:
247,182,49568,6,0,B|255:208|255:208|217:283|217:283|229:311,1,134.999995880127,8|0,1:3|0:0,0:0:0:0:
226,304,49921,1,0,3:0:0:0:
171,120,50097,6,0,P|150:111|171:102,1,56.25,4|0,1:3|0:0,0:0:0:0:
262,46,50450,5,8,0:0:0:0:
268,43,50538,1,8,0:0:0:0:
275,44,50626,1,8,0:0:0:0:
280,49,50714,1,8,0:0:0:0:
281,55,50802,1,8,0:0:0:0:
279,62,50891,1,8,0:0:0:0:
274,66,50979,1,8,0:0:0:0:
267,67,51067,1,8,0:0:0:0:
261,64,51155,5,8,0:0:0:0:
286,49,51244,1,8,0:0:0:0:
317,39,51333,1,8,0:0:0:0:
356,39,51421,1,8,0:0:0:0:
399,54,51509,1,8,0:0:0:0:
433,84,51597,1,8,0:0:0:0:
452,128,51686,1,8,0:0:0:0:
458,176,51774,1,8,0:0:0:0:
465,169,51862,5,6,1:2:0:0:
482,213,51950,1,2,0:0:0:0:
471,259,52038,1,2,0:0:0:0:
432,288,52127,1,2,0:0:0:0:
384,294,52215,1,10,0:0:0:0:
341,272,52303,1,2,0:0:0:0:
317,229,52391,1,2,1:2:0:0:
322,180,52480,1,0,1:2:0:0:
343,137,52568,5,2,1:2:0:0:
345,89,52656,1,2,0:2:0:0:
326,44,52744,1,10,0:0:0:0:
287,14,52833,1,2,0:0:0:0:
239,12,52921,1,2,1:2:0:0:
194,29,53009,1,2,1:2:0:0:
172,71,53097,1,2,1:2:0:0:
169,119,53186,1,0,1:2:0:0:
186,163,53274,6,0,L|241:155,1,53.4375005096197,2|2,1:2|0:0,0:0:0:0:
305,259,53450,2,0,L|360:251,1,53.4375005096197,2|0,0:0|0:0,0:0:0:0:
127,209,53627,2,0,L|182:201,1,53.4375005096197,10|2,0:0|0:0,0:0:0:0:
358,210,53803,2,0,L|413:202,1,53.4375005096197,2|0,1:2|1:2,0:0:0:0:
288,366,53980,2,0,P|246:340|191:349,1,106.875001019239,10|2,0:0|1:2,0:0:0:0:
196,339,54244,1,2,1:2:0:0:
200,329,54333,1,2,1:2:0:0:
204,319,54421,1,2,1:2:0:0:
208,309,54509,1,10,0:0:0:0:
41,99,54686,5,2,1:2:0:0:
9,136,54774,1,2,0:0:0:0:
2,185,54862,1,2,0:0:0:0:
20,230,54950,1,2,0:0:0:0:
60,259,55038,1,10,0:0:0:0:
109,263,55127,1,2,0:0:0:0:
153,242,55215,1,2,1:2:0:0:
179,201,55303,1,0,1:2:0:0:
181,152,55391,5,2,1:2:0:0:
170,170,55480,1,2,0:0:0:0:
160,189,55568,1,10,0:0:0:0:
149,206,55656,1,2,0:0:0:0:
153,242,55744,5,2,1:2:0:0:
142,260,55833,1,2,1:2:0:0:
132,279,55921,1,2,1:2:0:0:
121,296,56009,1,2,1:2:0:0:
128,334,56097,5,2,1:2:0:0:
160,370,56186,1,2,0:0:0:0:
207,377,56274,1,2,0:0:0:0:
248,353,56362,1,2,0:0:0:0:
261,306,56450,1,10,0:0:0:0:
257,258,56538,1,2,0:0:0:0:
272,211,56627,1,2,1:2:0:0:
313,187,56715,1,0,1:2:0:0:
360,184,56803,5,10,0:0:0:0:
371,202,56892,1,2,0:0:0:0:
381,221,56980,1,2,1:2:0:0:
392,238,57068,1,2,1:2:0:0:
403,255,57156,2,0,B|386:260|386:275|386:275|386:261|367:252,2,53.4375005096197,2|2|10,1:2|1:2|0:0,0:0:0:0:
470,86,57509,5,2,1:2:0:0:
425,67,57597,1,2,0:0:0:0:
379,50,57686,1,2,0:0:0:0:
334,32,57774,1,2,0:0:0:0:
288,16,57862,1,10,0:0:0:0:
241,27,57950,1,2,0:0:0:0:
214,67,58038,1,2,1:2:0:0:
223,114,58127,1,0,1:2:0:0:
258,143,58215,5,2,1:2:0:0:
304,131,58303,1,2,0:0:0:0:
351,122,58391,1,10,0:0:0:0:
398,112,58480,1,2,0:0:0:0:
445,103,58568,1,2,1:2:0:0:
489,122,58656,1,2,1:2:0:0:
511,164,58744,1,2,1:2:0:0:
501,211,58833,1,0,1:2:0:0:
464,242,58921,6,0,P|476:217|472:189,1,53.4375005096197,2|2,1:2|0:0,0:0:0:0:
385,228,59097,2,0,P|381:201|394:177,1,53.4375005096197,2|0,0:0|0:0,0:0:0:0:
247,95,59274,6,0,P|233:66|238:36,1,60,10|2,0:0|0:0,0:0:0:0:
333,81,59450,2,0,P|335:51|323:25,1,60,2|0,1:2|1:2,0:0:0:0:
173,192,59627,5,10,0:0:0:0:
152,186,59715,1,2,0:0:0:0:
131,180,59803,1,2,1:2:0:0:
110,174,59891,1,2,1:2:0:0:
89,168,59980,1,2,1:2:0:0:
68,163,60068,1,2,1:2:0:0:
47,156,60156,2,0,B|34:179|34:179|46:203,1,53.4375005096197,10|0,0:0|0:0,0:0:0:0:
30,337,60333,6,0,P|77:301|152:303,1,123.75000377655,2|0,1:2|0:0,0:0:0:0:
139,298,60686,2,0,L|93:279,1,41.2500012588501,2|0,1:2|0:0,0:0:0:0:
256,237,60862,2,0,L|217:248,1,41.2500012588501,2|0,1:2|0:0,0:0:0:0:
256,363,61038,5,10,0:0:0:0:
337,321,61391,5,10,0:0:0:0:
426,336,61744,5,10,0:0:0:0:
413,348,61833,1,2,1:2:0:0:
401,336,61921,5,2,1:2:0:0:
388,348,62010,1,0,1:2:0:0:
376,336,62097,5,2,1:2:0:0:
363,348,62186,1,2,1:2:0:0:
351,336,62274,5,10,0:2:0:0:
338,348,62363,1,0,1:2:0:0:
324,336,62450,6,0,L|331:291,2,46.2499998235703,2|2|0,1:2|0:0|0:0,0:0:0:0:
221,312,62627,6,0,L|211:264,2,46.2499998235703,2|2|0,0:2|0:0|0:0,0:0:0:0:
133,365,62803,6,0,P|41:356|14:229,1,225,2|0,1:2|0:0,0:0:0:0:
0,216,63156,6,0,B|67:204|67:204|87:213|87:213|156:200,1,160.312501528859,4|0,1:2|0:0,0:0:0:0:
156,199,63509,1,8,0:0:0:0:
301,87,63686,1,0,1:2:0:0:
301,87,63774,1,0,1:2:0:0:
301,87,63862,2,0,B|269:75|264:49|264:49|269:75|245:93,1,106.875001019239,0|8,1:2|0:0,0:0:0:0:
462,208,64215,1,0,1:2:0:0:
421,199,64303,1,0,1:2:0:0:
380,208,64391,1,2,1:2:0:0:
354,241,64480,1,0,1:2:0:0:
351,282,64568,6,0,B|426:324|426:324|430:364|472:377,1,160.312501528859,2|0,1:2|0:0,0:0:0:0:
471,376,64921,1,8,0:0:0:0:
253,293,65097,1,0,1:2:0:0:
253,293,65186,1,0,1:2:0:0:
253,293,65274,2,0,B|229:280|229:280|260:263,1,53.4375005096197,10|2,0:0|0:0,0:0:0:0:
336,179,65450,1,2,1:2:0:0:
307,163,65538,1,0,1:2:0:0:
278,148,65627,1,0,1:2:0:0:
249,133,65715,1,0,1:2:0:0:
220,118,65803,1,10,0:0:0:0:
2,246,65980,6,0,P|52:195|134:205,1,160.312501528859,2|0,1:2|0:0,0:0:0:0:
220,118,66333,6,0,P|211:135|192:125,1,41.2500012588501,8|0,0:0|0:0,0:0:0:0:
220,267,66509,2,0,P|205:279|191:264,1,41.2500012588501,2|0,0:3|0:0,0:0:0:0:
233,112,66686,6,0,P|243:128|225:139,1,41.2500012588501,2|0,0:3|0:0,0:0:0:0:
318,294,66862,2,0,P|303:281|289:294,1,41.2500012588501,8|0,0:0|0:0,0:0:0:0:
240,99,67038,6,0,P|256:108|247:127,1,41.2500012588501,2|0,0:3|0:0,0:0:0:0:
415,267,67215,2,0,P|400:279|386:264,1,41.2500012588501,2|0,0:3|0:0,0:0:0:0:
160,109,67391,6,0,P|263:109|304:11,2,213.750002038479,2|8|8,1:2|0:0|0:0,0:0:0:0:
8,19,68274,1,0,1:2:0:0:
29,16,68362,1,0,1:2:0:0:
49,12,68450,1,2,1:2:0:0:
69,8,68538,1,0,1:2:0:0:
90,4,68627,1,8,0:0:0:0:
255,241,68803,6,0,B|185:231|185:231|172:217|172:217|103:207,1,160.312501528859,2|0,1:2|0:0,0:0:0:0:
102,206,69156,1,8,0:0:0:0:
319,150,69333,1,0,1:2:0:0:
319,150,69421,1,0,1:2:0:0:
319,150,69509,2,0,B|385:124|385:124|366:131|358:148,1,106.875001019239,0|8,1:2|0:0,0:0:0:0:
214,49,69862,1,0,1:2:0:0:
188,75,69950,1,0,1:2:0:0:
151,80,70038,1,2,1:2:0:0:
114,67,70127,1,0,1:2:0:0:
99,32,70215,6,0,P|57:92|99:161,1,160.312501528859,2|0,1:2|0:0,0:0:0:0:
96,159,70568,1,8,0:0:0:0:
58,323,70744,1,0,1:2:0:0:
53,315,70833,1,0,1:2:0:0:
48,307,70921,6,0,B|33:317|36:329|36:329|33:317|16:312,1,53.4375005096197,10|2,0:0|0:0,0:0:0:0:
28,180,71097,1,2,1:2:0:0:
52,189,71186,1,0,1:2:0:0:
77,197,71274,1,0,1:2:0:0:
101,205,71362,1,0,1:2:0:0:
126,214,71450,1,10,0:0:0:0:
256,0,71627,6,0,P|269:16|254:27,1,41.2500012588501,10|0,0:0|0:0,0:0:0:0:
280,110,71803,2,0,P|274:128|256:123,1,41.2500012588501,2|0,0:3|0:0,0:0:0:0:
233,262,71980,6,0,P|237:244|256:248,1,41.2500012588501,2|0,0:3|0:0,0:0:0:0:
256,353,72156,2,0,P|276:349|278:367,1,41.2500012588501,2|0,0:3|0:0,0:0:0:0:
256,364,72333,6,0,B|329:340|329:340|354:367|390:357,1,142.49999619484,0|0,1:2|1:2,0:0:0:0:
0,247,73038,5,2,1:2:0:0:
73,157,73215,5,0,1:2:0:0:
76,168,73303,1,0,1:2:0:0:
79,179,73391,1,8,0:0:0:0:
212,134,73568,5,0,1:2:0:0:
208,152,73656,1,0,1:2:0:0:
204,170,73744,1,8,0:0:0:0:
347,179,73921,5,0,1:2:0:0:
336,201,74009,1,0,1:2:0:0:
323,222,74097,2,0,P|394:241|450:185,1,160.312501528859,2|0,1:2|0:0,0:0:0:0:
497,110,74450,5,6,1:2:0:0:
497,110,74538,1,2,0:0:0:0:
497,110,74627,2,0,B|513:101|528:110|528:110|514:120|497:110,1,65.6250006258488,2|0,0:0|0:0,0:0:0:0:
436,41,74803,2,0,B|432:23|445:11|445:11|450:27|436:41,1,65.6250006258488,10|0,0:0|0:0,0:0:0:0:
361,163,74980,5,2,1:2:0:0:
361,163,75068,1,2,1:2:0:0:
361,163,75157,2,0,B|353:179|335:181|335:181|341:164|361:163,1,65.6250006258488,2|0,1:2|0:0,0:0:0:0:
448,184,75333,2,0,B|461:196|457:213|457:213|443:203|448:184,1,65.6250006258488,10|0,0:0|0:0,0:0:0:0:
359,75,75509,5,2,1:2:0:0:
359,75,75597,1,2,1:2:0:0:
359,75,75686,2,0,B|340:72|333:56|333:56|351:56|359:75,1,65.6250006258488,2|0,1:2|0:2,0:0:0:0:
496,86,75862,6,0,B|506:98|519:98|519:98|506:98|496:110,1,53.4375005096197,2|0,1:2|0:0,0:0:0:0:
478,199,76038,2,0,B|477:214|487:222|487:222|477:214|462:217,1,53.4375005096197,2|0,0:0|0:0,0:0:0:0:
382,266,76215,2,0,B|371:277|374:290|374:290|371:277|358:270,1,53.4375005096197,10|0,0:0|0:0,0:0:0:0:
268,267,76391,2,0,B|252:269|246:280|246:280|252:269|247:255,1,53.4375005096197,2|0,1:2|0:2,0:0:0:0:
181,331,76568,6,0,P|231:328|272:363,1,106.875001019239,10|0,0:0|1:2,0:0:0:0:
282,365,76833,1,0,1:2:0:0:
292,365,76921,2,0,L|324:366,2,28.1250010728836,0|0|10,1:2|1:2|0:0,0:0:0:0:
114,215,77274,5,2,1:2:0:0:
114,215,77362,1,2,0:0:0:0:
114,215,77450,2,0,B|108:218|100:216|93:211|93:205|94:195|102:193|110:191|116:194|119:202|119:209|114:215,1,65.6250006258488,2|0,0:0|0:0,0:0:0:0:
62,289,77627,2,0,B|62:295|58:302|51:307|46:305|36:301|37:293|37:285|42:280|51:280|57:282|62:289,1,65.6250006258488,10|0,0:0|0:0,0:0:0:0:
209,330,77803,5,2,1:2:0:0:
209,330,77891,1,2,1:2:0:0:
209,330,77979,2,0,B|212:324|219:320|228:320|231:325|236:334|231:340|226:347|219:348|212:343|208:337|209:330,1,65.6250006258488,2|0,1:2|0:0,0:0:0:0:
200,237,78156,2,0,B|195:232|194:223|197:215|203:213|212:211|217:218|221:225|220:232|213:237|207:239|200:237,1,65.6250006258488,10|0,0:0|0:0,0:0:0:0:
121,367,78333,5,2,1:2:0:0:
121,367,78421,1,2,1:2:0:0:
121,367,78509,2,0,B|127:368|132:374|135:382|132:387|125:394|117:391|110:388|107:382|109:374|113:368|121:367,1,65.6250006258488,2|0,1:2|0:2,0:0:0:0:
20,261,78686,6,0,L|88:245,1,53.4375005096197,2|0,1:2|0:0,0:0:0:0:
143,190,78862,2,0,L|211:174,1,53.4375005096197,2|0,0:0|0:0,0:0:0:0:
0,183,79038,6,0,L|68:167,1,53.4375005096197,10|0,0:0|0:0,0:0:0:0:
119,112,79215,2,0,L|187:96,1,53.4375005096197,2|0,1:2|0:2,0:0:0:0:
28,62,79391,6,0,B|14:-3|14:-3|18:18|35:31,1,106.875001019239,10|0,0:0|1:2,0:0:0:0:
45,28,79656,1,0,1:2:0:0:
56,24,79744,2,0,L|86:18,2,28.1250010728836,0|0|10,1:2|1:2|0:0,0:0:0:0:
183,125,80097,5,2,1:2:0:0:
183,125,80186,1,2,0:0:0:0:
183,125,80274,2,0,B|175:109|175:109|183:95|183:95|189:109|189:109|183:125,1,65.6250006258488,2|0,0:0|0:0,0:0:0:0:
109,179,80450,2,0,B|91:180|91:180|80:169|80:169|95:168|95:168|109:179,1,65.6250006258488,10|0,0:0|0:0,0:0:0:0:
229,267,80627,5,2,1:2:0:0:
229,267,80715,1,2,1:2:0:0:
229,267,80803,2,0,B|244:275|244:275|246:291|246:291|233:283|233:283|229:267,1,65.6250006258488,2|0,1:2|0:0,0:0:0:0:
257,179,80979,2,0,B|269:166|269:166|285:169|285:169|274:179|274:179|257:179,1,65.6250006258488,10|0,0:0|0:0,0:0:0:0:
138,267,81156,5,2,1:2:0:0:
138,267,81244,1,2,1:2:0:0:
138,267,81332,2,0,B|135:284|135:284|120:291|120:291|123:276|123:276|138:267,1,65.6250006258488,2|0,1:2|0:2,0:0:0:0:
183,125,81509,6,0,P|169:143|152:123,1,53.4375005096197,2|0,1:2|0:0,0:0:0:0:
257,178,81686,2,0,P|281:177|278:154,1,53.4375005096197,2|0,0:0|0:0,0:0:0:0:
366,136,81862,2,0,P|381:118|361:106,1,53.4375005096197,10|0,0:0|0:0,0:0:0:0:
382,12,82038,2,0,P|405:5|410:27,1,53.4375005096197,2|0,1:2|0:2,0:0:0:0:
487,109,82215,6,0,L|501:219,1,106.875001019239,10|0,0:0|1:2,0:0:0:0:
502,225,82480,1,0,1:2:0:0:
503,236,82568,2,0,L|509:280,2,28.1250010728836,0|0|10,1:2|1:2|0:0,0:0:0:0:
370,319,82921,5,0,1:2:0:0:
350,232,83097,1,10,0:0:0:0:
291,364,83274,1,10,0:0:0:0:
262,222,83450,1,2,1:2:0:0:
222,304,83627,2,0,B|112:290|112:290|139:294|156:312,1,160.312501528859,10|0,0:0|0:0,0:0:0:0:
155,312,83980,1,10,0:0:0:0:
295,171,84156,1,10,0:2:0:0:
300,185,84244,1,8,0:2:0:0:
307,200,84333,6,0,P|326:152|303:104,1,106.875001019239,2|10,1:2|0:0,0:0:0:0:
421,265,84686,1,10,0:0:0:0:
259,348,84862,1,8,0:0:0:0:
268,353,84950,1,8,0:0:0:0:
277,358,85038,5,2,1:2:0:0:
224,273,85215,5,2,1:2:0:0:
118,248,85391,5,10,0:0:0:0:
0,262,85568,6,0,B|-25:253|-25:253|0:244,1,53.4375005096197,2|0,1:2|1:2,0:0:0:0:
118,248,85744,6,0,B|186:234|186:234|204:240|204:240|275:224,1,160.312501528859,6|0,1:2|0:0,0:0:0:0:
274,224,86097,1,10,0:0:0:0:
146,114,86274,1,0,1:2:0:0:
146,114,86362,1,0,1:2:0:0:
146,114,86450,2,0,P|92:122|53:90,1,106.875001019239,2|8,1:2|0:0,0:0:0:0:
299,31,86803,2,0,P|353:39|392:7,1,106.875001019239,2|0,1:2|1:2,0:0:0:0:
274,224,87156,6,0,L|294:384,1,160.312501528859,2|0,1:2|0:0,0:0:0:0:
293,383,87509,1,10,0:0:0:0:
388,295,87686,1,0,1:2:0:0:
407,293,87774,1,0,1:2:0:0:
426,291,87862,1,10,0:0:0:0:
180,276,88038,1,0,1:2:0:0:
147,294,88127,1,0,1:2:0:0:
109,293,88215,1,2,1:2:0:0:
77,272,88303,1,0,1:2:0:0:
65,236,88391,1,8,0:0:0:0:
185,74,88568,6,0,B|216:37|205:1|205:1|216:37|264:51,1,160.312501528859,2|0,1:2|0:0,0:0:0:0:
265,51,88921,1,10,0:0:0:0:
85,138,89097,1,0,1:2:0:0:
85,138,89186,1,0,1:2:0:0:
85,138,89274,2,0,P|37:151|-1:112,1,106.875001019239,2|8,1:2|0:0,0:0:0:0:
166,261,89627,2,0,P|153:309|100:322,1,106.875001019239,2|0,1:2|1:2,0:0:0:0:
185,74,89980,6,0,B|209:44|203:10|203:10|225:123|225:123|230:151|263:180|313:166|322:119,1,320.625003057718,2|0,1:2|1:2,0:0:0:0:
481,268,90686,2,0,B|437:236|437:236|386:252,1,106.875001019239,10|0,0:0|1:2,0:0:0:0:
392,242,90950,1,0,1:2:0:0:
396,232,91038,1,0,1:2:0:0:
400,222,91127,1,0,1:2:0:0:
404,212,91215,1,8,0:0:0:0:
147,277,91391,6,0,B|186:259|229:293|222:298|213:303|253:336|290:317,1,160.312501528859,2|0,1:2|0:0,0:0:0:0:
290,317,91744,1,10,0:0:0:0:
58,217,91921,1,0,1:2:0:0:
58,217,92009,1,0,1:2:0:0:
58,217,92097,2,0,B|39:149|39:149|46:172|66:181,1,106.875001019239,2|8,1:2|0:0,0:0:0:0:
109,383,92450,2,0,P|68:351|14:354,1,106.875001019239,2|0,1:2|1:2,0:0:0:0:
237,281,92803,6,0,B|304:262|304:262|325:268|325:268|392:248,1,160.312501528859,2|0,1:2|0:0,0:0:0:0:
390,248,93156,1,10,0:0:0:0:
512,114,93333,1,0,1:2:0:0:
507,134,93421,1,0,1:2:0:0:
501,154,93509,1,10,0:0:0:0:
335,9,93686,1,0,1:2:0:0:
342,40,93774,1,0,1:2:0:0:
349,71,93862,1,2,1:2:0:0:
357,101,93950,1,0,1:2:0:0:
366,131,94038,2,0,B|349:138|349:151|349:151|349:138|331:129,1,53.4375005096197,8|0,0:0|0:0,0:0:0:0:
422,216,94215,5,10,0:0:0:0:
394,248,94303,1,2,1:2:0:0:
347,255,94391,1,2,1:2:0:0:
305,243,94480,1,0,1:2:0:0:
272,214,94568,1,10,0:0:0:0:
230,203,94656,1,2,1:2:0:0:
189,216,94744,1,2,1:2:0:0:
167,253,94833,1,0,1:2:0:0:
177,294,94921,5,2,1:2:0:0:
174,260,95009,1,2,1:2:0:0:
172,226,95098,1,10,0:0:0:0:
171,192,95186,1,2,1:2:0:0:
170,158,95274,1,10,0:0:0:0:
168,124,95362,1,2,1:2:0:0:
167,90,95450,1,2,1:2:0:0:
165,56,95539,1,2,1:2:0:0:
164,22,95627,6,0,B|184:29|193:4|176:-32|136:-19|132:15|132:15|122:122|122:122|118:158|73:164|60:131|65:104|92:109,1,320.625003057718,10|0,0:2|1:2,0:0:0:0:
17,289,96333,2,0,B|3:266|-27:257|-27:257|76:287,1,160.312501528859,10|0,0:0|0:0,0:0:0:0:
73,286,96686,1,8,0:0:0:0:
183,60,96862,1,8,0:0:0:0:
198,65,96950,1,8,0:0:0:0:
213,70,97038,6,0,P|171:125|87:105,1,160.312501528859,6|0,1:2|0:0,0:0:0:0:
90,108,97391,1,8,0:0:0:0:
315,189,97568,1,0,1:2:0:0:
315,189,97656,1,0,1:2:0:0:
315,189,97744,2,0,B|368:174|368:174|325:209,1,106.875001019239,0|8,1:2|0:0,0:0:0:0:
307,362,98097,1,0,1:2:0:0:
272,347,98186,1,0,1:2:0:0:
237,333,98274,1,2,1:2:0:0:
202,318,98362,1,0,1:2:0:0:
167,304,98450,6,0,B|256:290|256:290|279:317|320:313,1,160.312501528859,2|0,1:2|0:0,0:0:0:0:
319,313,98803,1,8,0:0:0:0:
449,186,98980,1,0,1:2:0:0:
449,186,99068,1,0,1:2:0:0:
449,186,99156,2,0,B|461:210|461:210|447:235,1,53.4375005096197,10|2,0:0|0:0,0:0:0:0:
505,81,99333,1,2,1:2:0:0:
473,101,99421,1,0,1:2:0:0:
435,98,99509,1,0,1:2:0:0:
406,74,99597,1,0,1:2:0:0:
398,37,99686,1,10,0:0:0:0:
214,240,99862,6,0,P|270:197|356:213,1,160.312501528859,2|0,1:2|0:0,0:0:0:0:
475,177,100215,6,0,P|462:194|447:182,1,41.2500012588501,8|0,0:0|0:0,0:0:0:0:
419,297,100391,2,0,P|410:277|427:270,1,41.2500012588501,2|0,0:3|0:0,0:0:0:0:
382,127,100568,2,0,P|380:107|361:108,1,41.2500012588501,2|0,0:3|0:0,0:0:0:0:
327,237,100744,6,0,P|305:234|308:215,1,41.2500012588501,8|0,0:0|0:0,0:0:0:0:
169,225,100921,6,0,P|160:205|178:198,1,41.2500012588501,2|0,0:3|0:0,0:0:0:0:
31,156,101097,6,0,P|43:138|58:151,1,41.2500012588501,2|0,0:3|0:0,0:0:0:0:
28,42,101274,6,0,L|56:270,2,213.750002038479,2|8|8,1:2|0:0|0:0,0:0:0:0:
246,198,102156,1,0,1:2:0:0:
234,171,102244,1,0,1:2:0:0:
206,158,102333,1,2,1:2:0:0:
176,158,102421,1,0,1:2:0:0:
150,172,102509,1,8,0:0:0:0:
197,348,102686,6,0,B|265:331|265:331|284:337|284:337|352:320,1,160.312501528859,2|0,1:2|0:0,0:0:0:0:
352,319,103038,1,8,0:0:0:0:
459,172,103215,1,0,1:2:0:0:
459,172,103303,1,0,1:2:0:0:
459,172,103391,2,0,B|476:163|482:144|482:144|463:212,1,106.875001019239,0|8,1:2|0:0,0:0:0:0:
306,67,103744,1,0,1:2:0:0:
312,103,103833,1,0,1:2:0:0:
319,139,103921,1,2,1:2:0:0:
326,175,104009,1,0,1:2:0:0:
332,211,104097,6,0,P|381:157|461:172,1,160.312501528859,2|0,1:2|0:0,0:0:0:0:
460,171,104450,1,8,0:0:0:0:
269,84,104627,1,0,1:2:0:0:
269,84,104715,1,0,1:2:0:0:
269,84,104803,2,0,L|217:60,1,53.4375005096197,10|2,0:0|0:0,0:0:0:0:
158,105,104980,5,2,1:2:0:0:
203,90,105068,1,0,1:2:0:0:
249,76,105156,1,0,1:2:0:0:
295,62,105244,1,0,1:2:0:0:
342,49,105333,1,10,0:0:0:0:
333,292,105509,6,0,B|376:301|409:257|401:255|391:252|423:210|463:219,1,160.312501528859,10|0,0:0|0:0,0:0:0:0:
472,264,105862,2,0,B|436:288|389:260|396:255|404:248|359:221|325:245,1,160.312501528859,0|0,1:2|0:0,0:0:0:0:
256,384,106215,6,0,B|206:394|168:343|177:341|189:337|152:289|105:299,1,185.625001770258,0|0,1:2|0:0,0:0:0:0:
95,351,106568,2,0,B|136:378|190:346|182:340|173:332|225:301|264:329,1,185.625001770258,8|0,0:0|0:0,0:0:0:0:
402,341,106921,6,2,B|429:248|352:171|352:171|288:120|268:48|324:-43|397:-88|484:-50|564:22|566:110|510:194|425:215|352:171|352:171|258:144|194:211,1,1012.49996910095,8|0,0:2|0:2,0:1:0:0:
228,297,108333,5,6,1:2:0:0:
180,304,108421,1,2,0:0:0:0:
135,286,108509,1,2,0:0:0:0:
107,246,108597,1,2,0:0:0:0:
101,197,108686,1,10,0:0:0:0:
124,154,108774,1,2,0:0:0:0:
164,127,108862,1,2,1:2:0:0:
211,125,108950,1,0,1:2:0:0:
249,96,109038,5,2,1:2:0:0:
252,144,109127,1,2,0:0:0:0:
268,189,109215,1,10,0:0:0:0:
309,213,109303,1,2,0:0:0:0:
356,216,109391,1,2,1:2:0:0:
402,202,109480,1,2,1:2:0:0:
431,163,109568,1,2,1:2:0:0:
439,115,109656,1,2,1:2:0:0:
421,70,109744,5,2,1:2:0:0:
410,82,109833,1,2,0:0:0:0:
399,93,109921,2,0,P|406:68|397:40,1,53.4375005096197,2|0,0:0|0:0,0:0:0:0:
268,189,110097,5,10,0:0:0:0:
279,201,110186,1,2,0:0:0:0:
290,212,110274,2,0,P|282:187|290:156,1,53.4375005096197,2|0,1:2|1:2,0:0:0:0:
373,290,110450,5,10,0:0:0:0:
334,318,110538,1,2,0:0:0:0:
286,326,110627,1,2,1:2:0:0:
239,315,110715,1,2,1:2:0:0:
202,283,110803,1,2,1:2:0:0:
157,265,110891,1,2,1:2:0:0:
109,273,110980,1,10,0:0:0:0:
77,309,111068,1,0,0:0:0:0:
68,356,111156,5,2,1:2:0:0:
62,324,111244,1,2,0:0:0:0:
55,292,111333,1,2,0:0:0:0:
48,260,111421,1,2,0:0:0:0:
42,228,111509,1,10,0:0:0:0:
36,196,111597,1,2,0:0:0:0:
31,164,111686,2,0,B|45:156|45:143|45:143|45:156|62:165,1,53.4375005096197,2|0,1:2|1:2,0:0:0:0:
200,260,111862,5,2,1:2:0:0:
204,220,111950,1,2,0:0:0:0:
206,180,112038,1,10,0:0:0:0:
210,140,112126,1,2,0:0:0:0:
214,99,112215,1,2,1:2:0:0:
218,59,112303,1,2,1:2:0:0:
221,19,112391,2,0,B|207:11|207:-2|207:-2|207:11|190:20,1,53.4375005096197,2|0,1:2|1:2,0:0:0:0:
46,56,112568,5,2,1:2:0:0:
48,103,112656,1,2,0:0:0:0:
79,138,112744,1,2,0:0:0:0:
127,139,112833,1,0,0:0:0:0:
167,112,112921,5,10,0:2:0:0:
162,132,113009,1,2,0:2:0:0:
158,153,113097,1,2,1:2:0:0:
154,174,113186,1,0,1:0:0:0:
150,194,113274,6,0,L|104:194,1,41.2500012588501,10|2,0:0|0:0,0:0:0:0:
246,266,113450,6,0,L|198:266,1,48.7499977684022,2|0,1:2|1:2,0:0:0:0:
342,180,113627,6,0,L|285:180,1,56.2500021457673,2|2,1:2|1:2,0:0:0:0:
445,275,113803,6,0,L|382:275,1,63.7500012159348,10|2,0:0|0:0,0:0:0:0:
512,167,113980,5,2,1:2:0:0:
506,150,114156,5,2,0:0:0:0:
487,259,114333,5,10,0:0:0:0:
383,322,114509,5,2,0:0:0:0:
254,287,114686,5,0,1:2:0:0:
226,154,114862,5,10,0:2:0:0:
332,26,115038,5,2,1:2:0:0:
334,36,115127,1,0,1:2:0:0:
336,46,115215,1,2,1:2:0:0:
338,56,115303,1,0,1:2:0:0:
340,66,115391,5,2,1:2:0:0:
196,0,115568,1,2,0:0:0:0:
180,144,115744,5,10,0:0:0:0:
340,66,115921,1,2,1:2:0:0:
360,226,116097,5,10,0:0:0:0:
180,144,116274,1,2,1:2:0:0:
189,148,116362,1,0,1:2:0:0:
198,153,116450,1,2,1:2:0:0:
207,158,116538,1,0,1:2:0:0:
216,162,116627,1,10,0:0:0:0:
457,97,116803,6,0,B|469:88|466:73|466:73|453:82|457:97,1,53.4375005096197,2|0,1:2|0:0,0:0:0:0:
371,79,116980,2,0,B|374:63|363:55|363:55|358:68|371:79,1,53.4375005096197,2|0,0:0|0:0,0:0:0:0:
289,123,117156,2,0,B|284:108|270:107|270:107|273:121|289:123,1,53.4375005096197,10|0,0:0|0:0,0:0:0:0:
255,207,117333,2,0,B|243:197|230:204|230:204|241:213|255:207,1,53.4375005096197,2|0,0:0|0:0,0:0:0:0:
279,305,117509,6,0,B|264:304|257:316|257:316|272:318|279:305,1,53.4375005096197,2|0,1:2|0:0,0:0:0:0:
204,220,117686,2,0,B|190:227|191:241|191:241|205:234|204:220,1,53.4375005096197,2|0,0:0|0:0,0:0:0:0:
99,205,117862,2,0,B|90:218|101:229|101:229|107:215|99:205,1,53.4375005096197,10|0,0:0|0:0,0:0:0:0:
0,245,118038,2,0,B|2:260|16:264|16:264|13:248|0:245,1,53.4375005096197,2|0,1:2|0:0,0:0:0:0:
0,103,118215,6,0,B|106:64|106:64|80:74|70:98,1,160.312501528859,10|0,0:0|0:0,0:0:0:0:
189,32,118568,2,0,P|112:45|49:0,1,160.312501528859,10|0,0:0|0:0,0:0:0:0:
240,120,118921,1,2,1:2:0:0:
259,95,119009,1,0,1:2:0:0:
291,87,119097,1,2,1:2:0:0:
322,92,119186,1,0,1:2:0:0:
350,107,119274,2,0,B|372:95|401:95|401:95|372:95|350:82,1,106.875001019239,10|10,0:0|0:0,0:0:0:0:
308,263,119627,5,6,1:2:0:0:
341,296,119715,1,2,0:0:0:0:
387,305,119803,1,2,0:0:0:0:
433,292,119891,1,2,0:0:0:0:
460,252,119980,1,10,0:0:0:0:
467,204,120068,1,2,0:0:0:0:
448,159,120156,1,2,1:2:0:0:
408,131,120244,1,0,1:2:0:0:
360,120,120333,5,2,1:2:0:0:
312,126,120421,1,2,0:0:0:0:
271,151,120509,1,10,0:0:0:0:
223,157,120597,1,2,0:0:0:0:
181,134,120686,1,2,1:2:0:0:
163,89,120774,1,2,1:2:0:0:
169,41,120862,1,2,1:2:0:0:
204,9,120950,1,0,1:2:0:0:
251,1,121038,5,2,1:2:0:0:
249,17,121127,1,2,0:0:0:0:
248,32,121215,1,2,0:0:0:0:
246,47,121303,1,0,0:0:0:0:
275,87,121391,5,10,0:0:0:0:
273,103,121480,1,2,0:0:0:0:
272,118,121568,1,2,1:2:0:0:
270,133,121656,1,0,1:2:0:0:
299,172,121744,5,10,0:0:0:0:
246,153,121833,1,2,0:0:0:0:
194,175,121921,1,2,1:2:0:0:
166,222,122009,1,2,1:2:0:0:
168,275,122097,1,2,1:2:0:0:
204,319,122186,1,2,1:2:0:0:
256,337,122274,2,0,B|264:324|279:324|279:324|264:324|256:312,1,53.4375005096197,10|0,0:0|0:0,0:0:0:0:
140,384,122450,5,2,1:2:0:0:
124,380,122538,1,2,0:0:0:0:
108,376,122627,1,2,0:0:0:0:
92,372,122715,1,2,0:0:0:0:
76,368,122804,1,10,0:0:0:0:
60,364,122891,1,2,0:0:0:0:
44,360,122980,1,2,1:2:0:0:
28,356,123068,1,0,1:2:0:0:
3,367,123157,5,2,1:2:0:0:
44,360,123244,1,2,0:0:0:0:
85,353,123333,1,10,0:0:0:0:
126,346,123421,1,2,0:0:0:0:
167,339,123510,1,2,1:2:0:0:
208,332,123597,1,2,1:2:0:0:
249,325,123686,1,2,1:2:0:0:
290,318,123774,1,0,1:2:0:0:
331,311,123863,5,2,1:2:0:0:
316,361,123950,1,2,0:0:0:0:
267,382,124038,1,2,0:0:0:0:
213,373,124127,1,2,0:0:0:0:
182,329,124215,1,10,0:0:0:0:
182,275,124303,1,2,0:0:0:0:
212,231,124391,1,2,1:2:0:0:
263,216,124480,1,0,1:2:0:0:
315,225,124568,5,10,0:0:0:0:
365,245,124656,1,2,0:0:0:0:
416,229,124744,1,2,1:2:0:0:
447,185,124833,1,2,1:2:0:0:
449,131,124921,1,2,1:2:0:0:
418,87,125009,1,2,1:2:0:0:
367,69,125097,2,0,L|430:54,1,53.4375005096197,10|0,0:0|0:0,0:0:0:0:
293,170,125274,5,2,1:2:0:0:
231,96,125450,5,2,0:0:0:0:
135,83,125627,5,10,0:0:0:0:
52,133,125803,5,0,1:2:0:0:
231,96,125980,6,0,B|227:91|228:84|231:78|236:77|244:78|247:83|250:90|248:95|242:98|236:99|231:96,1,53.4375005096197,2|0,1:2|0:0,0:0:0:0:
52,133,126156,6,0,B|47:137|41:137|35:134|33:129|33:121|38:118|45:114|49:116|53:121|54:127|52:133,1,53.4375005096197,10|0,0:0|0:0,0:0:0:0:
293,170,126333,6,0,B|292:163|296:158|302:154|306:156|313:160|313:166|312:174|308:177|301:177|295:175|293:170,1,53.4375005096197,2|0,1:2|1:2,0:0:0:0:
135,83,126509,6,0,B|128:82|123:77|121:71|123:66|129:61|135:62|142:64|145:69|143:76|140:81|135:83,1,53.4375005096197,2|0,1:2|0:2,0:0:0:0:
69,264,126686,5,2,1:2:0:0:
201,194,126862,1,2,0:0:0:0:
51,171,127038,1,10,0:0:0:0:
160,275,127215,1,2,1:2:0:0:
134,125,127391,6,0,B|123:59|123:59|127:80|141:93,1,106.875001019239,10|2,0:0|1:2,0:0:0:0:
145,77,127656,1,0,1:2:0:0:
150,62,127744,1,2,1:2:0:0:
155,46,127833,1,0,1:2:0:0:
160,31,127921,1,10,0:0:0:0:
346,197,128097,6,0,B|310:228|316:267|316:267|310:228|267:207,1,160.312501528859,10|0,0:0|0:0,0:0:0:0:
274,123,128450,6,0,B|291:85|291:85|320:120,1,84.3750032186509,2|0,1:2|0:0,0:0:0:0:
439,271,128803,6,0,P|309:240|203:314,1,267.187502548099,2|0,1:2|0:0,0:0:0:0:
204,310,129333,6,0,L|167:262,1,53.4375005096197,10|0,0:0|0:0,0:0:0:0:
79,151,129509,6,0,L|137:136,1,53.4375005096197,10|0,0:0|0:0,0:0:0:0:
323,130,129686,6,0,L|265:145,1,53.4375005096197,2|0,1:2|0:0,0:0:0:0:
340,275,129862,5,10,0:0:0:0:
391,289,129950,1,2,1:2:0:0:
443,279,130038,1,2,1:2:0:0:
485,246,130127,1,2,1:2:0:0:
509,198,130215,1,2,1:2:0:0:
512,145,130303,1,2,1:2:0:0:
493,95,130391,1,2,1:2:0:0:
452,59,130480,1,2,1:2:0:0:
400,43,130568,6,0,P|419:51|426:35,1,37.5,2|8,1:2|0:0,0:0:0:0:
256,192,130921,12,2,133744,0:0:0:0:
