osu file format v14

[General]
AudioFilename: audio.mp3
AudioLeadIn: 0
PreviewTime: 29198
Countdown: 0
SampleSet: Soft
StackLeniency: 0.4
Mode: 0
LetterboxInBreaks: 0
WidescreenStoryboard: 1

[Editor]
DistanceSpacing: 0.34
BeatDivisor: 4
GridSize: 32
TimelineZoom: 2.1

[Metadata]
Title:FEVER DREAM (feat. yzzyx)
TitleUnicode:FEVER DREAM (feat. yzzyx)
Artist:fiend
ArtistUnicode:fiend
Creator:Niva
Version:HARD
Source:osu!
Tags:mappers' guild mpg instrumental electronic drum and bass drum'n'bass dnb prodbyfiend yzzyxmusic feind featuring ft. featured artist fa
BeatmapID:2910768
BeatmapSetID:1405913

[Difficulty]
HPDrainRate:5
CircleSize:4
OverallDifficulty:6
ApproachRate:8
SliderMultiplier:0.75
SliderTickRate:1

[Events]
//Background and Video events
0,0,"dream4k.jpg",0,0
//Break Periods
//Storyboard Layer 0 (Background)
//Storyboard Layer 1 (Fail)
//Storyboard Layer 2 (Pass)
//Storyboard Layer 3 (Foreground)
//Storyboard Layer 4 (Overlay)
//Storyboard Sound Samples

[TimingPoints]
1039,352.941176470588,4,2,77,35,1,0
1039,-117.647058823529,4,2,77,35,0,0
3686,-117.647058823529,4,2,77,35,0,0
3774,-117.647058823529,4,2,77,5,0,0
3862,-117.647058823529,4,2,77,35,0,0
6686,-117.647058823529,4,2,77,45,0,0
9333,-117.647058823529,4,2,77,45,0,0
9421,-117.647058823529,4,2,77,5,0,0
9509,-117.647058823529,4,2,77,45,0,0
12333,-116.279069767442,4,2,77,50,0,0
13038,-116.279069767442,4,2,77,50,0,0
13744,-100,4,2,77,50,0,0
14450,-100,4,2,77,50,0,0
15156,-86.9565217391304,4,2,77,55,0,0
16568,-86.9565217391304,4,2,77,55,0,0
16921,-86.9565217391304,4,2,2,55,0,0
16943,-86.9565217391304,4,2,77,55,0,0
17450,-86.9565217391304,4,2,2,55,0,0
17472,-86.9565217391304,4,2,77,55,0,0
17627,-86.9565217391304,4,2,2,55,0,0
17649,-86.9565217391304,4,2,77,55,0,0
17980,-74.0740740740741,4,2,77,60,0,0
18156,-74.0740740740741,4,2,2,60,0,0
18178,-74.0740740740741,4,2,77,60,0,0
19215,-74.0740740740741,4,2,2,60,0,0
19237,-74.0740740740741,4,2,77,60,0,0
19391,-66.6666666666667,4,2,77,60,0,0
19744,-66.6666666666667,4,2,2,60,0,0
19766,-66.6666666666667,4,2,77,60,0,0
19921,-66.6666666666667,4,2,77,60,0,0
20274,-66.6666666666667,4,2,2,60,0,0
20296,-66.6666666666667,4,2,77,60,0,0
20450,-66.6666666666667,4,2,2,60,0,0
20472,-66.6666666666667,4,2,77,60,0,0
20803,-45.4545454545455,4,2,77,90,0,0
21068,-45.4545454545455,4,2,77,5,0,0
21156,-45.4545454545455,4,2,77,90,0,0
21597,-45.4545454545455,4,2,77,5,0,0
21686,-45.4545454545455,4,2,77,90,0,0
21862,-45.4545454545455,4,2,77,90,0,0
22127,-45.4545454545455,4,2,77,5,0,0
22215,-45.4545454545455,4,2,77,50,0,0
22391,-45.4545454545455,4,2,77,55,0,0
22568,-45.4545454545455,4,2,77,60,0,0
22744,-45.4545454545455,4,2,77,65,0,0
22925,-45.4545454545455,4,2,77,70,0,0
23097,-45.4545454545455,4,2,77,75,0,0
23274,-45.4545454545455,4,2,77,80,0,0
23450,-45.4545454545455,4,2,77,85,0,0
23627,-86.9565217391304,4,2,77,85,0,0
23715,-86.9565217391304,4,2,77,50,0,0
25038,-86.9565217391304,4,2,77,50,0,0
26450,-75.187969924812,4,2,77,50,0,0
26472,-86.9565217391304,4,2,78,5,0,0
26627,-86.9565217391304,4,2,77,10,0,0
26803,-86.9565217391304,4,2,78,15,0,0
26980,-86.9565217391304,4,2,77,20,0,0
27156,-86.9565217391304,4,2,78,25,0,0
27333,-86.9565217391304,4,2,77,35,0,0
27509,-86.9565217391304,4,2,78,45,0,0
27686,-86.9565217391304,4,2,77,55,0,0
27862,-86.9565217391304,4,2,78,65,0,0
28038,-86.9565217391304,4,2,77,75,0,0
28215,-86.9565217391304,4,2,78,85,0,0
28391,-86.9565217391304,4,2,77,95,0,0
28480,-86.9565217391304,4,2,77,5,0,0
28568,-86.9565217391304,4,2,78,70,0,0
28612,-86.9565217391304,4,2,78,5,0,0
28744,-86.9565217391304,4,2,78,60,0,0
28788,-86.9565217391304,4,2,78,5,0,0
28921,-86.9565217391304,4,2,78,50,0,0
28965,-86.9565217391304,4,2,78,5,0,0
29097,-86.9565217391304,4,2,78,40,0,0
29141,-86.9565217391304,4,2,78,5,0,0
29274,-45.4545454545455,4,2,77,90,0,0
29538,-45.4545454545455,4,2,77,5,0,0
29627,-45.4545454545455,4,2,77,90,0,0
30950,-45.4545454545455,4,2,77,5,0,0
31038,-45.4545454545455,4,2,77,90,0,0
32362,-45.4545454545455,4,2,77,5,0,0
32450,-45.4545454545455,4,2,77,90,0,0
32538,-45.4545454545455,4,2,77,5,0,0
32627,-45.4545454545455,4,2,78,90,0,0
32715,-45.4545454545455,4,2,77,5,0,0
32803,-45.4545454545455,4,2,78,90,0,0
32891,-45.4545454545455,4,2,77,5,0,0
32980,-45.4545454545455,4,2,77,90,0,0
33068,-45.4545454545455,4,2,77,5,0,0
33156,-45.4545454545455,4,2,78,90,0,0
33244,-45.4545454545455,4,2,77,5,0,0
33333,-45.4545454545455,4,2,79,90,0,0
33421,-45.4545454545455,4,2,77,5,0,0
33509,-45.4545454545455,4,2,77,90,0,0
33774,-45.4545454545455,4,2,77,5,0,0
33862,-45.4545454545455,4,2,77,90,0,0
34127,-45.4545454545455,4,2,77,5,0,0
34215,-45.4545454545455,4,2,77,90,0,0
35186,-45.4545454545455,4,2,77,5,0,0
35274,-45.4545454545455,4,2,77,90,0,0
36597,-45.4545454545455,4,2,77,5,0,0
36686,-45.4545454545455,4,2,77,90,0,0
38009,-45.4545454545455,4,2,77,5,0,0
38097,-45.4545454545455,4,2,77,90,0,0
38450,-45.4545454545455,4,2,77,90,0,0
38715,-45.4545454545455,4,2,77,5,0,0
38803,-45.4545454545455,4,2,77,90,0,0
39156,-45.4545454545455,4,2,77,90,0,0
39421,-45.4545454545455,4,2,77,5,0,0
39509,-45.4545454545455,4,2,77,90,0,0
39862,-66.6666666666667,4,2,77,75,0,0
40568,-45.4545454545455,4,2,77,90,0,0
40833,-45.4545454545455,4,2,77,5,0,0
40921,-45.4545454545455,4,2,77,90,0,0
41891,-45.4545454545455,4,2,77,5,0,0
41980,-45.4545454545455,4,2,77,90,0,0
42244,-45.4545454545455,4,2,77,5,0,0
42333,-45.4545454545455,4,2,77,90,0,0
43656,-45.4545454545455,4,2,77,5,0,0
43744,-45.4545454545455,4,2,77,90,0,0
43833,-45.4545454545455,4,2,78,5,0,0
43921,-45.4545454545455,4,2,78,90,0,0
44009,-45.4545454545455,4,2,78,5,0,0
44097,-45.4545454545455,4,2,78,90,0,0
44186,-45.4545454545455,4,2,78,5,0,0
44274,-45.4545454545455,4,2,77,90,0,0
44362,-45.4545454545455,4,2,78,5,0,0
44450,-45.4545454545455,4,2,78,90,0,0
44538,-45.4545454545455,4,2,78,5,0,0
44627,-45.4545454545455,4,2,79,90,0,0
44715,-45.4545454545455,4,2,78,5,0,0
44803,-45.4545454545455,4,2,77,90,0,0
46480,-45.4545454545455,4,2,77,5,0,0
46568,-45.4545454545455,4,2,77,90,0,0
47891,-45.4545454545455,4,2,77,5,0,0
47980,-45.4545454545455,4,2,77,90,0,0
49038,-54.054054054054,4,2,77,75,0,0
49303,-54.054054054054,4,2,77,5,0,0
49391,-54.054054054054,4,2,77,75,0,0
49833,-54.054054054054,4,2,77,5,0,0
49921,-54.054054054054,4,2,77,75,0,0
50097,-54.054054054054,4,2,77,75,0,0
50362,-54.054054054054,4,2,77,5,0,0
50450,-54.054054054054,4,2,77,60,0,0
50627,-54.054054054054,4,2,77,65,0,0
50803,-54.054054054054,4,2,77,70,0,0
50980,-54.054054054054,4,2,77,75,0,0
51156,-50,4,2,77,80,0,0
51333,-54.054054054054,4,2,77,85,0,0
51509,-45.4545454545455,4,2,77,90,0,0
51686,-54.054054054054,4,2,77,95,0,0
51862,-40.8163265306122,4,2,77,100,0,1
59274,-40.8163265306122,4,2,77,100,0,1
59627,-40.8163265306122,4,2,77,100,0,1
60333,-40.8163265306122,4,2,77,100,0,1
60597,-40.8163265306122,4,2,77,5,0,1
60686,-40.8163265306122,4,2,77,100,0,1
60774,-40.8163265306122,4,2,77,5,0,1
60862,-40.8163265306122,4,2,77,100,0,1
60950,-40.8163265306122,4,2,77,9,0,1
61038,-40.8163265306122,4,2,77,100,0,1
62450,-40.8163265306122,4,2,77,100,0,1
62803,-40.8163265306122,4,2,77,100,0,1
63068,-40.8163265306122,4,2,77,5,0,1
63156,-45.4545454545455,4,2,77,90,0,0
63421,-45.4545454545455,4,2,77,5,0,0
63509,-45.4545454545455,4,2,77,90,0,0
64833,-45.4545454545455,4,2,77,5,0,0
64921,-45.4545454545455,4,2,77,90,0,0
66244,-45.4545454545455,4,2,77,5,0,0
66333,-45.4545454545455,4,2,77,90,0,0
66421,-45.4545454545455,4,2,78,5,0,0
66509,-45.4545454545455,4,2,78,90,0,0
66597,-45.4545454545455,4,2,78,5,0,0
66686,-45.4545454545455,4,2,78,90,0,0
66774,-45.4545454545455,4,2,78,5,0,0
66862,-45.4545454545455,4,2,77,90,0,0
66950,-45.4545454545455,4,2,78,5,0,0
67038,-45.4545454545455,4,2,78,90,0,0
67127,-45.4545454545455,4,2,78,5,0,0
67215,-45.4545454545455,4,2,79,90,0,0
67303,-45.4545454545455,4,2,78,5,0,0
67391,-45.4545454545455,4,2,77,90,0,0
69068,-45.4545454545455,4,2,77,5,0,0
69156,-45.4545454545455,4,2,77,90,0,0
70480,-45.4545454545455,4,2,77,5,0,0
70568,-45.4545454545455,4,2,77,90,0,0
71627,-45.4545454545455,4,2,77,90,0,0
71715,-45.4545454545455,4,2,77,5,0,0
71803,-45.4545454545455,4,2,78,90,0,0
71891,-45.4545454545455,4,2,77,5,0,0
71980,-45.4545454545455,4,2,78,90,0,0
72068,-45.4545454545455,4,2,77,5,0,0
72156,-45.4545454545455,4,2,78,90,0,0
72244,-45.4545454545455,4,2,77,5,0,0
72333,-45.4545454545455,4,2,77,75,0,0
73038,-45.4545454545455,4,2,77,75,0,0
73215,-45.4545454545455,4,2,77,80,0,0
73568,-45.4545454545455,4,2,77,85,0,0
73921,-45.4545454545455,4,2,77,90,0,0
74362,-45.4545454545455,4,2,77,5,0,0
74450,-45.4545454545455,4,2,77,90,0,0
74715,-45.4545454545455,4,2,77,5,0,0
74803,-45.4545454545455,4,2,77,90,0,0
74891,-45.4545454545455,4,2,77,5,0,0
74980,-45.4545454545455,4,2,77,90,0,0
75244,-45.4545454545455,4,2,77,5,0,0
75333,-45.4545454545455,4,2,77,90,0,0
75421,-45.4545454545455,4,2,77,5,0,0
75509,-45.4545454545455,4,2,77,90,0,0
75774,-45.4545454545455,4,2,77,5,0,0
75862,-45.4545454545455,4,2,77,90,0,0
75950,-45.4545454545455,4,2,77,5,0,0
76038,-45.4545454545455,4,2,77,90,0,0
76127,-45.4545454545455,4,2,77,5,0,0
76215,-45.4545454545455,4,2,77,90,0,0
76303,-45.4545454545455,4,2,77,5,0,0
76391,-45.4545454545455,4,2,77,90,0,0
76480,-45.4545454545455,4,2,77,5,0,0
76568,-45.4545454545455,4,2,77,90,0,0
76921,-45.4545454545455,4,2,77,90,0,0
77274,-45.4545454545455,4,2,77,90,0,0
77538,-45.4545454545455,4,2,77,5,0,0
77627,-45.4545454545455,4,2,77,90,0,0
77715,-45.4545454545455,4,2,77,5,0,0
77803,-45.4545454545455,4,2,77,90,0,0
78068,-45.4545454545455,4,2,77,5,0,0
78156,-45.4545454545455,4,2,77,90,0,0
78244,-45.4545454545455,4,2,77,5,0,0
78333,-45.4545454545455,4,2,77,90,0,0
78603,-45.4545454545455,4,2,77,5,0,0
78686,-45.4545454545455,4,2,77,90,0,0
78774,-45.4545454545455,4,2,77,5,0,0
78862,-45.4545454545455,4,2,77,90,0,0
78950,-45.4545454545455,4,2,77,5,0,0
79038,-45.4545454545455,4,2,77,90,0,0
79127,-45.4545454545455,4,2,77,5,0,0
79215,-45.4545454545455,4,2,77,90,0,0
79303,-45.4545454545455,4,2,77,5,0,0
79391,-45.4545454545455,4,2,77,90,0,0
79744,-45.4545454545455,4,2,77,90,0,0
80097,-45.4545454545455,4,2,77,90,0,0
80362,-45.4545454545455,4,2,77,5,0,0
80450,-45.4545454545455,4,2,77,90,0,0
80538,-45.4545454545455,4,2,77,5,0,0
80627,-45.4545454545455,4,2,77,90,0,0
80891,-45.4545454545455,4,2,77,5,0,0
80980,-45.4545454545455,4,2,77,90,0,0
81068,-45.4545454545455,4,2,77,5,0,0
81156,-45.4545454545455,4,2,77,90,0,0
81421,-45.4545454545455,4,2,77,5,0,0
81509,-45.4545454545455,4,2,77,90,0,0
81597,-45.4545454545455,4,2,77,5,0,0
81686,-45.4545454545455,4,2,77,90,0,0
81774,-45.4545454545455,4,2,77,5,0,0
81862,-45.4545454545455,4,2,77,90,0,0
81950,-45.4545454545455,4,2,77,5,0,0
82038,-45.4545454545455,4,2,77,90,0,0
82127,-45.4545454545455,4,2,77,5,0,0
82215,-45.4545454545455,4,2,77,90,0,0
82568,-45.4545454545455,4,2,77,90,0,0
82921,-45.4545454545455,4,2,77,90,0,0
83891,-45.4545454545455,4,2,77,5,0,0
83980,-45.4545454545455,4,2,77,90,0,0
86009,-45.4545454545455,4,2,77,5,0,0
86097,-45.4545454545455,4,2,77,90,0,0
87421,-45.4545454545455,4,2,77,5,0,0
87509,-45.4545454545455,4,2,77,90,0,0
88833,-45.4545454545455,4,2,77,5,0,0
88921,-45.4545454545455,4,2,77,90,0,0
91656,-45.4545454545455,4,2,77,5,0,0
91744,-45.4545454545455,4,2,77,90,0,0
93068,-45.4545454545455,4,2,77,5,0,0
93156,-45.4545454545455,4,2,77,90,0,0
94127,-45.4545454545455,4,2,77,5,0,0
94215,-45.4545454545455,4,2,77,90,0,0
96597,-45.4545454545455,4,2,77,5,0,0
96686,-45.4545454545455,4,2,77,90,0,0
97303,-45.4545454545455,4,2,77,5,0,0
97391,-45.4545454545455,4,2,77,90,0,0
98715,-45.4545454545455,4,2,77,5,0,0
98803,-45.4545454545455,4,2,77,90,0,0
100127,-45.4545454545455,4,2,77,5,0,0
100215,-45.4545454545455,4,2,77,90,0,0
100303,-45.4545454545455,4,2,77,5,0,0
100391,-45.4545454545455,4,2,78,90,0,0
100480,-45.4545454545455,4,2,77,5,0,0
100568,-45.4545454545455,4,2,78,90,0,0
100656,-45.4545454545455,4,2,77,5,0,0
100744,-45.4545454545455,4,2,77,90,0,0
100833,-45.4545454545455,4,2,77,5,0,0
100921,-45.4545454545455,4,2,78,90,0,0
101009,-45.4545454545455,4,2,77,5,0,0
101097,-45.4545454545455,4,2,79,90,0,0
101186,-45.4545454545455,4,2,77,5,0,0
101274,-45.4545454545455,4,2,77,90,0,0
102950,-45.4545454545455,4,2,77,5,0,0
103038,-45.4545454545455,4,2,77,90,0,0
104362,-45.4545454545455,4,2,77,5,0,0
104450,-45.4545454545455,4,2,77,90,0,0
105774,-45.4545454545455,4,2,77,5,0,0
105862,-45.4545454545455,4,2,77,90,0,0
106127,-45.4545454545455,4,2,77,5,0,0
106215,-42.5531914893617,4,2,77,90,0,0
106480,-42.5531914893617,4,2,77,5,0,0
106568,-42.5531914893617,4,2,77,90,0,0
106833,-42.5531914893617,4,2,77,5,0,0
106921,-40,4,2,77,90,0,0
106943,-45.4545454545455,4,2,78,5,0,0
107009,-45.4545454545455,4,2,77,10,0,0
107097,-45.4545454545455,4,2,78,15,0,0
107186,-45.4545454545455,4,2,77,20,0,0
107274,-45.4545454545455,4,2,78,25,0,0
107362,-45.4545454545455,4,2,77,30,0,0
107450,-45.4545454545455,4,2,78,35,0,0
107538,-45.4545454545455,4,2,77,40,0,0
107627,-45.4545454545455,4,2,78,45,0,0
107715,-45.4545454545455,4,2,77,50,0,0
107803,-45.4545454545455,4,2,78,60,0,0
107891,-45.4545454545455,4,2,77,70,0,0
107980,-45.4545454545455,4,2,78,80,0,0
108068,-45.4545454545455,4,2,77,90,0,0
108156,-45.4545454545455,4,2,78,100,0,0
108244,-45.4545454545455,4,2,77,5,0,0
108333,-40.8163265306122,4,2,77,100,0,1
113274,-40.8163265306122,4,2,77,100,0,1
113450,-40.8163265306122,4,2,77,100,0,1
113627,-40.8163265306122,4,2,77,100,0,1
113803,-40.8163265306122,4,2,77,100,0,1
113980,-40.8163265306122,4,2,77,100,0,1
116891,-40.8163265306122,4,2,77,5,0,1
116980,-40.8163265306122,4,2,77,100,0,1
117068,-40.8163265306122,4,2,77,5,0,1
117156,-40.8163265306122,4,2,77,100,0,1
117244,-40.8163265306122,4,2,77,5,0,1
117333,-40.8163265306122,4,2,77,100,0,1
117509,-40.8163265306122,4,2,77,100,0,1
117597,-40.8163265306122,4,2,77,5,0,1
117686,-40.8163265306122,4,2,77,100,0,1
117774,-40.8163265306122,4,2,77,5,0,1
117862,-40.8163265306122,4,2,77,100,0,1
117950,-40.8163265306122,4,2,77,5,0,1
118038,-40.8163265306122,4,2,77,100,0,1
118127,-40.8163265306122,4,2,77,5,0,1
118215,-40.8163265306122,4,2,77,100,0,1
118480,-40.8163265306122,4,2,77,5,0,1
118568,-40.8163265306122,4,2,77,100,0,1
118833,-40.8163265306122,4,2,77,5,0,1
118921,-40.8163265306122,4,2,77,100,0,1
119450,-40.8163265306122,4,2,77,100,0,0
119627,-40.8163265306122,4,2,77,100,0,1
126068,-40.8163265306122,4,2,77,5,0,1
126156,-40.8163265306122,4,2,77,100,0,1
126244,-40.8163265306122,4,2,77,5,0,1
126333,-40.8163265306122,4,2,77,100,0,1
126509,-40.8163265306122,4,2,77,100,0,1
126686,-40.8163265306122,4,2,77,100,0,1
128362,-40.8163265306122,4,2,77,5,0,1
128450,-40.8163265306122,4,2,77,100,0,1
128715,-40.8163265306122,4,2,77,5,0,1
128803,-40.8163265306122,4,2,77,100,0,1
129244,-40.8163265306122,4,2,77,5,0,1
129333,-40.8163265306122,4,2,77,100,0,1
129421,-40.8163265306122,4,2,77,5,0,1
129509,-40.8163265306122,4,2,77,100,0,1
129597,-40.8163265306122,4,2,77,5,0,1
129686,-40.8163265306122,4,2,77,100,0,1
129774,-40.8163265306122,4,2,77,5,0,1
129862,-40.8163265306122,4,2,77,100,0,1
130568,-40.8163265306122,4,2,77,100,0,1
130921,-100,4,2,77,100,0,0
131097,-100,4,2,77,95,0,0
131274,-100,4,2,77,90,0,0
131450,-100,4,2,77,85,0,0
131627,-100,4,2,77,80,0,0
131803,-100,4,2,77,75,0,0
131980,-100,4,2,77,70,0,0
132156,-100,4,2,77,65,0,0
132333,-100,4,2,77,60,0,0
132509,-100,4,2,77,55,0,0
132686,-100,4,2,77,50,0,0
132862,-100,4,2,77,45,0,0
133038,-100,4,2,77,40,0,0
133215,-100,4,2,77,35,0,0
133391,-100,4,2,77,30,0,0
133568,-100,4,2,77,25,0,0
133744,-100,4,2,77,50,0,0

[Colours]
Combo1 : 17,254,176
Combo2 : 173,255,95
Combo3 : 255,88,100
Combo4 : 255,94,55

[HitObjects]
305,281,1039,6,0,B|260:307|206:270|215:265|225:257|173:222|130:247,1,191.250003647804,6|0,0:0|0:0,0:0:0:0:
105,164,2274,1,2,0:0:0:0:
80,82,2450,1,2,0:0:0:0:
80,82,3686,1,2,0:0:0:0:
115,2,3862,6,0,L|108:194,1,191.250003647804,0|0,0:0|0:0,0:0:0:0:
34,251,5097,1,2,0:0:0:0:
103,314,5274,5,2,0:0:0:0:
428,140,6509,5,2,0:0:0:0:
428,140,6686,2,0,B|442:116|475:107|475:107|344:142,1,191.250003647804,2|0,0:0|0:0,0:0:0:0:
260,123,7921,1,2,0:0:0:0:
173,105,8097,5,2,0:0:0:0:
173,105,9333,1,2,0:0:0:0:
140,192,9509,6,0,P|199:128|297:131,1,191.250003647804,0|0,0:0|0:0,0:0:0:0:
397,98,10744,1,2,0:0:0:0:
320,29,10921,5,2,0:0:0:0:
394,365,12156,5,2,0:0:0:0:
394,365,12333,2,0,P|405:337|397:300,1,64.5000009841919,2|0,0:0|0:0,0:0:0:0:
303,356,13038,2,0,P|296:324|308:294,1,64.5000009841919
178,197,13744,6,0,P|194:229|188:270,1,75,2|0,0:0|0:0,0:0:0:0:
84,212,14450,2,0,P|79:248|95:281,1,75
9,109,15156,6,0,B|0:89|0:89|9:67,2,43.1250008225441,2|0|0,0:0|0:0|0:0,0:0:0:0:
91,136,15686,1,0,0:0:0:0:
173,163,15862,2,0,P|208:142|253:146,1,86.2500016450882,0|0,0:0|0:0,0:0:0:0:
319,89,16391,1,2,0:0:0:0:
242,17,16568,6,0,B|219:1|224:-19|224:-19|219:1|195:6,1,86.2500016450882,2|8,0:0|0:0,0:0:0:0:
108,30,17097,2,0,P|93:69|110:108,1,86.2500016450882,0|8,0:0|0:0,0:0:0:0:
196,95,17627,1,8,0:0:0:0:
135,234,17980,5,2,3:2:0:0:
135,234,18156,2,0,B|223:219|223:219|245:244|281:237,1,151.875000579357,8|0,0:0|0:0,0:0:0:0:
246,316,18862,2,0,P|286:289|337:297,1,101.250000386238,0|10,3:2|0:2,0:0:0:0:
435,230,19391,6,0,B|490:219|490:219|435:206,1,112.500004291535,2|8,3:2|0:0,0:0:0:0:
366,147,19921,2,0,P|316:156|268:123,1,112.500004291535,0|8,3:2|0:0,0:0:0:0:
256,33,20450,1,8,0:0:0:0:
457,14,20803,6,0,B|482:5|492:-18|492:-18|448:90,1,165.000005035401,4|0,1:2|3:0,0:0:0:0:
366,147,21333,2,0,B|318:164|286:132|286:132|208:132,1,165.000005035401,8|0,1:3|3:0,0:0:0:0:
132,65,21862,2,0,B|143:43|131:26|131:26|143:43|169:40,1,82.5000025177003,4|0,1:3|0:0,0:0:0:0:
82,162,22215,5,8,0:0:0:0:
85,178,22303,1,8,0:0:0:0:
89,193,22391,1,8,0:0:0:0:
93,209,22480,1,8,0:0:0:0:
97,224,22568,6,0,L|47:212,2,41.2500012588501,8|8|8,0:0|0:0|0:0,0:0:0:0:
122,310,22921,6,0,L|80:336,2,41.2500012588501,8|8|8,0:0|0:0|0:0,0:0:0:0:
216,326,23274,6,0,L|230:367,2,41.2500012588501,8|8|8,0:0|0:0|0:0,0:0:0:0:
297,261,23627,6,0,B|311:235|299:210|299:210|335:285|335:285|346:309|367:324|397:321|420:296|412:266,1,258.750004935265,6|0,0:0|0:0,0:0:0:0:
412,266,24862,1,2,0:0:0:0:
467,163,25038,6,0,B|499:147|539:153|539:153|351:125,1,258.750004935265,2|0,0:0|0:0,0:0:0:0:
356,125,26274,1,2,0:0:0:0:
449,39,26450,6,2,B|487:303|487:303|493:343|474:387|405:398|374:358|368:318|368:318|361:275,1,498.749984779358,0|0,0:2|0:0,0:1:0:0:
177,208,28568,2,0,P|161:219|142:208,3,43.1250008225441,2|2|2|2,0:3|0:3|0:3|0:3,0:0:0:0:
202,308,29274,6,0,P|145:258|61:268,1,165.000005035401,6|8,1:2|0:0,0:0:0:0:
14,178,29803,1,0,1:2:0:0:
14,178,29891,1,0,1:2:0:0:
14,178,29980,2,0,P|-17:157|-24:114,1,82.5000025177003,0|8,1:2|0:0,0:0:0:0:
43,32,30333,2,0,B|67:26|72:6|72:6|67:26|88:43,1,82.5000025177003,0|2,1:2|1:2,0:0:0:0:
142,165,30686,6,0,B|194:159|194:159|222:168|222:168|248:153|248:153|301:147,1,165.000005035401,2|8,1:2|0:0,0:0:0:0:
300,50,31215,1,0,1:2:0:0:
300,50,31303,1,0,1:2:0:0:
300,50,31391,1,8,0:0:0:0:
393,97,31568,1,0,1:2:0:0:
393,97,31656,1,0,1:2:0:0:
393,97,31744,2,0,L|475:88,1,82.5000025177003,0|10,1:2|0:0,0:0:0:0:
420,241,32097,6,0,P|373:210|310:222,1,123.75000377655,0|0,1:2|0:0,0:0:0:0:
300,205,32450,2,0,B|279:222|284:242|284:242|279:222|256:216,1,82.5000025177003,8|2,0:0|3:0,0:0:0:0:
148,214,32803,2,0,B|150:238|132:249|132:249|150:238|173:253,1,82.5000025177003,2|8,0:3|0:0,0:0:0:0:
88,142,33156,2,0,B|94:115|79:102|79:102|94:115|117:107,1,82.5000025177003,2|2,0:3|0:3,0:0:0:0:
21,284,33509,6,0,B|59:304|105:272|97:266|89:260|133:230|170:251,2,165.000005035401,2|8|8,1:2|0:0|0:0,0:0:0:0:
88,166,34391,1,0,1:2:0:0:
88,157,34480,1,0,1:2:0:0:
88,148,34568,2,0,P|96:129|85:109,2,41.2500012588501,0|0|10,1:2|1:2|0:0,0:0:0:0:
21,250,34921,6,0,B|59:230|105:262|97:268|89:274|133:304|170:283,1,165.000005035401,2|8,1:2|0:0,0:0:0:0:
292,328,35450,1,0,1:2:0:0:
292,328,35538,1,0,1:2:0:0:
292,328,35627,2,0,P|274:358|259:328,1,82.5000025177003,0|8,1:2|0:0,0:0:0:0:
334,228,35980,2,0,B|293:220|293:220|335:212,1,82.5000025177003,0|2,1:2|1:2,0:0:0:0:
445,140,36333,6,0,B|468:132|492:137|492:137|373:113,1,165.000005035401,2|8,1:2|0:0,0:0:0:0:
275,56,36862,1,0,1:2:0:0:
275,56,36950,1,0,1:2:0:0:
275,56,37038,1,8,0:0:0:0:
211,156,37215,1,0,1:2:0:0:
211,156,37303,1,0,1:2:0:0:
211,156,37391,2,0,L|294:175,1,82.5000025177003,0|10,1:2|0:0,0:0:0:0:
151,80,37744,6,0,L|182:242,1,165.000005035401,0|8,1:2|0:0,0:0:0:0:
139,365,38274,1,0,1:2:0:0:
142,355,38362,1,8,0:0:0:0:
145,344,38450,2,0,B|226:344|226:344|256:377|303:364,1,165.000005035401,0|8,1:2|0:0,0:0:0:0:
405,298,38980,1,2,1:2:0:0:
405,298,39068,1,8,0:0:0:0:
405,298,39156,6,0,P|379:232|294:235,1,165.000005035401,2|8,1:2|0:0,0:0:0:0:
217,137,39686,1,0,1:2:0:0:
210,152,39774,1,8,0:0:0:0:
202,167,39862,6,0,B|186:173|186:188|186:188|186:173|171:168,1,56.2500021457673,0|0,1:2|0:0,0:0:0:0:
87,137,40215,2,0,B|72:132|72:117|72:117|72:132|55:137,1,56.2500021457673,0|2,1:2|0:0,0:0:0:0:
0,247,40568,6,0,B|86:278|86:278|96:318|139:324,1,165.000005035401,6|8,1:2|0:0,0:0:0:0:
230,275,41097,1,0,1:2:0:0:
230,275,41186,1,0,1:2:0:0:
230,275,41274,2,0,L|217:221,2,41.2500012588501,2|2|10,1:2|0:0|0:0,0:0:0:0:
330,294,41627,2,0,L|354:254,2,41.2500012588501,2|2|2,1:2|1:2|1:2,0:0:0:0:
441,202,41980,6,0,P|366:222|307:166,1,165.000005035401,2|8,1:2|0:0,0:0:0:0:
277,78,42509,1,0,1:2:0:0:
185,39,42686,2,0,P|172:25|185:12,2,41.2500012588501,10|2|2,0:0|0:0|1:2,0:0:0:0:
85,69,43038,2,0,P|66:73|61:55,2,41.2500012588501,2|2|10,1:2|1:2|0:2,0:0:0:0:
63,178,43391,6,0,B|118:178|118:178|130:186|130:186|192:185,1,123.75000377655,2|0,1:2|0:0,0:0:0:0:
189,167,43744,2,0,B|210:150|205:130|205:130|210:150|233:156,1,82.5000025177003,8|2,0:0|0:3,0:0:0:0:
311,236,44097,2,0,B|290:253|295:273|295:273|290:253|267:247,1,82.5000025177003,2|8,0:3|0:0,0:0:0:0:
376,167,44450,2,0,B|397:150|392:130|392:130|397:150|420:156,1,82.5000025177003,2|2,0:3|0:3,0:0:0:0:
512,257,44803,6,0,P|430:277|405:346,2,165.000005035401,2|8|8,1:2|0:0|0:0,0:0:0:0:
485,159,45686,1,0,1:2:0:0:
480,143,45774,1,0,1:2:0:0:
476,126,45862,2,0,B|485:107|485:107|474:88,2,41.2500012588501,2|0|8,1:2|1:2|0:0,0:0:0:0:
357,189,46215,6,0,B|286:177|286:177|268:185|268:185|196:174,1,165.000005035401,2|8,1:2|0:0,0:0:0:0:
105,210,46744,1,0,1:2:0:0:
105,210,46833,1,0,1:2:0:0:
105,210,46921,2,0,P|89:248|108:286,1,82.5000025177003,0|8,1:2|0:0,0:0:0:0:
23,143,47274,2,0,B|-18:135|-18:135|23:127,1,82.5000025177003,0|2,1:2|1:2,0:0:0:0:
107,33,47627,6,0,B|113:9|101:-14|101:-14|155:91,1,165.000005035401,2|8,1:2|0:0,0:0:0:0:
243,156,48156,1,0,1:2:0:0:
243,156,48244,1,0,1:2:0:0:
243,156,48333,1,10,0:0:0:0:
161,235,48509,1,2,1:2:0:0:
161,235,48597,1,0,1:2:0:0:
161,235,48686,2,0,B|134:241|130:261|130:261|134:241|116:225,1,82.5000025177003,0|10,1:2|0:0,0:0:0:0:
260,295,49038,6,0,B|292:295|292:295|330:295|322:317|364:317|364:317|395:317,1,138.749999470711,6|0,1:2|3:2,0:0:0:0:
482,353,49568,2,0,B|510:272|510:272|459:254,1,138.749999470711,8|0,1:3|3:0,0:0:0:0:
393,317,50097,1,4,1:3:0:0:
512,158,50450,5,8,0:0:0:0:
508,144,50538,1,8,0:0:0:0:
505,130,50627,1,8,0:0:0:0:
502,116,50715,1,8,0:0:0:0:
499,102,50803,6,0,L|526:75,2,34.6874998676777,8|8|8,0:0|0:0|0:0,0:0:0:0:
416,56,51156,6,0,L|426:14,2,37.5,8|8|8,0:0|0:0|0:0,0:0:0:0:
313,70,51509,6,0,L|302:22,2,41.2500012588501,8|8|8,0:0|0:0|0:0,0:0:0:0:
233,150,51862,6,0,P|166:155|122:107,1,137.812501314282,6|2,1:2|0:0,0:0:0:0:
121,106,52215,1,10,0:0:0:0:
226,29,52391,1,2,1:2:0:0:
226,29,52480,1,0,1:2:0:0:
226,29,52568,2,0,L|313:58,1,91.8750008761883,2|10,1:2|0:0,0:0:0:0:
419,84,52921,2,0,B|431:61|457:62|457:62|431:61|418:42,1,91.8750008761883,2|2,1:2|1:2,0:0:0:0:
491,195,53274,6,0,P|504:179|528:180,2,45.9375004380941,2|2|2,1:2|0:0|0:0,0:0:0:0:
387,236,53627,2,0,P|380:215|393:197,2,45.9375004380941,10|2|2,0:0|0:0|1:2,0:0:0:0:
403,358,53980,2,0,P|367:331|322:333,1,91.8750008761883,10|2,0:0|1:2,0:0:0:0:
313,322,54244,1,2,1:2:0:0:
303,311,54333,2,0,L|244:311,2,45.9375004380941,2|2|10,1:2|1:2|0:0,0:0:0:0:
428,211,54686,6,0,B|372:193|372:193|353:199|353:199|297:181,1,137.812501314282,2|2,1:2|0:0,0:0:0:0:
296,180,55038,2,0,P|343:174|354:131,1,91.8750008761883,10|2,0:0|1:2,0:0:0:0:
211,242,55391,2,0,L|124:214,1,91.8750008761883,2|10,1:2|0:0,0:0:0:0:
306,302,55744,1,2,1:2:0:0:
319,300,55833,1,2,1:2:0:0:
332,298,55921,1,2,1:2:0:0:
345,296,56009,1,2,1:2:0:0:
358,294,56097,6,0,P|365:313|358:338,2,45.9375004380941,2|2|2,1:2|0:0|0:0,0:0:0:0:
458,239,56450,2,0,B|480:248|480:248|500:239,2,45.9375004380941,10|2|2,0:0|0:0|1:2,0:0:0:0:
415,134,56803,2,0,L|325:153,1,91.8750008761883,10|2,0:0|1:2,0:0:0:0:
313,145,57068,1,2,1:2:0:0:
302,135,57156,2,0,L|252:146,2,45.9375004380941,2|2|10,1:2|1:2|0:0,0:0:0:0:
355,36,57509,6,0,B|388:51|424:22|416:17|410:13|445:-14|479:0,1,137.812501314282,2|2,1:2|0:0,0:0:0:0:
478,0,57862,1,10,0:0:0:0:
502,104,58038,1,2,1:2:0:0:
502,104,58127,1,0,1:2:0:0:
502,104,58215,2,0,B|527:106|536:130|536:130|527:106|540:87,1,91.8750008761883,2|10,1:2|0:0,0:0:0:0:
483,214,58568,2,0,P|445:189|400:195,1,91.8750008761883,2|2,1:2|1:2,0:0:0:0:
271,96,58921,6,0,P|294:96|302:73,2,45.9375004380941,2|2|2,1:2|0:0|0:0,0:0:0:0:
172,164,59274,2,0,P|183:183|207:179,2,45.9375004380941,10|2|2,0:0|0:0|1:2,0:0:0:0:
66,190,59627,2,0,P|48:234|73:277,1,91.8750008761883,10|2,0:0|1:2,0:0:0:0:
79,268,59891,1,2,1:2:0:0:
92,266,59980,2,0,L|92:321,2,45.9375004380941,2|2|10,1:2|1:2|0:0,0:0:0:0:
240,191,60333,6,0,B|215:185|209:159|209:159|215:185|196:201,1,91.8750008761883,2|0,1:2|0:0,0:0:0:0:
323,258,60686,2,0,B|381:242|381:242|357:266,1,91.8750008761883,2|2,1:2|1:2,0:0:0:0:
254,351,61038,2,0,P|195:304|92:311,1,183.750001752377,10|10,0:0|0:0,0:0:0:0:
0,126,61744,5,10,0:0:0:0:
13,124,61833,1,2,1:2:0:0:
26,122,61921,1,2,1:2:0:0:
39,121,62009,1,0,1:2:0:0:
57,126,62097,6,0,L|49:77,2,45.9375004380941,2|2|10,1:2|1:2|0:2,0:0:0:0:
168,135,62450,6,0,L|188:97,3,30.6250002920628,2|2|0|2,1:2|0:0|0:0|0:2,0:0:0:0:
233,221,62803,6,0,B|297:213|297:213|328:235|368:217,1,137.812501314282,2|0,1:2|0:0,0:0:0:0:
383,201,63156,6,0,B|399:213|403:242|403:242|387:124,1,165.000005035401,4|8,1:2|0:0,0:0:0:0:
491,56,63686,1,0,1:2:0:0:
491,56,63774,1,0,1:2:0:0:
491,56,63862,2,0,P|506:92|487:133,1,82.5000025177003,0|8,1:2|0:0,0:0:0:0:
387,124,64215,2,0,L|305:118,1,82.5000025177003,0|2,1:2|1:2,0:0:0:0:
192,218,64568,6,0,P|272:216|325:275,1,165.000005035401,2|8,1:2|0:0,0:0:0:0:
230,321,65097,1,0,1:2:0:0:
230,321,65186,1,0,1:2:0:0:
230,321,65274,1,10,0:0:0:0:
136,369,65450,1,2,1:2:0:0:
136,369,65538,1,0,1:2:0:0:
136,369,65627,2,0,B|102:344|102:344|62:355,1,82.5000025177003,0|10,1:2|0:0,0:0:0:0:
230,321,65980,6,0,B|258:321|258:321|291:321|284:340|322:340|322:340|349:340,1,123.75000377655,2|0,1:2|0:0,0:0:0:0:
358,324,66333,2,0,B|381:330|386:350|386:350|381:330|402:313,1,82.5000025177003,8|2,0:0|0:3,0:0:0:0:
494,210,66686,2,0,B|498:237|518:242|518:242|498:237|482:254,1,82.5000025177003,2|8,0:3|0:0,0:0:0:0:
483,111,67038,2,0,B|476:88|491:73|491:73|476:88|451:78,1,82.5000025177003,2|2,0:3|0:3,0:0:0:0:
352,157,67391,6,0,B|323:130|323:130|241:130|241:130|208:102,2,165.000005035401,2|8|8,1:2|0:0|0:0,0:0:0:0:
449,197,68274,1,0,1:2:0:0:
465,197,68362,1,0,1:2:0:0:
481,197,68450,2,0,P|486:178|478:151,2,41.2500012588501,2|0|8,1:2|1:2|0:0,0:0:0:0:
507,346,68803,6,0,B|514:319|534:305|534:305|429:374,1,165.000005035401,2|8,1:2|0:0,0:0:0:0:
338,326,69333,1,0,1:2:0:0:
338,326,69421,1,0,1:2:0:0:
338,326,69509,2,0,P|356:289|351:241,1,82.5000025177003,0|8,1:2|0:0,0:0:0:0:
227,336,69862,2,0,P|211:297|177:272,1,82.5000025177003,0|2,1:2|1:2,0:0:0:0:
135,150,70215,6,0,B|68:167|68:167|40:158|40:158|-24:173,1,165.000005035401,2|8,1:2|0:0,0:0:0:0:
0,73,70744,1,0,1:2:0:0:
0,73,70833,1,0,1:2:0:0:
0,73,70921,1,10,0:0:0:0:
89,24,71097,1,2,1:2:0:0:
89,24,71186,1,0,1:2:0:0:
89,24,71274,2,0,P|125:35|167:23,1,82.5000025177003,0|10,1:2|0:0,0:0:0:0:
300,118,71627,6,0,B|310:97|334:98|334:98|310:97|299:80,1,82.5000025177003,10|2,0:0|0:3,0:0:0:0:
208,145,71980,2,0,B|197:165|173:164|173:164|197:165|208:182,1,82.5000025177003,2|2,0:3|0:3,0:0:0:0:
161,267,72333,2,0,P|211:216|299:223,1,165.000005035401,0|0,1:2|1:2,0:0:0:0:
505,146,73038,5,2,1:2:0:0:
420,84,73215,6,0,L|434:46,2,41.2500012588501,0|0|8,1:2|1:2|0:0,0:0:0:0:
310,64,73568,6,0,L|313:18,2,41.2500012588501,0|0|8,1:2|1:2|0:0,0:0:0:0:
195,90,73921,5,0,1:2:0:0:
185,75,74009,1,0,1:2:0:0:
176,60,74097,2,0,P|146:88|104:85,1,82.5000025177003,2|0,1:2|0:0,0:0:0:0:
14,191,74450,5,6,1:2:0:0:
14,191,74538,1,2,0:0:0:0:
14,191,74627,2,0,B|54:180|54:180|88:205,1,82.5000025177003,2|10,0:0|0:0,0:0:0:0:
186,224,74980,2,0,P|178:205|187:186,2,41.2500012588501,2|2|2,1:2|1:2|1:2,0:0:0:0:
269,283,75333,1,10,0:0:0:0:
293,381,75509,2,0,L|212:367,1,82.5000025177003,2|2,1:2|1:2,0:0:0:0:
459,314,75862,6,0,L|377:301,2,82.5000025177003,2|2|10,1:2|0:0|0:0,0:0:0:0:
386,219,76391,1,2,1:2:0:0:
283,315,76568,2,0,B|261:303|261:282|261:282|261:303|237:314,1,82.5000025177003,10|0,0:0|1:2,0:0:0:0:
230,327,76833,1,0,1:2:0:0:
222,341,76921,2,0,L|172:341,2,41.2500012588501,0|0|10,1:2|1:2|0:0,0:0:0:0:
122,243,77274,5,2,1:2:0:0:
122,243,77362,1,2,0:0:0:0:
122,243,77450,2,0,B|74:171,1,82.5000025177003,2|10,0:0|0:0,0:0:0:0:
159,120,77803,2,0,B|167:100|167:100|159:80,2,41.2500012588501,2|2|2,1:2|1:2|1:2,0:0:0:0:
246,174,78156,1,10,0:0:0:0:
337,120,78333,2,0,P|375:133|415:120,1,82.5000025177003,2|2,1:2|1:2,0:0:0:0:
468,25,78686,6,0,B|450:7|455:-12|455:-12|450:7|424:11,2,82.5000025177003,2|2|10,1:2|0:0|0:0,0:0:0:0:
512,109,79215,1,2,1:2:0:0:
438,170,79391,2,0,P|403:147|360:146,1,82.5000025177003,10|0,0:0|1:2,0:0:0:0:
351,134,79656,1,0,1:2:0:0:
339,122,79744,2,0,L|347:78,2,41.2500012588501,0|0|10,1:2|1:2|0:0,0:0:0:0:
228,178,80097,5,2,1:2:0:0:
228,178,80186,1,2,0:0:0:0:
227,177,80274,2,0,B|240:95,1,82.5000025177003,2|10,0:0|0:0,0:0:0:0:
289,246,80627,2,0,P|306:254|325:246,2,41.2500012588501,2|2|2,1:2|1:2|1:2,0:0:0:0:
193,275,80980,1,10,0:0:0:0:
96,305,81156,2,0,B|62:282|62:282|22:293,1,82.5000025177003,2|2,1:2|1:2,0:0:0:0:
3,173,81509,6,0,P|-27:161|3:155,1,82.5000025177003,2|2,1:2|0:0,0:0:0:0:
88,110,81862,1,10,0:0:0:0:
122,202,82038,1,2,1:2:0:0:
208,164,82215,2,0,L|293:164,1,82.5000025177003,10|0,0:0|1:2,0:0:0:0:
302,151,82480,1,0,1:2:0:0:
314,139,82568,2,0,P|308:118|317:95,2,41.2500012588501,0|0|10,1:2|1:2|0:0,0:0:0:0:
403,245,82921,6,0,B|410:204|410:204|379:232,1,82.5000025177003,0|10,1:2|0:0,0:0:0:0:
392,353,83274,2,0,P|426:331|471:333,1,82.5000025177003,10|2,0:0|1:2,0:0:0:0:
299,300,83627,2,0,B|205:286|205:286|178:309|139:298,1,165.000005035401,10|10,0:0|0:0,0:0:0:0:
108,200,84156,1,10,0:2:0:0:
102,184,84244,1,8,0:2:0:0:
96,168,84333,6,0,L|178:160,1,82.5000025177003,2|10,1:2|0:0,0:0:0:0:
281,195,84686,2,0,L|363:187,1,82.5000025177003,10|8,0:0|0:0,0:0:0:0:
170,77,85038,6,0,L|178:159,1,82.5000025177003,2|2,1:2|1:2,0:0:0:0:
281,195,85391,2,0,L|289:277,1,82.5000025177003,10|2,0:0|1:2,0:0:0:0:
299,289,85656,1,0,1:2:0:0:
310,301,85744,6,0,P|264:358|183:340,2,165.000005035401,6|10|2,1:2|0:0|1:2,0:0:0:0:
245,222,86627,1,8,0:0:0:0:
328,157,86803,2,0,P|342:142|325:132,2,41.2500012588501,2|0|0,1:2|0:0|1:2,0:0:0:0:
213,110,87156,6,0,B|113:69|113:69|143:81|155:108,2,165.000005035401,2|10|10,1:2|0:0|0:0,0:0:0:0:
312,60,88038,1,0,1:2:0:0:
346,167,88215,1,2,1:2:0:0:
337,162,88303,1,0,1:2:0:0:
328,157,88391,1,8,0:0:0:0:
305,262,88568,6,0,P|359:209|447:212,1,165.000005035401,2|10,1:2|0:0,0:0:0:0:
511,123,89097,1,0,1:2:0:0:
511,123,89186,1,0,1:2:0:0:
511,123,89274,2,0,P|468:123|437:96,1,82.5000025177003,2|8,1:2|0:0,0:0:0:0:
336,47,89627,2,0,P|374:37|394:2,1,82.5000025177003,2|0,1:2|1:2,0:0:0:0:
277,161,89980,6,0,B|142:131|142:131|103:142|88:191|127:217,1,247.500007553101,2|0,1:2|1:2,0:0:0:0:
95,310,90686,2,0,B|61:286|61:286|15:297,1,82.5000025177003,10|0,0:0|1:2,0:0:0:0:
15,280,90950,1,0,1:2:0:0:
9,264,91038,2,0,P|-13:266|-26:249,2,41.2500012588501,0|0|8,1:2|1:2|0:0,0:0:0:0:
129,195,91391,6,0,B|194:171|194:171|220:178|220:178|284:152,2,165.000005035401,2|10|2,1:2|0:0|1:2,0:0:0:0:
74,117,92274,1,8,0:0:0:0:
18,41,92450,2,0,P|6:28|16:10,2,41.2500012588501,2|0|0,1:2|0:0|1:2,0:0:0:0:
144,51,92803,6,0,B|189:34|198:-5|198:-5|189:34|227:72,2,165.000005035401,2|10|10,1:2|0:0|0:0,0:0:0:0:
74,117,93686,1,0,1:2:0:0:
4,181,93862,1,2,1:2:0:0:
2,172,93950,1,0,1:2:0:0:
0,163,94038,1,8,0:0:0:0:
24,279,94215,6,0,P|7:290|-9:278,2,41.2500012588501,10|2|2,0:0|1:2|1:2,0:0:0:0:
98,329,94568,6,0,P|117:324|120:305,2,41.2500012588501,10|2|2,0:0|1:2|1:2,0:0:0:0:
217,269,94921,6,0,P|231:284|223:302,2,41.2500012588501,2|2|10,1:2|1:2|0:0,0:0:0:0:
288,183,95274,6,0,P|279:165|259:166,2,41.2500012588501,10|2|2,0:0|1:2|1:2,0:0:0:0:
290,50,95627,6,0,B|257:106|305:176|313:165|321:152|366:219|335:276,1,247.500007553101,10|0,0:2|1:2,0:0:0:0:
431,340,96333,2,0,B|490:323|490:323|430:304,1,123.75000377655,10|0,0:0|0:0,0:0:0:0:
431,340,96686,1,8,0:0:0:0:
285,384,96862,1,8,0:0:0:0:
285,384,96950,1,8,0:0:0:0:
285,384,97038,6,0,P|223:328|147:341,1,165.000005035401,6|8,1:2|0:0,0:0:0:0:
63,290,97568,1,0,1:2:0:0:
63,290,97656,1,0,1:2:0:0:
63,290,97744,2,0,P|101:306|139:288,1,82.5000025177003,0|8,1:2|0:0,0:0:0:0:
238,310,98097,2,0,P|270:285|274:243,1,82.5000025177003,0|2,1:2|1:2,0:0:0:0:
392,239,98450,6,0,B|364:131|364:131|370:157|394:173,1,165.000005035401,2|8,1:2|0:0,0:0:0:0:
502,279,98980,1,0,1:2:0:0:
502,279,99068,1,0,1:2:0:0:
502,279,99156,1,10,0:0:0:0:
422,360,99333,1,2,1:2:0:0:
422,360,99421,1,0,1:2:0:0:
422,360,99509,2,0,B|339:360,1,82.5000025177003,0|10,1:2|0:0,0:0:0:0:
502,279,99862,6,0,P|537:235|499:189,1,123.75000377655,2|0,1:2|0:0,0:0:0:0:
500,168,100215,2,0,B|489:145|500:128|500:128|489:145|462:145,1,82.5000025177003,8|2,0:0|0:3,0:0:0:0:
344,189,100568,2,0,B|365:202|365:222|365:222|365:202|388:187,1,82.5000025177003,2|10,0:3|0:0,0:0:0:0:
263,144,100921,2,0,B|238:144|227:127|227:127|238:144|227:167,1,82.5000025177003,2|2,0:3|0:3,0:0:0:0:
125,235,101274,6,0,B|58:216|58:216|47:197|47:197|-24:177,2,165.000005035401,2|8|8,1:2|0:0|0:0,0:0:0:0:
178,138,102156,1,0,1:2:0:0:
178,125,102244,1,0,1:2:0:0:
178,112,102333,2,0,P|166:97|181:80,2,41.2500012588501,2|0|8,1:2|1:2|0:0,0:0:0:0:
319,149,102686,6,0,B|301:247|301:247|296:272|265:267|270:241|270:241|272:227,1,165.000005035401,2|8,1:2|0:0,0:0:0:0:
181,338,103215,1,0,1:2:0:0:
181,338,103303,1,0,1:2:0:0:
181,338,103391,2,0,B|195:324|192:300|192:300|195:324|218:329,1,82.5000025177003,0|8,1:2|0:0,0:0:0:0:
305,380,103744,2,0,B|339:357|339:357|385:369,1,82.5000025177003,0|2,1:2|1:2,0:0:0:0:
484,295,104097,6,0,B|507:283|537:291|537:291|424:260,1,165.000005035401,2|8,1:2|0:0,0:0:0:0:
504,183,104627,1,0,1:2:0:0:
504,183,104715,1,0,1:2:0:0:
504,183,104803,1,10,0:0:0:0:
418,103,104980,1,2,1:2:0:0:
418,103,105068,1,0,1:2:0:0:
418,103,105156,2,0,P|457:92|478:55,1,82.5000025177003,0|10,1:2|0:0,0:0:0:0:
303,34,105509,6,0,B|343:26|343:26|302:16,1,82.5000025177003,10|0,0:0|0:0,0:0:0:0:
206,111,105862,2,0,B|165:103|165:103|207:93,1,82.5000025177003,0|0,1:2|0:0,0:0:0:0:
323,187,106215,6,0,B|337:174|364:174|364:174|337:174|323:158,1,88.1249986553192,0|0,1:2|0:0,0:0:0:0:
193,260,106568,2,0,B|178:247|151:247|151:247|178:247|193:231,1,88.1249986553192,8|0,0:0|0:0,0:0:0:0:
341,333,106921,6,2,B|362:364|398:372|438:357|464:315|439:265|398:253|362:273|362:273|203:363|203:363|160:386|93:405|24:338|54:254,1,656.25,8|0,0:2|0:0,0:1:0:0:
20,116,108333,6,0,B|77:133|77:133|93:127|93:127|152:144,1,137.812501314282,6|2,1:2|0:0,0:0:0:0:
151,143,108686,1,10,0:0:0:0:
259,80,108862,1,2,1:2:0:0:
259,80,108950,1,0,1:2:0:0:
259,80,109038,2,0,B|279:21|279:21|273:39|254:44,1,91.8750008761883,2|10,1:2|0:0,0:0:0:0:
257,210,109391,2,0,P|293:184|342:186,1,91.8750008761883,2|2,1:2|1:2,0:0:0:0:
457,98,109744,6,0,B|466:77|466:77|456:53,2,45.9375004380941,2|2|2,1:2|0:0|0:0,0:0:0:0:
496,196,110097,2,0,B|518:193|518:193|530:171,2,45.9375004380941,10|2|2,0:0|0:0|1:2,0:0:0:0:
467,300,110450,2,0,P|428:278|378:283,1,91.8750008761883,10|2,0:0|1:2,0:0:0:0:
371,271,110715,1,2,1:2:0:0:
360,261,110803,2,0,L|360:211,2,45.9375004380941,2|2|10,1:2|1:2|0:0,0:0:0:0:
461,125,111156,6,0,B|482:116|508:122|508:122|403:97,1,137.812501314282,2|2,1:2|0:0,0:0:0:0:
425,80,111509,2,0,P|392:108|344:103,1,91.8750008761883,10|2,0:0|1:2,0:0:0:0:
208,87,111862,2,0,B|220:63|211:42|211:42|220:63|251:70,1,91.8750008761883,2|10,1:2|0:0,0:0:0:0:
267,177,112215,1,2,1:2:0:0:
263,192,112303,1,2,1:2:0:0:
259,207,112391,1,2,1:2:0:0:
255,222,112480,1,0,1:2:0:0:
251,238,112568,6,0,L|297:231,2,45.9375004380941,2|2|2,1:2|0:0|0:0,0:0:0:0:
168,311,112921,2,0,L|168:356,2,45.9375004380941,10|2|2,0:2|0:2|1:2,0:0:0:0:
69,261,113274,2,0,P|25:260|-3:224,1,91.8750008761883,10|2,0:0|1:2,0:0:0:0:
5,211,113538,1,0,1:2:0:0:
12,197,113627,2,0,L|-22:163,2,45.9375004380941,2|2|10,1:2|1:2|0:0,0:0:0:0:
70,114,113980,6,0,B|87:96|111:96|111:96|87:96|70:76,1,91.8750008761883,2|2,1:2|0:0,0:0:0:0:
12,197,114333,1,10,0:0:0:0:
38,301,114509,1,2,0:0:0:0:
149,336,114686,2,0,B|205:336|182:317|240:317,1,91.8750008761883,0|10,1:2|0:2,0:0:0:0:
330,238,115038,1,2,1:2:0:0:
315,231,115127,1,0,1:2:0:0:
300,224,115215,1,2,1:2:0:0:
286,217,115303,1,0,1:2:0:0:
272,210,115391,6,0,B|361:188,1,91.8750008761883,2|2,1:2|0:0,0:0:0:0:
294,89,115744,1,10,0:0:0:0:
185,71,115921,1,2,1:2:0:0:
86,98,116097,2,0,P|53:107|86:115,1,91.8750008761883,10|2,0:0|1:2,0:0:0:0:
229,84,116450,2,0,B|212:63|219:42|219:42|212:63|185:70,1,91.8750008761883,2|10,1:2|0:0,0:0:0:0:
224,230,116803,6,0,P|260:205|308:210,1,91.8750008761883,2|2,1:2|0:0,0:0:0:0:
400,150,117156,1,10,0:0:0:0:
336,61,117333,1,2,0:0:0:0:
339,45,117421,1,0,0:2:0:0:
342,29,117509,2,0,L|349:-17,2,45.9375004380941,2|0|2,1:2|0:0|0:0,0:0:0:0:
400,150,117862,2,0,P|420:156|430:137,2,45.9375004380941,10|0|2,0:0|0:0|1:2,0:0:0:0:
313,248,118215,6,0,P|251:260|199:214,1,137.812501314282,10|0,0:0|0:0,0:0:0:0:
228,214,118568,2,0,P|179:259|113:248,1,137.812501314282,10|0,0:0|0:0,0:0:0:0:
90,266,118921,5,2,1:2:0:0:
86,250,119009,1,0,1:2:0:0:
82,234,119097,1,2,1:2:0:0:
78,218,119186,1,0,1:2:0:0:
74,201,119274,2,0,B|59:181|34:181|34:181|59:181|74:163,1,91.8750008761883,10|10,0:0|0:0,0:0:0:0:
35,43,119627,6,0,B|114:26|114:26|130:49|165:46,1,137.812501314282,6|2,1:2|0:0,0:0:0:0:
164,46,119980,1,10,0:0:0:0:
272,138,120156,1,2,1:2:0:0:
272,138,120244,1,0,1:2:0:0:
272,138,120333,2,0,P|228:128|191:154,1,91.8750008761883,2|10,1:2|0:0,0:0:0:0:
368,58,120686,2,0,B|380:49|396:49|396:49|330:49,1,91.8750008761883,2|2,1:2|1:2,0:0:0:0:
510,138,121038,6,0,P|524:124|508:107,2,45.9375004380941,2|2|2,1:2|0:0|0:0,0:0:0:0:
482,236,121391,2,0,P|496:250|513:234,2,45.9375004380941,10|2|2,0:0|0:0|1:2,0:0:0:0:
512,345,121744,2,0,P|468:344|432:376,1,91.8750008761883,10|2,0:0|1:2,0:0:0:0:
424,362,122009,1,2,1:2:0:0:
414,351,122097,2,0,L|362:352,2,45.9375004380941,2|2|10,1:2|1:2|0:0,0:0:0:0:
254,248,122450,6,0,B|308:225|308:225|328:231|328:231|383:206,1,137.812501314282,2|2,1:2|0:0,0:0:0:0:
381,188,122803,2,0,B|397:169|421:169|421:169|397:169|381:148,1,91.8750008761883,10|2,0:0|1:2,0:0:0:0:
379,29,123156,2,0,P|347:61|302:59,1,91.8750008761883,2|10,1:2|0:0,0:0:0:0:
213,148,123509,1,2,1:2:0:0:
198,142,123597,1,2,1:2:0:0:
183,136,123686,1,2,1:2:0:0:
168,130,123774,1,0,1:2:0:0:
153,124,123862,6,0,L|195:105,2,45.9375004380941,2|2|2,1:2|0:0|0:0,0:0:0:0:
51,176,124215,2,0,P|30:189|16:175,2,45.9375004380941,10|2|2,0:0|0:0|1:2,0:0:0:0:
120,270,124568,2,0,B|104:291|80:291|80:291|104:291|120:310,1,91.8750008761883,10|2,0:0|1:2,0:0:0:0:
127,322,124833,1,2,1:2:0:0:
137,333,124921,2,0,L|137:382,2,45.9375004380941,2|2|10,1:2|1:2|0:0,0:0:0:0:
236,232,125274,6,0,B|252:253|276:253|276:253|252:253|236:272,1,91.8750008761883,2|2,1:2|0:0,0:0:0:0:
163,116,125627,1,10,0:0:0:0:
280,163,125803,1,0,1:2:0:0:
162,197,125980,2,0,P|116:215|80:199,1,91.8750008761883,2|10,1:2|0:0,0:0:0:0:
242,94,126333,1,2,1:2:0:0:
247,84,126421,1,0,1:2:0:0:
254,72,126509,1,2,1:2:0:0:
261,61,126597,1,0,1:2:0:0:
267,50,126686,6,0,B|250:-8|250:-8|254:7|267:18,1,91.8750008761883,2|2,1:2|0:0,0:0:0:0:
347,121,127038,1,10,0:0:0:0:
251,188,127215,1,2,1:2:0:0:
379,241,127391,2,0,P|417:220|465:226,1,91.8750008761883,10|2,0:0|1:2,0:0:0:0:
289,342,127744,2,0,P|248:322|202:333,1,91.8750008761883,2|10,1:2|0:0,0:0:0:0:
112,233,128097,6,0,B|93:226|65:231|65:231|154:217,1,137.812501314282,10|0,0:0|0:0,0:0:0:0:
172,225,128450,2,0,B|193:183|193:183|170:144,1,91.8750008761883,2|0,1:2|0:0,0:0:0:0:
291,194,128803,2,0,B|390:179|390:179|421:209|467:198,1,183.750001752377,2|0,1:2|1:2,0:0:0:0:
512,297,129333,1,10,0:0:0:0:
366,344,129509,6,0,B|383:364|380:385|380:385|383:364|411:350,1,91.8750008761883,10|2,0:0|1:2,0:0:0:0:
259,368,129862,1,10,0:0:0:0:
244,362,129950,1,2,1:2:0:0:
229,356,130038,1,2,1:2:0:0:
214,350,130127,1,2,1:2:0:0:
199,344,130215,2,0,P|211:325|197:306,2,45.9375004380941,2|2|2,1:2|1:2|1:2,0:0:0:0:
294,231,130568,6,0,B|276:170|276:170|280:184|292:195,1,91.8750008761883,2|8,1:2|0:0,0:0:0:0:
256,192,130921,12,2,133744,0:0:0:0:
