osu file format v14

[General]
AudioFilename: audio.mp3
AudioLeadIn: 0
PreviewTime: 29198
Countdown: 0
SampleSet: Soft
StackLeniency: 0.4
Mode: 0
LetterboxInBreaks: 0
WidescreenStoryboard: 1

[Editor]
DistanceSpacing: 1.16
BeatDivisor: 4
GridSize: 32
TimelineZoom: 2.1

[Metadata]
Title:FEVER DREAM (feat. yzzyx)
TitleUnicode:FEVER DREAM (feat. yzzyx)
Artist:fiend
ArtistUnicode:fiend
Creator:Niva
Version:EASY
Source:osu!
Tags:mappers' guild mpg instrumental electronic drum and bass drum'n'bass dnb prodbyfiend yzzyxmusic feind featuring ft. featured artist fa
BeatmapID:2916770
BeatmapSetID:1405913

[Difficulty]
HPDrainRate:2.5
CircleSize:3
OverallDifficulty:2
ApproachRate:3.5
SliderMultiplier:0.75
SliderTickRate:1

[Events]
//Background and Video events
0,0,"dream4k.jpg",0,0
//Break Periods
//Storyboard Layer 0 (Background)
//Storyboard Layer 1 (Fail)
//Storyboard Layer 2 (Pass)
//Storyboard Layer 3 (Foreground)
//Storyboard Layer 4 (Overlay)
//Storyboard Sound Samples

[TimingPoints]
1039,352.941176470588,4,2,77,35,1,0
1039,-100,4,2,77,35,0,0
3686,-100,4,2,77,35,0,0
3774,-100,4,2,77,5,0,0
3862,-100,4,2,77,35,0,0
6686,-100,4,2,77,45,0,0
9333,-100,4,2,77,45,0,0
9421,-100,4,2,77,5,0,0
9509,-100,4,2,77,45,0,0
12333,-100,4,2,77,50,0,0
13038,-100,4,2,77,50,0,0
13744,-100,4,2,77,50,0,0
14450,-100,4,2,77,50,0,0
15156,-100,4,2,77,55,0,0
16568,-100,4,2,77,55,0,0
16921,-100,4,2,2,55,0,0
16943,-100,4,2,77,55,0,0
17450,-100,4,2,2,55,0,0
17472,-100,4,2,77,55,0,0
17627,-100,4,2,2,55,0,0
17649,-100,4,2,77,55,0,0
17980,-100,4,2,77,60,0,0
18156,-100,4,2,2,60,0,0
18178,-100,4,2,77,60,0,0
19215,-100,4,2,2,60,0,0
19237,-100,4,2,77,60,0,0
19391,-100,4,2,77,60,0,0
19744,-100,4,2,2,60,0,0
19766,-100,4,2,77,60,0,0
19921,-100,4,2,77,60,0,0
20274,-100,4,2,2,60,0,0
20296,-100,4,2,77,60,0,0
20450,-100,4,2,2,60,0,0
20472,-100,4,2,77,60,0,0
20803,-100,4,2,77,90,0,0
21068,-100,4,2,77,5,0,0
21156,-100,4,2,77,90,0,0
21597,-100,4,2,77,5,0,0
21686,-100,4,2,77,90,0,0
21862,-100,4,2,77,90,0,0
22127,-100,4,2,77,5,0,0
22215,-100,4,2,77,50,0,0
22391,-100,4,2,77,55,0,0
22568,-100,4,2,77,60,0,0
22744,-100,4,2,77,65,0,0
22925,-100,4,2,77,70,0,0
23097,-100,4,2,77,75,0,0
23274,-100,4,2,77,80,0,0
23450,-100,4,2,77,85,0,0
23627,-100,4,2,77,85,0,0
23715,-100,4,2,77,50,0,0
25038,-100,4,2,77,50,0,0
26450,-100,4,2,77,50,0,0
26472,-100,4,2,78,5,0,0
26627,-100,4,2,77,10,0,0
26803,-100,4,2,78,15,0,0
26980,-100,4,2,77,20,0,0
27156,-100,4,2,78,25,0,0
27333,-100,4,2,77,35,0,0
27509,-100,4,2,78,45,0,0
27686,-100,4,2,77,55,0,0
27862,-100,4,2,78,65,0,0
28038,-100,4,2,77,75,0,0
28215,-100,4,2,78,85,0,0
28391,-100,4,2,77,95,0,0
28480,-100,4,2,77,5,0,0
28568,-100,4,2,78,70,0,0
28612,-100,4,2,78,5,0,0
28744,-100,4,2,78,60,0,0
28788,-100,4,2,78,5,0,0
28921,-100,4,2,78,50,0,0
28965,-100,4,2,78,5,0,0
29097,-100,4,2,78,40,0,0
29141,-100,4,2,78,5,0,0
29274,-100,4,2,77,90,0,0
29538,-100,4,2,77,5,0,0
29627,-100,4,2,77,90,0,0
30950,-100,4,2,77,5,0,0
31038,-100,4,2,77,90,0,0
32362,-100,4,2,77,5,0,0
32450,-100,4,2,77,90,0,0
32538,-100,4,2,77,5,0,0
32627,-100,4,2,78,90,0,0
32715,-100,4,2,77,5,0,0
32803,-100,4,2,78,90,0,0
32891,-100,4,2,77,5,0,0
32980,-100,4,2,77,90,0,0
33068,-100,4,2,77,5,0,0
33156,-100,4,2,78,90,0,0
33244,-100,4,2,77,5,0,0
33333,-100,4,2,79,90,0,0
33421,-100,4,2,77,5,0,0
33509,-100,4,2,77,90,0,0
33774,-100,4,2,77,5,0,0
33862,-100,4,2,77,90,0,0
34127,-100,4,2,77,5,0,0
34215,-100,4,2,77,90,0,0
35186,-100,4,2,77,5,0,0
35274,-100,4,2,77,90,0,0
36597,-100,4,2,77,5,0,0
36686,-100,4,2,77,90,0,0
38009,-100,4,2,77,5,0,0
38097,-100,4,2,77,90,0,0
38450,-100,4,2,77,90,0,0
38715,-100,4,2,77,5,0,0
38803,-100,4,2,77,90,0,0
39156,-100,4,2,77,90,0,0
39421,-100,4,2,77,5,0,0
39509,-100,4,2,77,90,0,0
39862,-100,4,2,77,75,0,0
40568,-100,4,2,77,90,0,0
40833,-100,4,2,77,5,0,0
40921,-100,4,2,77,90,0,0
41891,-100,4,2,77,5,0,0
41980,-100,4,2,77,90,0,0
42244,-100,4,2,77,5,0,0
42333,-100,4,2,77,90,0,0
43656,-100,4,2,77,5,0,0
43744,-100,4,2,77,90,0,0
43833,-100,4,2,78,5,0,0
43921,-100,4,2,78,90,0,0
44009,-100,4,2,78,5,0,0
44097,-100,4,2,78,90,0,0
44186,-100,4,2,78,5,0,0
44274,-100,4,2,77,90,0,0
44362,-100,4,2,78,5,0,0
44450,-100,4,2,78,90,0,0
44538,-100,4,2,78,5,0,0
44627,-100,4,2,79,90,0,0
44715,-100,4,2,78,5,0,0
44803,-100,4,2,77,90,0,0
46480,-100,4,2,77,5,0,0
46568,-100,4,2,77,90,0,0
47891,-100,4,2,77,5,0,0
47980,-100,4,2,77,90,0,0
49038,-100,4,2,77,75,0,0
49303,-100,4,2,77,5,0,0
49391,-100,4,2,77,75,0,0
49833,-100,4,2,77,5,0,0
49921,-100,4,2,77,75,0,0
50097,-100,4,2,77,75,0,0
50362,-100,4,2,77,5,0,0
50450,-100,4,2,77,60,0,0
50627,-100,4,2,77,65,0,0
50803,-100,4,2,77,70,0,0
50980,-100,4,2,77,75,0,0
51156,-100,4,2,77,80,0,0
51333,-100,4,2,77,85,0,0
51509,-100,4,2,77,90,0,0
51686,-100,4,2,77,95,0,0
51862,-100,4,2,77,100,0,1
59274,-100,4,2,77,100,0,1
59627,-100,4,2,77,100,0,1
60333,-100,4,2,77,100,0,1
60597,-100,4,2,77,5,0,1
60686,-100,4,2,77,100,0,1
60774,-100,4,2,77,5,0,1
60862,-100,4,2,77,100,0,1
60950,-100,4,2,77,9,0,1
61038,-100,4,2,77,100,0,1
62450,-100,4,2,77,100,0,1
62803,-100,4,2,77,100,0,1
63068,-100,4,2,77,5,0,1
63156,-100,4,2,77,90,0,0
63421,-100,4,2,77,5,0,0
63509,-100,4,2,77,90,0,0
64833,-100,4,2,77,5,0,0
64921,-100,4,2,77,90,0,0
66244,-100,4,2,77,5,0,0
66333,-100,4,2,77,90,0,0
66421,-100,4,2,78,5,0,0
66509,-100,4,2,78,90,0,0
66597,-100,4,2,78,5,0,0
66686,-100,4,2,78,90,0,0
66774,-100,4,2,78,5,0,0
66862,-100,4,2,77,90,0,0
66950,-100,4,2,78,5,0,0
67038,-100,4,2,78,90,0,0
67127,-100,4,2,78,5,0,0
67215,-100,4,2,79,90,0,0
67303,-100,4,2,78,5,0,0
67391,-100,4,2,77,90,0,0
69068,-100,4,2,77,5,0,0
69156,-100,4,2,77,90,0,0
70480,-100,4,2,77,5,0,0
70568,-100,4,2,77,90,0,0
71627,-100,4,2,77,90,0,0
71715,-100,4,2,77,5,0,0
71803,-100,4,2,78,90,0,0
71891,-100,4,2,77,5,0,0
71980,-100,4,2,78,90,0,0
72068,-100,4,2,77,5,0,0
72156,-100,4,2,78,90,0,0
72244,-100,4,2,77,5,0,0
72333,-100,4,2,77,75,0,0
73038,-100,4,2,77,75,0,0
73215,-100,4,2,77,80,0,0
73568,-100,4,2,77,85,0,0
73921,-100,4,2,77,90,0,0
74362,-100,4,2,77,5,0,0
74450,-100,4,2,77,90,0,0
74715,-100,4,2,77,5,0,0
74803,-100,4,2,77,90,0,0
74891,-100,4,2,77,5,0,0
74980,-100,4,2,77,90,0,0
75244,-100,4,2,77,5,0,0
75333,-100,4,2,77,90,0,0
75421,-100,4,2,77,5,0,0
75509,-100,4,2,77,90,0,0
75774,-100,4,2,77,5,0,0
75862,-100,4,2,77,90,0,0
75950,-100,4,2,77,5,0,0
76038,-100,4,2,77,90,0,0
76127,-100,4,2,77,5,0,0
76215,-100,4,2,77,90,0,0
76303,-100,4,2,77,5,0,0
76391,-100,4,2,77,90,0,0
76480,-100,4,2,77,5,0,0
76568,-100,4,2,77,90,0,0
76921,-100,4,2,77,90,0,0
77274,-100,4,2,77,90,0,0
77538,-100,4,2,77,5,0,0
77627,-100,4,2,77,90,0,0
77715,-100,4,2,77,5,0,0
77803,-100,4,2,77,90,0,0
78068,-100,4,2,77,5,0,0
78156,-100,4,2,77,90,0,0
78244,-100,4,2,77,5,0,0
78333,-100,4,2,77,90,0,0
78603,-100,4,2,77,5,0,0
78686,-100,4,2,77,90,0,0
78774,-100,4,2,77,5,0,0
78862,-100,4,2,77,90,0,0
78950,-100,4,2,77,5,0,0
79038,-100,4,2,77,90,0,0
79127,-100,4,2,77,5,0,0
79215,-100,4,2,77,90,0,0
79303,-100,4,2,77,5,0,0
79391,-100,4,2,77,90,0,0
79744,-100,4,2,77,90,0,0
80097,-100,4,2,77,90,0,0
80362,-100,4,2,77,5,0,0
80450,-100,4,2,77,90,0,0
80538,-100,4,2,77,5,0,0
80627,-100,4,2,77,90,0,0
80891,-100,4,2,77,5,0,0
80980,-100,4,2,77,90,0,0
81068,-100,4,2,77,5,0,0
81156,-100,4,2,77,90,0,0
81421,-100,4,2,77,5,0,0
81509,-100,4,2,77,90,0,0
81597,-100,4,2,77,5,0,0
81686,-100,4,2,77,90,0,0
81774,-100,4,2,77,5,0,0
81862,-100,4,2,77,90,0,0
81950,-100,4,2,77,5,0,0
82038,-100,4,2,77,90,0,0
82127,-100,4,2,77,5,0,0
82215,-100,4,2,77,90,0,0
82568,-100,4,2,77,90,0,0
82921,-100,4,2,77,90,0,0
83891,-100,4,2,77,5,0,0
83980,-100,4,2,77,90,0,0
86009,-100,4,2,77,5,0,0
86097,-100,4,2,77,90,0,0
87421,-100,4,2,77,5,0,0
87509,-100,4,2,77,90,0,0
88833,-100,4,2,77,5,0,0
88921,-100,4,2,77,90,0,0
91656,-100,4,2,77,5,0,0
91744,-100,4,2,77,90,0,0
93068,-100,4,2,77,5,0,0
93156,-100,4,2,77,90,0,0
94127,-100,4,2,77,5,0,0
94215,-100,4,2,77,90,0,0
96597,-100,4,2,77,5,0,0
96686,-100,4,2,77,90,0,0
97303,-100,4,2,77,5,0,0
97391,-100,4,2,77,90,0,0
98715,-100,4,2,77,5,0,0
98803,-100,4,2,77,90,0,0
100127,-100,4,2,77,5,0,0
100215,-100,4,2,77,90,0,0
100303,-100,4,2,77,5,0,0
100391,-100,4,2,78,90,0,0
100480,-100,4,2,77,5,0,0
100568,-100,4,2,78,90,0,0
100656,-100,4,2,77,5,0,0
100744,-100,4,2,77,90,0,0
100833,-100,4,2,77,5,0,0
100921,-100,4,2,78,90,0,0
101009,-100,4,2,77,5,0,0
101097,-100,4,2,79,90,0,0
101186,-100,4,2,77,5,0,0
101274,-100,4,2,77,90,0,0
102950,-100,4,2,77,5,0,0
103038,-100,4,2,77,90,0,0
104362,-100,4,2,77,5,0,0
104450,-100,4,2,77,90,0,0
105774,-100,4,2,77,5,0,0
105862,-100,4,2,77,90,0,0
106127,-100,4,2,77,5,0,0
106215,-100,4,2,77,90,0,0
106480,-100,4,2,77,5,0,0
106568,-100,4,2,77,90,0,0
106833,-100,4,2,77,5,0,0
106921,-100,4,2,77,90,0,0
106943,-100,4,2,78,5,0,0
107009,-100,4,2,77,10,0,0
107097,-100,4,2,78,15,0,0
107186,-100,4,2,77,20,0,0
107274,-100,4,2,78,25,0,0
107362,-100,4,2,77,30,0,0
107450,-100,4,2,78,35,0,0
107538,-100,4,2,77,40,0,0
107627,-100,4,2,78,45,0,0
107715,-100,4,2,77,50,0,0
107803,-100,4,2,78,60,0,0
107891,-100,4,2,77,70,0,0
107980,-100,4,2,78,80,0,0
108068,-100,4,2,77,90,0,0
108156,-100,4,2,78,100,0,0
108244,-100,4,2,77,5,0,0
108333,-100,4,2,77,100,0,1
113274,-100,4,2,77,100,0,1
113450,-100,4,2,77,100,0,1
113627,-100,4,2,77,100,0,1
113803,-100,4,2,77,100,0,1
113980,-100,4,2,77,100,0,1
116891,-100,4,2,77,5,0,1
116980,-100,4,2,77,100,0,1
117068,-100,4,2,77,5,0,1
117156,-100,4,2,77,100,0,1
117244,-100,4,2,77,5,0,1
117333,-100,4,2,77,100,0,1
117509,-100,4,2,77,100,0,1
117597,-100,4,2,77,5,0,1
117686,-100,4,2,77,100,0,1
117774,-100,4,2,77,5,0,1
117862,-100,4,2,77,100,0,1
117950,-100,4,2,77,5,0,1
118038,-100,4,2,77,100,0,1
118127,-100,4,2,77,5,0,1
118215,-100,4,2,77,100,0,1
118480,-100,4,2,77,5,0,1
118568,-100,4,2,77,100,0,1
118833,-100,4,2,77,5,0,1
118921,-100,4,2,77,100,0,1
119450,-100,4,2,77,100,0,0
119627,-100,4,2,77,100,0,1
126068,-100,4,2,77,5,0,1
126156,-100,4,2,77,100,0,1
126244,-100,4,2,77,5,0,1
126333,-100,4,2,77,100,0,1
126509,-100,4,2,77,100,0,1
126686,-100,4,2,77,100,0,1
128362,-100,4,2,77,5,0,1
128450,-100,4,2,77,100,0,1
128715,-100,4,2,77,5,0,1
128803,-100,4,2,77,100,0,1
129244,-100,4,2,77,5,0,1
129333,-100,4,2,77,100,0,1
129421,-100,4,2,77,5,0,1
129509,-100,4,2,77,100,0,1
129597,-100,4,2,77,5,0,1
129686,-100,4,2,77,100,0,1
129774,-100,4,2,77,5,0,1
129862,-100,4,2,77,100,0,1
130568,-100,4,2,77,100,0,1
130921,-100,4,2,77,100,0,0
131097,-100,4,2,77,95,0,0
131274,-100,4,2,77,90,0,0
131450,-100,4,2,77,85,0,0
131627,-100,4,2,77,80,0,0
131803,-100,4,2,77,75,0,0
131980,-100,4,2,77,70,0,0
132156,-100,4,2,77,65,0,0
132333,-100,4,2,77,60,0,0
132509,-100,4,2,77,55,0,0
132686,-100,4,2,77,50,0,0
132862,-100,4,2,77,45,0,0
133038,-100,4,2,77,40,0,0
133215,-100,4,2,77,35,0,0
133391,-100,4,2,77,30,0,0
133568,-100,4,2,77,25,0,0
133744,-100,4,2,77,50,0,0

[Colours]
Combo1 : 17,254,176
Combo2 : 173,255,95
Combo3 : 255,88,100
Combo4 : 255,94,55

[HitObjects]
368,249,1039,6,0,P|231:285|156:163,1,300,6|2,0:0|0:0,0:0:0:0:
382,68,3862,2,0,L|406:369,1,300,0|2,0:0|0:0,0:0:0:0:
27,263,6686,6,0,B|101:223|181:280|165:289|149:299|232:354|299:315,1,300,2|2,0:0|0:0,0:0:0:0:
512,162,9509,2,0,P|455:35|314:49,1,300,0|2,0:0|0:0,0:0:0:0:
26,0,12333,6,0,L|45:150,1,150,2|0,0:0|0:0,0:0:0:0:
192,56,13744,1,2,0:0:0:0:
308,185,14450,1,0,0:0:0:0:
211,329,15156,6,0,P|285:322|340:370,1,150,2|0,0:0|0:0,0:0:0:0:
422,215,16568,2,0,B|470:208|470:208|486:216|486:216|531:209,2,112.5,2|0|8,0:0|0:0|0:0,0:0:0:0:
359,154,17980,6,0,P|285:164|210:90,1,187.5,2|0,3:2|3:2,0:0:0:0:
87,133,19391,2,0,L|95:13,2,112.5,2|0|8,3:2|3:2|0:0,0:0:0:0:
22,192,20803,5,4,1:2:0:0:
144,238,21333,1,8,1:3:0:0:
265,285,21862,1,4,1:3:0:0:
324,221,22215,2,0,B|342:189|342:189|319:149,1,75,8|8,0:0|0:0,0:0:0:0:
248,110,22921,2,0,L|174:123,1,75,8|8,0:0|0:0,0:0:0:0:
96,82,23627,5,6,0:0:0:0:
256,336,25038,1,2,0:0:0:0:
416,82,26450,6,2,P|335:216|144:170,1,375,0|0,0:2|0:0,0:1:0:0:
71,218,28568,1,2,0:3:0:0:
6,159,28921,1,2,0:3:0:0:
32,76,29274,6,0,B|91:62|91:62|117:71|117:71|181:54,1,150,6|0,1:2|1:2,0:0:0:0:
256,18,30333,1,0,1:2:0:0:
320,76,30686,2,0,P|356:139|321:204,1,150,2|8,1:2|0:0,0:0:0:0:
357,372,32097,6,0,L|213:315,1,150,2|2,1:2|0:3,0:0:0:0:
135,345,33156,1,2,0:3:0:0:
76,280,33509,2,0,B|40:292|40:292|3:280,2,75,2|8|8,1:2|0:0|0:0,0:0:0:0:
95,194,34568,1,0,1:2:0:0:
113,108,34921,6,0,P|186:109|232:52,1,150,2|0,1:2|1:2,0:0:0:0:
312,84,35980,1,0,1:2:0:0:
392,116,36333,2,0,L|372:268,1,150,2|8,1:2|0:0,0:0:0:0:
215,190,37744,6,0,L|235:342,1,150,2|0,1:2|1:2,0:0:0:0:
315,370,38803,1,8,0:0:0:0:
396,338,39156,2,0,P|466:326|486:250,1,150,2|0,1:2|1:2,0:0:0:0:
430,192,40215,1,0,1:2:0:0:
349,223,40568,6,0,B|287:223|287:223|264:210|264:210|203:210,1,150,6|2,1:2|1:2,0:0:0:0:
122,245,41627,1,2,1:2:0:0:
42,210,41980,1,2,1:2:0:0:
103,47,42686,1,10,0:0:0:0:
145,122,43038,1,2,1:2:0:0:
189,196,43391,6,0,P|248:156|326:166,1,150,2|2,1:2|0:3,0:0:0:0:
395,115,44450,1,2,0:3:0:0:
468,68,44803,2,0,L|530:117,2,75,2|8|8,1:2|0:0|0:0,0:0:0:0:
402,10,45862,1,2,1:2:0:0:
321,43,46215,6,0,P|286:105|212:105,1,150,2|0,1:2|1:2,0:0:0:0:
152,168,47274,1,0,1:2:0:0:
68,144,47627,2,0,B|31:210|31:210|69:273,1,150,2|10,1:2|0:0,0:0:0:0:
239,236,49038,5,6,1:2:0:0:
361,282,49568,1,8,1:3:0:0:
482,329,50097,1,4,1:3:0:0:
414,383,50450,2,0,P|377:374|340:383,1,75,8|8,0:0|0:0,0:0:0:0:
272,329,51156,2,0,L|198:329,1,75,8|8,0:0|0:0,0:0:0:0:
119,369,51862,6,0,P|48:361|23:290,1,150,6|2,1:2|1:2,0:0:0:0:
97,250,52921,1,2,1:2:0:0:
172,206,53274,2,0,B|186:171|186:171|170:138,1,75,2|10,1:2|0:0,0:0:0:0:
97,88,53980,1,10,0:0:0:0:
256,18,54686,6,0,P|301:74|373:71,1,150,2|2,1:2|1:2,0:0:0:0:
460,80,55744,1,2,1:2:0:0:
511,149,56097,2,0,L|499:227,1,75,2|10,1:2|0:0,0:0:0:0:
448,294,56803,1,10,0:0:0:0:
362,277,57156,1,2,1:2:0:0:
335,194,57509,6,0,B|273:194|273:194|250:207|250:207|187:207,1,150,2|2,1:2|1:2,0:0:0:0:
114,160,58568,1,2,1:2:0:0:
41,207,58921,2,0,P|36:246|8:272,1,75,2|10,1:2|0:0,0:0:0:0:
52,347,59627,1,10,0:0:0:0:
219,301,60333,6,0,L|300:292,1,75,2|2,1:2|1:2,0:0:0:0:
349,226,61038,2,0,L|430:217,1,75,10|10,0:0|0:0,0:0:0:0:
474,147,61744,2,0,P|479:86|406:55,1,150,10|2,0:0|1:2,0:0:0:0:
336,2,62803,1,2,1:2:0:0:
261,46,63156,6,0,L|279:196,1,150,4|0,1:2|1:2,0:0:0:0:
338,259,64215,1,0,1:2:0:0:
297,336,64568,2,0,P|229:360|171:314,1,150,2|10,1:2|0:0,0:0:0:0:
100,147,65980,6,0,B|160:165|160:165|174:186|174:186|236:205,1,150,2|2,1:2|0:3,0:0:0:0:
306,251,67038,1,2,0:3:0:0:
373,196,67391,2,0,P|385:166|370:127,2,75,2|8|8,1:2|0:0|0:0,0:0:0:0:
406,276,68450,1,2,1:2:0:0:
440,356,68803,6,0,P|510:349|528:276,1,150,2|0,1:2|1:2,0:0:0:0:
509,197,69862,1,0,1:2:0:0:
428,229,70215,2,0,L|279:214,1,150,2|10,1:2|0:0,0:0:0:0:
176,76,71627,6,0,L|250:68,1,75,10|2,0:0|0:3,0:0:0:0:
329,104,72333,2,0,P|343:137|328:172,1,75,0|0,1:2|1:2,0:0:0:0:
380,241,73038,1,2,1:2:0:0:
330,312,73391,1,8,0:0:0:0:
249,280,73744,2,0,B|214:268|214:268|176:281,1,75,8|2,0:0|1:2,0:0:0:0:
100,241,74450,6,0,P|47:250|4:214,2,112.5,6|2|2,1:2|1:2|1:2,0:0:0:0:
119,156,75862,1,2,1:2:0:0:
138,71,76215,2,0,L|213:83,1,75,10|10,0:0|0:0,0:0:0:0:
363,178,77274,6,0,P|308:177|265:213,2,112.5,2|2|2,1:2|1:2|1:2,0:0:0:0:
435,127,78686,1,2,1:2:0:0:
420,41,79038,1,10,0:0:0:0:
339,8,79391,2,0,P|302:19|267:8,1,75,10|0,0:0|1:2,0:0:0:0:
222,82,80097,6,0,B|175:82|175:82|160:74|160:74|111:74,2,112.5,2|2|2,1:2|1:2|1:2,0:0:0:0:
250,164,81509,1,2,1:2:0:0:
275,247,81862,2,0,P|245:269|234:304,1,75,10|10,0:0|0:0,0:0:0:0:
123,169,82921,6,0,L|79:109,2,75,2|10|10,1:2|0:0|0:0,0:0:0:0:
89,249,83980,1,10,0:0:0:0:
145,315,84333,2,0,P|180:305|216:314,1,75,2|10,1:2|0:0,0:0:0:0:
296,278,85038,2,0,L|375:278,1,75,2|10,1:2|0:0,0:0:0:0:
423,348,85744,6,0,P|490:322|503:248,1,150,6|2,1:2|1:2,0:0:0:0:
440,191,86803,1,2,1:2:0:0:
377,129,87156,2,0,L|430:75,2,75,2|10|10,1:2|0:0|0:0,0:0:0:0:
244,15,88568,6,0,L|219:166,1,150,2|2,1:2|1:2,0:0:0:0:
274,230,89627,1,2,1:2:0:0:
235,307,89980,2,0,P|200:318|164:307,1,75,2|8,1:2|0:0,0:0:0:0:
82,336,90686,1,10,0:0:0:0:
30,265,91038,1,0,1:2:0:0:
68,186,91391,6,0,B|128:171|128:171|153:180|153:180|216:164,1,150,2|2,1:2|1:2,0:0:0:0:
289,206,92450,1,2,1:2:0:0:
363,250,92803,2,0,P|397:187|358:124,1,150,2|10,1:2|0:0,0:0:0:0:
236,2,94215,6,0,L|213:78,1,75,10|10,0:0|0:0,0:0:0:0:
136,112,94921,2,0,L|113:188,1,75,2|10,1:2|0:0,0:0:0:0:
33,215,95627,2,0,P|63:280|136:286,1,150,10|10,0:2|0:0,0:0:0:0:
201,342,96686,1,8,0:0:0:0:
277,301,97038,6,0,L|255:149,1,150,6|0,1:2|1:2,0:0:0:0:
191,93,98097,1,0,1:2:0:0:
238,19,98450,2,0,P|311:31|370:-11,1,150,2|10,1:2|0:0,0:0:0:0:
489,116,99862,6,0,P|418:129|379:192,1,150,2|2,1:2|0:3,0:0:0:0:
294,171,100921,1,2,0:3:0:0:
209,148,101274,2,0,L|225:69,2,75,2|8|8,1:2|0:0|0:0,0:0:0:0:
192,233,102333,1,2,1:2:0:0:
174,318,102686,6,0,P|110:351|45:320,1,150,2|0,1:2|1:2,0:0:0:0:
9,239,103744,1,0,1:2:0:0:
64,172,104097,2,0,B|126:172|126:172|147:187|147:187|214:187,1,150,2|10,1:2|0:0,0:0:0:0:
330,320,105509,6,0,B|345:287|345:287|328:252,1,75,10|0,0:0|1:2,0:0:0:0:
242,267,106215,1,0,1:2:0:0:
178,207,106568,1,8,0:0:0:0:
199,122,106921,2,2,P|311:113|346:4,1,225,8|0,0:2|0:0,0:1:0:0:
434,37,108333,6,0,L|452:189,1,150,6|2,1:2|1:2,0:0:0:0:
511,249,109391,1,2,1:2:0:0:
467,324,109744,2,0,P|432:340|413:369,1,75,2|10,1:2|0:0,0:0:0:0:
334,330,110450,1,10,0:0:0:0:
258,173,111156,6,0,P|320:212|392:192,1,150,2|2,1:2|1:2,0:0:0:0:
429,115,112215,1,2,1:2:0:0:
364,56,112568,2,0,L|286:56,1,75,2|10,1:2|0:2,0:0:0:0:
210,93,113274,1,10,0:0:0:0:
131,56,113627,1,2,1:2:0:0:
52,93,113980,6,0,P|52:164|-10:200,1,150,2|2,1:2|1:2,0:0:0:0:
24,279,115038,1,2,1:2:0:0:
58,358,115391,2,0,L|-14:376,2,75,2|10|10,1:2|0:0|0:0,0:0:0:0:
185,239,116803,6,0,B|246:257|246:257|260:274|260:274|321:293,1,150,2|2,1:2|1:2,0:0:0:0:
392,344,117862,1,10,0:0:0:0:
451,280,118215,2,0,P|463:245|445:206,1,75,10|10,0:0|0:0,0:0:0:0:
500,140,118921,1,2,1:2:0:0:
433,84,119274,1,10,0:0:0:0:
366,27,119627,6,0,L|281:155,1,150,6|2,1:2|1:2,0:0:0:0:
339,218,120686,1,2,1:2:0:0:
282,284,121038,2,0,P|245:278|207:291,1,75,2|10,1:2|0:0,0:0:0:0:
136,241,121744,1,10,0:0:0:0:
2,129,122450,6,0,L|21:282,1,150,2|2,1:2|1:2,0:0:0:0:
97,318,123509,1,2,1:2:0:0:
174,358,123862,2,0,B|208:346|208:346|244:358,1,75,2|10,1:2|0:0,0:0:0:0:
284,280,124568,1,10,0:0:0:0:
369,262,124921,1,2,1:2:0:0:
450,292,125274,6,0,P|481:228|445:163,1,150,2|2,1:2|1:2,0:0:0:0:
362,188,126333,1,2,1:2:0:0:
303,123,126686,2,0,L|249:175,1,75,2|10,1:2|0:0,0:0:0:0:
162,179,127391,1,10,0:0:0:0:
111,108,127744,1,2,1:2:0:0:
141,26,128097,6,0,P|178:36|214:25,2,75,10|2|2,0:0|1:2|1:2,0:0:0:0:
28,92,129333,2,0,L|32:137,1,37.5,10|10,0:0|0:0,0:0:0:0:
3,211,129862,1,10,0:0:0:0:
61,275,130215,1,2,1:2:0:0:
137,232,130568,1,2,1:2:0:0:
256,192,130921,12,2,133744,0:0:0:0:
