osu file format v14

[General]
AudioFilename: audio.mp3
AudioLeadIn: 0
PreviewTime: 27549
Countdown: 0
SampleSet: Normal
StackLeniency: 0.7
Mode: 1
LetterboxInBreaks: 0
WidescreenStoryboard: 1

[Editor]
Bookmarks: 11350,22513,28094,39257,56001,67164,78327
DistanceSpacing: 1.5
BeatDivisor: 2
GridSize: 32
TimelineZoom: 1.35

[Metadata]
Title:Don't Ask
TitleUnicode:Don't Ask
Artist:fiend
ArtistUnicode:fiend
Creator:meiqth
Version:Oni
Source:
Tags:e featured artist electronic instrumental dont breakcore FEVER DREAM ecco2k
BeatmapID:3731994
BeatmapSetID:1818947

[Difficulty]
HPDrainRate:7
CircleSize:2
OverallDifficulty:6
ApproachRate:10
SliderMultiplier:1.4
SliderTickRate:1

[Events]
//Background and Video events
0,0,"cover.jpg",0,-40
//Break Periods
2,44839,47179
//Storyboard Layer 0 (Background)
//Storyboard Layer 1 (Fail)
//Storyboard Layer 2 (Pass)
//Storyboard Layer 3 (Foreground)
//Storyboard Layer 4 (Overlay)
//Storyboard Sound Samples

[TimingPoints]
188,348.837209302326,4,1,0,21,1,0
188,-166.666666666667,4,1,0,21,0,0
441,-153.846153846154,4,1,0,25,0,0
2455,-142.857142857143,4,1,0,31,0,0
3676,-133.333333333333,4,1,0,35,0,0
5246,-125,4,1,0,41,0,0
6467,-117.647058823529,4,1,0,45,0,0
8036,-111.111111111111,4,1,0,50,0,0
9257,-105.263157894737,4,1,0,55,0,0
11318,-100,4,1,0,60,0,0
22513,-111.111111111111,4,1,0,60,0,0
28094,-86.9565217391304,4,1,0,80,0,1
38036,-86.9565217391304,4,1,0,73,0,1
38124,-86.9565217391304,4,1,0,69,0,1
38385,-86.9565217391304,4,1,0,58,0,1
38560,-86.9565217391304,4,1,0,50,0,1
38734,-86.9565217391304,4,1,0,42,0,1
38908,-86.9565217391304,4,1,0,35,0,0
39257,-100,4,1,0,60,0,0
44839,-111.111111111111,4,1,0,60,0,0
47082,-100,4,1,0,60,0,0
55152,-102.564102564103,4,1,0,60,0,0
55387,-108.108108108108,4,1,0,60,0,0
56001,-83.3333333333333,4,1,0,80,0,1
76583,-86.71671,4,1,0,45,0,0
76756,-87.95932,4,1,0,42,0,0
76843,-88.587296,4,1,0,41,0,0
76931,-89.22703,4,1,0,39,0,0
77280,-91.81002,4,1,0,33,0,0
77628,-94.460075,4,1,0,27,0,0
77803,-95.821465,4,1,0,32,0,0
78152,-98.59535,4,1,0,37,0,0
78326,-100.00818,4,1,0,45,0,0

[HitObjects]
256,192,11350,5,8,0:0:0:0:
256,192,11525,1,0,0:0:0:0:
256,192,11699,1,8,0:0:0:0:
256,192,11874,1,0,0:0:0:0:
256,192,11961,1,8,0:0:0:0:
256,192,12048,1,0,0:0:0:0:
256,192,12222,1,8,0:0:0:0:
256,192,12397,1,0,0:0:0:0:
256,192,12571,1,8,0:0:0:0:
256,192,12658,1,8,0:0:0:0:
256,192,12746,1,0,0:0:0:0:
256,192,12920,1,0,0:0:0:0:
256,192,13094,1,8,0:0:0:0:
256,192,13269,1,0,0:0:0:0:
256,192,13356,1,8,0:0:0:0:
256,192,13531,1,0,0:0:0:0:
256,192,13618,1,8,0:0:0:0:
256,192,13792,1,0,0:0:0:0:
256,192,13967,1,0,0:0:0:0:
256,192,14054,1,0,0:0:0:0:
256,192,14141,1,8,0:0:0:0:
256,192,14490,1,8,0:0:0:0:
256,192,14664,1,0,0:0:0:0:
256,192,14751,1,0,0:0:0:0:
256,192,14839,1,8,0:0:0:0:
256,192,15013,1,0,0:0:0:0:
256,192,15188,1,8,0:0:0:0:
256,192,15362,1,8,0:0:0:0:
256,192,15449,1,8,0:0:0:0:
256,192,15536,1,0,0:0:0:0:
256,192,15711,1,0,0:0:0:0:
256,192,15885,1,8,0:0:0:0:
256,192,16060,1,8,0:0:0:0:
256,192,16147,1,0,0:0:0:0:
256,192,16321,1,0,0:0:0:0:
256,192,16408,1,8,0:0:0:0:
256,192,16583,1,0,0:0:0:0:
256,192,16757,1,0,0:0:0:0:
256,192,16844,1,0,0:0:0:0:
256,192,16932,1,8,0:0:0:0:
256,192,17281,1,8,0:0:0:0:
256,192,17455,1,0,0:0:0:0:
256,192,17542,1,0,0:0:0:0:
256,192,17629,1,0,0:0:0:0:
256,192,17717,1,0,0:0:0:0:
256,192,17804,1,8,0:0:0:0:
256,192,17978,1,0,0:0:0:0:
256,192,18153,1,8,0:0:0:0:
256,192,18240,1,8,0:0:0:0:
256,192,18327,1,0,0:0:0:0:
256,192,18501,1,0,0:0:0:0:
256,192,18676,1,8,0:0:0:0:
256,192,18850,1,0,0:0:0:0:
256,192,18938,1,8,0:0:0:0:
256,192,19112,1,8,0:0:0:0:
256,192,19199,1,0,0:0:0:0:
256,192,19374,1,8,0:0:0:0:
256,192,19548,1,0,0:0:0:0:
256,192,19635,1,0,0:0:0:0:
256,192,19722,1,8,0:0:0:0:
256,192,20071,1,8,0:0:0:0:
256,192,20246,1,0,0:0:0:0:
256,192,20333,1,0,0:0:0:0:
256,192,20420,1,8,0:0:0:0:
256,192,20507,1,8,0:0:0:0:
256,192,20594,1,0,0:0:0:0:
256,192,20769,1,8,0:0:0:0:
256,192,20943,1,0,0:0:0:0:
256,192,21031,1,0,0:0:0:0:
256,192,21118,1,8,0:0:0:0:
256,192,21292,1,0,0:0:0:0:
256,192,21467,1,8,0:0:0:0:
256,192,21641,1,0,0:0:0:0:
256,192,21728,1,8,0:0:0:0:
256,192,21903,1,8,0:0:0:0:
256,192,21990,1,0,0:0:0:0:
256,192,22164,1,8,0:0:0:0:
256,192,22513,1,0,0:0:0:0:
256,192,22688,1,0,0:0:0:0:
256,192,22862,1,8,0:0:0:0:
256,192,23036,1,8,0:0:0:0:
256,192,23124,1,8,0:0:0:0:
256,192,23211,1,0,0:0:0:0:
256,192,23385,1,8,0:0:0:0:
256,192,23560,1,0,0:0:0:0:
256,192,23647,1,0,0:0:0:0:
256,192,23734,1,8,0:0:0:0:
256,192,23908,1,0,0:0:0:0:
256,192,24083,1,8,0:0:0:0:
256,192,24257,1,8,0:0:0:0:
256,192,24432,1,0,0:0:0:0:
256,192,24519,1,0,0:0:0:0:
256,192,24606,1,0,0:0:0:0:
256,192,24781,1,8,0:0:0:0:
256,192,24955,1,0,0:0:0:0:
256,192,25304,1,8,0:0:0:0:
256,192,25478,1,8,0:0:0:0:
256,192,25653,1,0,0:0:0:0:
256,192,25827,1,8,0:0:0:0:
256,192,26001,1,0,0:0:0:0:
256,192,26089,1,0,0:0:0:0:
256,192,26176,1,8,0:0:0:0:
256,192,26350,1,0,0:0:0:0:
256,192,26525,1,8,0:0:0:0:
256,192,26612,1,8,0:0:0:0:
256,192,26699,1,0,0:0:0:0:
256,192,26874,1,0,0:0:0:0:
256,192,27048,1,8,0:0:0:0:
256,192,27222,1,8,0:0:0:0:
256,192,27397,1,0,0:0:0:0:
256,192,27484,1,0,0:0:0:0:
256,192,27571,1,8,0:0:0:0:
256,192,27746,1,0,0:0:0:0:
256,192,28094,1,8,0:0:0:0:
256,192,28269,1,8,0:0:0:0:
256,192,28443,1,0,0:0:0:0:
256,192,28531,1,8,0:0:0:0:
256,192,28705,1,8,0:0:0:0:
256,192,28792,1,0,0:0:0:0:
256,192,28967,1,8,0:0:0:0:
256,192,29054,1,0,0:0:0:0:
256,192,29141,1,8,0:0:0:0:
256,192,29315,1,8,0:0:0:0:
256,192,29490,1,0,0:0:0:0:
256,192,29577,1,0,0:0:0:0:
256,192,29664,1,0,0:0:0:0:
256,192,29839,1,8,0:0:0:0:
256,192,30188,1,8,0:0:0:0:
256,192,30362,1,0,0:0:0:0:
256,192,30449,1,8,0:0:0:0:
256,192,30624,1,8,0:0:0:0:
256,192,30711,1,0,0:0:0:0:
256,192,30885,1,8,0:0:0:0:
256,192,31060,1,0,0:0:0:0:
256,192,31234,1,8,0:0:0:0:
256,192,31321,1,0,0:0:0:0:
256,192,31496,1,8,0:0:0:0:
256,192,31583,1,0,0:0:0:0:
256,192,31757,1,0,0:0:0:0:
256,192,31932,1,8,0:0:0:0:
256,192,32281,1,8,0:0:0:0:
256,192,32455,1,0,0:0:0:0:
256,192,32542,1,0,0:0:0:0:
256,192,32629,1,8,0:0:0:0:
256,192,32804,1,8,0:0:0:0:
256,192,32978,1,0,0:0:0:0:
256,192,33153,1,8,0:0:0:0:
256,192,33240,1,8,0:0:0:0:
256,192,33327,1,0,0:0:0:0:
256,192,33501,1,0,0:0:0:0:
256,192,33676,1,8,0:0:0:0:
256,192,34025,1,8,0:0:0:0:
256,192,34112,1,0,0:0:0:0:
256,192,34286,1,0,0:0:0:0:
256,192,34374,1,8,0:0:0:0:
256,192,34548,1,8,0:0:0:0:
256,192,34635,1,8,0:0:0:0:
256,192,34722,1,0,0:0:0:0:
256,192,34897,1,8,0:0:0:0:
256,192,35071,1,0,0:0:0:0:
256,192,35158,1,0,0:0:0:0:
256,192,35246,1,0,0:0:0:0:
256,192,35420,1,8,0:0:0:0:
256,192,35594,1,8,0:0:0:0:
256,192,35769,1,0,0:0:0:0:
256,192,36118,1,0,0:0:0:0:
256,192,36292,1,0,0:0:0:0:
256,192,36379,1,0,0:0:0:0:
256,192,36467,1,8,0:0:0:0:
256,192,36641,1,0,0:0:0:0:
256,192,36815,1,8,0:0:0:0:
256,192,36903,1,8,0:0:0:0:
256,192,36990,1,0,0:0:0:0:
256,192,37164,1,8,0:0:0:0:
256,192,37339,1,0,0:0:0:0:
256,192,37513,1,8,0:0:0:0:
256,192,37862,1,8,0:0:0:0:
256,192,38036,1,0,0:0:0:0:
256,192,38124,1,0,0:0:0:0:
256,192,38211,1,8,0:0:0:0:
256,192,38385,1,8,0:0:0:0:
256,192,38560,1,0,0:0:0:0:
256,192,38734,1,8,0:0:0:0:
256,192,38908,1,0,0:0:0:0:
256,192,39257,1,8,0:0:0:0:
256,192,39432,1,8,0:0:0:0:
256,192,39606,1,0,0:0:0:0:
256,192,39781,1,8,0:0:0:0:
256,192,39868,1,8,0:0:0:0:
256,192,39955,1,8,0:0:0:0:
256,192,40042,1,8,0:0:0:0:
256,192,40129,1,0,0:0:0:0:
256,192,40304,1,8,0:0:0:0:
256,192,40478,1,0,0:0:0:0:
256,192,40565,1,0,0:0:0:0:
256,192,40653,1,8,0:0:0:0:
256,192,40827,1,0,0:0:0:0:
256,192,41001,1,8,0:0:0:0:
256,192,41176,1,0,0:0:0:0:
256,192,41263,1,8,0:0:0:0:
256,192,41438,1,8,0:0:0:0:
256,192,41525,1,0,0:0:0:0:
256,192,41699,1,8,0:0:0:0:
256,192,41874,1,0,0:0:0:0:
256,192,41961,1,0,0:0:0:0:
256,192,42048,1,8,0:0:0:0:
256,192,42397,1,0,0:0:0:0:
256,192,42571,1,8,0:0:0:0:
256,192,42658,1,8,0:0:0:0:
256,192,42746,1,0,0:0:0:0:
256,192,42833,1,0,0:0:0:0:
256,192,42920,1,8,0:0:0:0:
256,192,43094,1,0,0:0:0:0:
256,192,43269,1,8,0:0:0:0:
256,192,43356,1,8,0:0:0:0:
256,192,43443,1,0,0:0:0:0:
256,192,43618,1,0,0:0:0:0:
256,192,43792,1,8,0:0:0:0:
256,192,43967,1,0,0:0:0:0:
256,192,44054,1,8,0:0:0:0:
256,192,44228,1,8,0:0:0:0:
256,192,44315,1,0,0:0:0:0:
256,192,44490,1,8,0:0:0:0:
256,192,47629,5,0,0:0:0:0:
256,192,47978,1,0,0:0:0:0:
256,192,48327,1,0,0:0:0:0:
256,192,48501,1,8,0:0:0:0:
256,192,48676,1,0,0:0:0:0:
256,192,48850,1,0,0:0:0:0:
256,192,49025,1,8,0:0:0:0:
256,192,49199,1,8,0:0:0:0:
256,192,49374,1,0,0:0:0:0:
256,192,49722,1,0,0:0:0:0:
256,192,49897,1,8,0:0:0:0:
256,192,50246,1,8,0:0:0:0:
256,192,50420,1,0,0:0:0:0:
256,192,50769,1,8,0:0:0:0:
256,192,51118,1,0,0:0:0:0:
256,192,51292,1,8,0:0:0:0:
256,192,51467,1,0,0:0:0:0:
256,192,51641,1,0,0:0:0:0:
256,192,51815,1,8,0:0:0:0:
256,192,51990,1,8,0:0:0:0:
256,192,52164,1,0,0:0:0:0:
256,192,52513,1,0,0:0:0:0:
256,192,52688,1,8,0:0:0:0:
256,192,52862,1,0,0:0:0:0:
256,192,53036,1,8,0:0:0:0:
256,192,53211,1,0,0:0:0:0:
256,192,53560,1,8,0:0:0:0:
256,192,53908,1,0,0:0:0:0:
256,192,54083,1,0,0:0:0:0:
256,192,54257,1,8,0:0:0:0:
256,192,54432,1,0,0:0:0:0:
256,192,54606,1,8,0:0:0:0:
256,192,54781,1,8,0:0:0:0:
256,192,54955,1,0,0:0:0:0:
256,192,55304,1,0,0:0:0:0:
256,192,55653,1,0,0:0:0:0:
256,192,56001,1,8,0:0:0:0:
256,192,56176,1,8,0:0:0:0:
256,192,56350,1,0,0:0:0:0:
256,192,56438,1,8,0:0:0:0:
256,192,56612,1,8,0:0:0:0:
256,192,56699,1,0,0:0:0:0:
256,192,56874,1,0,0:0:0:0:
256,192,56961,1,0,0:0:0:0:
256,192,57048,1,8,0:0:0:0:
256,192,57222,1,0,0:0:0:0:
256,192,57397,1,8,0:0:0:0:
256,192,57571,1,8,0:0:0:0:
256,192,57746,1,0,0:0:0:0:
256,192,57920,1,8,0:0:0:0:
256,192,58007,1,8,0:0:0:0:
256,192,58094,1,0,0:0:0:0:
256,192,58182,1,0,0:0:0:0:
256,192,58269,1,8,0:0:0:0:
256,192,58443,1,8,0:0:0:0:
256,192,58618,1,0,0:0:0:0:
256,192,58792,1,8,0:0:0:0:
256,192,58879,1,0,0:0:0:0:
256,192,58967,1,0,0:0:0:0:
256,192,59141,1,8,0:0:0:0:
256,192,59315,1,0,0:0:0:0:
256,192,59403,1,8,0:0:0:0:
256,192,59577,1,8,0:0:0:0:
256,192,59664,1,0,0:0:0:0:
256,192,59839,1,8,0:0:0:0:
256,192,60013,1,8,0:0:0:0:
256,192,60188,1,0,0:0:0:0:
256,192,60362,1,0,0:0:0:0:
256,192,60536,1,8,0:0:0:0:
256,192,60711,1,8,0:0:0:0:
256,192,60798,1,8,0:0:0:0:
256,192,60885,1,0,0:0:0:0:
256,192,61060,1,8,0:0:0:0:
256,192,61234,1,0,0:0:0:0:
256,192,61583,1,8,0:0:0:0:
256,192,61757,1,8,0:0:0:0:
256,192,61844,1,8,0:0:0:0:
256,192,61932,1,0,0:0:0:0:
256,192,62019,1,8,0:0:0:0:
256,192,62193,1,8,0:0:0:0:
256,192,62281,1,0,0:0:0:0:
256,192,62455,1,0,0:0:0:0:
256,192,62542,1,0,0:0:0:0:
256,192,62629,1,8,0:0:0:0:
256,192,62804,1,0,0:0:0:0:
256,192,62978,1,8,0:0:0:0:
256,192,63065,1,8,0:0:0:0:
256,192,63153,1,8,0:0:0:0:
256,192,63327,1,0,0:0:0:0:
256,192,63501,1,8,0:0:0:0:
256,192,63589,1,8,0:0:0:0:
256,192,63676,1,0,0:0:0:0:
256,192,63763,1,0,0:0:0:0:
256,192,63850,1,8,0:0:0:0:
256,192,64025,1,8,0:0:0:0:
256,192,64199,1,0,0:0:0:0:
256,192,64374,1,8,0:0:0:0:
256,192,64461,1,0,0:0:0:0:
256,192,64548,1,8,0:0:0:0:
256,192,64722,1,8,0:0:0:0:
256,192,64897,1,0,0:0:0:0:
256,192,64984,1,8,0:0:0:0:
256,192,65158,1,8,0:0:0:0:
256,192,65246,1,0,0:0:0:0:
256,192,65420,1,8,0:0:0:0:
256,192,65594,1,8,0:0:0:0:
256,192,65769,1,0,0:0:0:0:
256,192,65943,1,0,0:0:0:0:
256,192,66118,1,8,0:0:0:0:
256,192,66292,1,8,0:0:0:0:
256,192,66379,1,8,0:0:0:0:
256,192,66467,1,0,0:0:0:0:
256,192,66641,1,8,0:0:0:0:
256,192,66815,5,0,0:0:0:0:
256,192,67164,5,12,0:0:0:0:
256,192,67513,1,12,0:0:0:0:
256,192,67862,1,12,0:0:0:0:
256,192,68211,1,0,0:0:0:0:
256,192,68385,1,0,0:0:0:0:
256,192,68472,1,0,0:0:0:0:
256,192,68560,1,8,0:0:0:0:
256,192,68734,1,0,0:0:0:0:
256,192,68908,1,8,0:0:0:0:
256,192,69083,1,8,0:0:0:0:
256,192,69257,1,0,0:0:0:0:
256,192,69606,1,8,0:0:0:0:
256,192,69781,1,8,0:0:0:0:
256,192,69955,1,4,0:0:0:0:
256,192,70304,1,4,0:0:0:0:
256,192,70653,1,4,0:0:0:0:
256,192,71001,1,8,0:0:0:0:
256,192,71176,1,0,0:0:0:0:
256,192,71263,1,0,0:0:0:0:
256,192,71350,1,8,0:0:0:0:
256,192,71699,1,0,0:0:0:0:
256,192,71874,1,8,0:0:0:0:
256,192,72222,1,8,0:0:0:0:
256,192,72397,1,0,0:0:0:0:
256,192,72571,1,0,0:0:0:0:
256,192,72746,1,12,0:0:0:0:
256,192,73094,1,12,0:0:0:0:
256,192,73443,1,12,0:0:0:0:
256,192,73792,1,0,0:0:0:0:
256,192,73967,1,0,0:0:0:0:
256,192,74054,1,0,0:0:0:0:
256,192,74141,1,8,0:0:0:0:
256,192,74315,1,0,0:0:0:0:
256,192,74490,1,8,0:0:0:0:
256,192,74664,1,8,0:0:0:0:
256,192,74839,1,0,0:0:0:0:
256,192,75188,1,8,0:0:0:0:
256,192,75362,1,8,0:0:0:0:
256,192,75536,1,4,0:0:0:0:
256,192,75885,1,4,0:0:0:0:
256,192,76234,1,4,0:0:0:0:
256,192,76583,1,8,0:0:0:0:
256,192,76757,1,0,0:0:0:0:
256,192,76844,1,0,0:0:0:0:
256,192,76932,1,8,0:0:0:0:
256,192,77281,1,0,0:0:0:0:
256,192,77629,1,0,0:0:0:0:
256,192,77804,1,8,0:0:0:0:
256,192,78153,1,8,0:0:0:0:
256,192,78327,1,0,0:0:0:0:
