osu file format v14

[General]
AudioFilename: audio.mp3
AudioLeadIn: 0
PreviewTime: 27549
Countdown: 0
SampleSet: Normal
StackLeniency: 0.7
Mode: 1
LetterboxInBreaks: 0
WidescreenStoryboard: 1

[Editor]
Bookmarks: 11350,22513,28094,39257,56001,67164,78327
DistanceSpacing: 1.5
BeatDivisor: 2
GridSize: 32
TimelineZoom: 0.8499999

[Metadata]
Title:Don't Ask
TitleUnicode:Don't Ask
Artist:fiend
ArtistUnicode:fiend
Creator:meiqth
Version:Kantan
Source:
Tags:e featured artist electronic instrumental dont breakcore FEVER DREAM ecco2k
BeatmapID:3731992
BeatmapSetID:1818947

[Difficulty]
HPDrainRate:10
CircleSize:2
OverallDifficulty:3
ApproachRate:10
SliderMultiplier:1.4
SliderTickRate:1

[Events]
//Background and Video events
0,0,"cover.jpg",0,-40
//Break Periods
2,44839,47179
//Storyboard Layer 0 (Background)
//Storyboard Layer 1 (Fail)
//Storyboard Layer 2 (Pass)
//Storyboard Layer 3 (Foreground)
//Storyboard Layer 4 (Overlay)
//Storyboard Sound Samples

[TimingPoints]
188,348.837209302326,4,1,0,21,1,0
188,-166.666666666667,4,1,0,21,0,0
441,-153.846153846154,4,1,0,25,0,0
2455,-142.857142857143,4,1,0,31,0,0
3676,-133.333333333333,4,1,0,35,0,0
5246,-125,4,1,0,41,0,0
6467,-117.647058823529,4,1,0,45,0,0
8036,-111.111111111111,4,1,0,50,0,0
9257,-105.263157894737,4,1,0,55,0,0
11318,-100,4,1,0,60,0,0
28094,-100,4,1,0,81,0,1
38908,-100,4,1,0,60,0,0
44839,-111.111111111111,4,1,0,60,0,0
47082,-100,4,1,0,60,0,0
56001,-100,4,1,0,81,0,1
76583,-100,4,1,0,81,0,0
76931,-100,4,1,0,39,0,0
78321,-99.9000999000999,4,1,0,45,0,0

[HitObjects]
256,192,11350,5,8,0:0:0:0:
256,192,11699,1,8,0:0:0:0:
256,192,12048,1,0,0:0:0:0:
256,192,12746,1,0,0:0:0:0:
256,192,13094,1,8,0:0:0:0:
256,192,13792,1,8,0:0:0:0:
256,192,14141,1,0,0:0:0:0:
256,192,14490,1,0,0:0:0:0:
256,192,14839,1,8,0:0:0:0:
256,192,15536,1,0,0:0:0:0:
256,192,16932,1,0,0:0:0:0:
256,192,17281,1,8,0:0:0:0:
256,192,17629,1,0,0:0:0:0:
256,192,18327,1,8,0:0:0:0:
256,192,18676,1,0,0:0:0:0:
256,192,19374,1,0,0:0:0:0:
256,192,19722,1,8,0:0:0:0:
256,192,20071,1,0,0:0:0:0:
256,192,20420,1,8,0:0:0:0:
256,192,21118,1,0,0:0:0:0:
256,192,22513,1,8,0:0:0:0:
256,192,23211,1,0,0:0:0:0:
256,192,23560,1,0,0:0:0:0:
256,192,23908,1,8,0:0:0:0:
256,192,24606,1,0,0:0:0:0:
256,192,25304,1,8,0:0:0:0:
256,192,25653,1,8,0:0:0:0:
256,192,26001,1,0,0:0:0:0:
256,192,26699,1,8,0:0:0:0:
256,192,28094,1,0,0:0:0:0:
256,192,28443,1,0,0:0:0:0:
256,192,28792,1,8,0:0:0:0:
256,192,29141,1,8,0:0:0:0:
256,192,29490,1,0,0:0:0:0:
256,192,30188,1,8,0:0:0:0:
256,192,30885,1,0,0:0:0:0:
256,192,31234,1,0,0:0:0:0:
256,192,31583,1,8,0:0:0:0:
256,192,32281,1,0,0:0:0:0:
256,192,33676,1,8,0:0:0:0:
256,192,34025,1,0,0:0:0:0:
256,192,34374,1,8,0:0:0:0:
256,192,34722,1,8,0:0:0:0:
256,192,35071,1,0,0:0:0:0:
256,192,35769,1,8,0:0:0:0:
256,192,36467,1,0,0:0:0:0:
256,192,36815,1,0,0:0:0:0:
256,192,37164,1,0,0:0:0:0:
256,192,37862,1,8,0:0:0:0:
256,192,39257,1,8,0:0:0:0:
256,192,39606,1,8,0:0:0:0:
256,192,39955,1,0,0:0:0:0:
256,192,40653,1,0,0:0:0:0:
256,192,41001,1,8,0:0:0:0:
256,192,41699,1,8,0:0:0:0:
256,192,42048,1,0,0:0:0:0:
256,192,42397,1,0,0:0:0:0:
256,192,42746,1,8,0:0:0:0:
256,192,43443,1,0,0:0:0:0:
256,192,44141,1,8,0:0:0:0:
256,192,47629,5,0,0:0:0:0:
256,192,48327,1,8,0:0:0:0:
256,192,49025,1,0,0:0:0:0:
256,192,50420,1,8,0:0:0:0:
256,192,51118,1,8,0:0:0:0:
256,192,51815,1,0,0:0:0:0:
256,192,52164,1,8,0:0:0:0:
256,192,52862,1,8,0:0:0:0:
256,192,53211,1,0,0:0:0:0:
256,192,53908,1,8,0:0:0:0:
256,192,54257,1,8,0:0:0:0:
256,192,54606,1,0,0:0:0:0:
256,192,56001,1,8,0:0:0:0:
256,192,56350,1,8,0:0:0:0:
256,192,56699,1,0,0:0:0:0:
256,192,57048,1,8,0:0:0:0:
256,192,57397,1,0,0:0:0:0:
256,192,58094,1,8,0:0:0:0:
256,192,58792,1,0,0:0:0:0:
256,192,59141,1,8,0:0:0:0:
256,192,59490,1,0,0:0:0:0:
256,192,59839,1,0,0:0:0:0:
256,192,60188,1,8,0:0:0:0:
256,192,61583,1,8,0:0:0:0:
256,192,61932,1,0,0:0:0:0:
256,192,62281,1,8,0:0:0:0:
256,192,62978,1,0,0:0:0:0:
256,192,63327,1,0,0:0:0:0:
256,192,63676,1,8,0:0:0:0:
256,192,64374,1,8,0:0:0:0:
256,192,64722,1,8,0:0:0:0:
256,192,65071,1,0,0:0:0:0:
256,192,65420,1,8,0:0:0:0:
256,192,65769,1,0,0:0:0:0:
256,192,67164,1,4,0:0:0:0:
256,192,67862,1,4,0:0:0:0:
256,192,68560,1,8,0:0:0:0:
256,192,68908,1,0,0:0:0:0:
256,192,69257,1,8,0:0:0:0:
256,192,69955,1,12,0:0:0:0:
256,192,70653,1,12,0:0:0:0:
256,192,71350,1,0,0:0:0:0:
256,192,71699,1,0,0:0:0:0:
256,192,72048,1,8,0:0:0:0:
256,192,72746,1,4,0:0:0:0:
256,192,73443,1,4,0:0:0:0:
256,192,74141,1,0,0:0:0:0:
256,192,74490,1,8,0:0:0:0:
256,192,74839,1,0,0:0:0:0:
256,192,75536,1,12,0:0:0:0:
256,192,76234,1,0,0:0:0:0:
256,192,76932,1,8,0:0:0:0:
256,192,78327,1,0,0:0:0:0:
