osu file format v14

[General]
AudioFilename: audio.mp3
AudioLeadIn: 0
PreviewTime: 96103
Countdown: 0
SampleSet: Normal
StackLeniency: 0.7
Mode: 1
LetterboxInBreaks: 0
WidescreenStoryboard: 1

[Editor]
Bookmarks: 5751,11398,96103
DistanceSpacing: 1.5
BeatDivisor: 4
GridSize: 32
TimelineZoom: 2

[Metadata]
Title:Disconnect
TitleUnicode:Disconnect
Artist:fiend
ArtistUnicode:fiend
Creator:HEAVENLY MOON
Version:kantan
Source:
Tags:kitty featured artist fa english breakcore electronic fever dream mappers' guild mpg mg ginjani naotoshi nao tomori
BeatmapID:3732166
BeatmapSetID:1818924

[Difficulty]
HPDrainRate:8
CircleSize:5
OverallDifficulty:2.5
ApproachRate:5
SliderMultiplier:1.4
SliderTickRate:1

[Events]
//Background and Video events
0,0,"FIENDCOVER.jpg",0,0
//Break Periods
//Storyboard Layer 0 (Background)
//Storyboard Layer 1 (Fail)
//Storyboard Layer 2 (Pass)
//Storyboard Layer 3 (Foreground)
//Storyboard Layer 4 (Overlay)
//Storyboard Sound Samples

[TimingPoints]
104,352.941176470588,4,1,0,40,1,8
104,-105.263157894737,4,1,0,40,0,0
192,-105.263157894737,4,1,0,40,0,0
2927,-100,4,1,0,70,0,0
5751,-105.263157894737,4,1,0,40,0,0
8574,-100,4,1,0,70,0,0
11398,-105.263157894737,4,1,0,40,0,0
14221,-100,4,1,0,70,0,0
17398,-105.263157894737,4,1,0,40,0,0
19868,-100,4,1,0,70,0,0
22692,-105.263157894737,4,1,0,40,0,0
25515,-100,4,1,0,70,0,0
28339,-111.111111111111,4,1,0,50,0,0
31162,-111.111111111111,4,1,0,55,0,0
33986,-105.263157894737,4,1,0,60,0,0
51633,-111.111111111111,4,1,0,60,0,0
72809,-109.89010989011,4,1,0,60,0,0
72986,-108.695652173913,4,1,0,60,0,0
73162,-107.52688172043,4,1,0,60,0,0
73339,-106.382978723404,4,1,0,60,0,0
73515,-105.263157894737,4,1,0,60,0,0
94339,-106.382978723404,4,1,0,60,0,0
95045,-107.52688172043,4,1,0,60,0,0
95398,-108.695652173913,4,1,0,60,0,0
95751,-109.89010989011,4,1,0,60,0,0
96103,-111.111111111111,4,1,0,60,0,0
98927,-108.108108108108,4,1,0,60,0,0
118956,-111.111111111111,4,1,0,70,0,0
139515,-112.359550561798,4,1,0,70,0,0
139956,-113.636363636364,4,1,0,70,0,0
140574,-114.942528735632,4,1,0,70,0,0
140751,-116.279069767442,4,1,0,70,0,0
140927,-117.647058823529,4,1,0,70,0,0

[HitObjects]
256,200,192,5,0,0:0:0:0:
256,200,456,1,2,0:0:0:0:
256,192,986,1,2,0:0:0:0:
256,192,1515,1,0,0:0:0:0:
256,192,1868,1,2,0:0:0:0:
256,192,2221,1,0,0:0:0:0:
256,192,2927,1,2,0:0:0:0:
256,192,3280,1,2,0:0:0:0:
256,192,3809,1,0,0:0:0:0:
256,192,4339,1,0,0:0:0:0:
256,192,4692,1,2,0:0:0:0:
256,192,5045,1,0,0:0:0:0:
256,192,5398,1,2,0:0:0:0:
256,192,5751,1,0,0:0:0:0:
256,192,6809,1,2,0:0:0:0:
256,192,7162,1,0,0:0:0:0:
256,192,7515,1,0,0:0:0:0:
256,192,8221,1,2,0:0:0:0:
256,192,8574,1,0,0:0:0:0:
256,192,8927,1,2,0:0:0:0:
256,192,9456,1,2,0:0:0:0:
256,192,9986,1,0,0:0:0:0:
256,192,10339,1,2,0:0:0:0:
256,192,10692,1,2,0:0:0:0:
256,192,11045,1,2,0:0:0:0:
256,192,11398,1,0,0:0:0:0:
256,192,12456,1,0,0:0:0:0:
256,192,12809,1,2,0:0:0:0:
256,192,13162,1,2,0:0:0:0:
256,192,13868,1,2,0:0:0:0:
256,192,14221,1,0,0:0:0:0:
256,192,14574,1,0,0:0:0:0:
256,192,15103,1,2,0:0:0:0:
256,192,15633,1,0,0:0:0:0:
256,192,15986,1,0,0:0:0:0:
256,192,16339,1,2,0:0:0:0:
256,192,16692,1,2,0:0:0:0:
256,192,17045,1,0,0:0:0:0:
256,192,18103,1,0,0:0:0:0:
256,192,18456,1,0,0:0:0:0:
256,192,18809,1,2,0:0:0:0:
256,192,19515,1,2,0:0:0:0:
256,192,19868,1,0,0:0:0:0:
256,192,20221,1,2,0:0:0:0:
256,192,20751,1,2,0:0:0:0:
256,192,21280,1,0,0:0:0:0:
256,192,21633,1,2,0:0:0:0:
256,192,21986,1,0,0:0:0:0:
256,192,22339,1,2,0:0:0:0:
256,192,22692,1,0,0:0:0:0:
256,192,23398,1,2,0:0:0:0:
256,192,24103,1,2,0:0:0:0:
256,192,24456,1,0,0:0:0:0:
256,192,24809,1,2,0:0:0:0:
256,192,25515,1,0,0:0:0:0:
256,192,25868,1,0,0:0:0:0:
256,192,26398,1,2,0:0:0:0:
256,192,26927,1,0,0:0:0:0:
256,192,27280,1,2,0:0:0:0:
256,192,27633,1,2,0:0:0:0:
256,192,27986,1,2,0:0:0:0:
256,192,28339,1,2,0:0:0:0:
256,192,29398,1,0,0:0:0:0:
256,192,29751,1,2,0:0:0:0:
256,192,30456,1,2,0:0:0:0:
256,192,30809,1,2,0:0:0:0:
256,192,31162,1,0,0:0:0:0:
256,192,32045,1,2,0:0:0:0:
256,192,32574,1,2,0:0:0:0:
256,192,33456,1,2,0:0:0:0:
256,192,33986,1,2,0:0:0:0:
256,192,34692,1,2,0:0:0:0:
256,192,35045,1,0,0:0:0:0:
256,192,35398,1,2,0:0:0:0:
256,192,36103,1,0,0:0:0:0:
256,192,36456,1,2,0:0:0:0:
256,192,36809,1,0,0:0:0:0:
256,192,37339,1,2,0:0:0:0:
256,192,37868,1,2,0:0:0:0:
256,192,38221,1,0,0:0:0:0:
256,192,38751,1,0,0:0:0:0:
256,192,39280,1,2,0:0:0:0:
256,192,39633,1,2,0:0:0:0:
256,192,40692,1,0,0:0:0:0:
256,192,41045,1,2,0:0:0:0:
256,192,41751,1,2,0:0:0:0:
256,192,42103,1,2,0:0:0:0:
256,192,42456,1,0,0:0:0:0:
256,192,42986,1,2,0:0:0:0:
256,192,43515,1,2,0:0:0:0:
256,192,43868,1,0,0:0:0:0:
256,192,44574,1,2,0:0:0:0:
256,192,44927,1,0,0:0:0:0:
256,192,45280,1,2,0:0:0:0:
256,192,46339,1,0,0:0:0:0:
256,192,46691,1,2,0:0:0:0:
256,192,47398,1,0,0:0:0:0:
256,192,47751,1,2,0:0:0:0:
256,192,48103,1,0,0:0:0:0:
256,192,48633,1,2,0:0:0:0:
256,192,49162,1,0,0:0:0:0:
256,192,49515,1,0,0:0:0:0:
256,192,49868,1,2,0:0:0:0:
256,192,50221,1,0,0:0:0:0:
256,192,50574,1,2,0:0:0:0:
256,192,50927,1,0,0:0:0:0:
256,192,51986,1,2,0:0:0:0:
256,192,52339,1,0,0:0:0:0:
256,192,53045,1,0,0:0:0:0:
256,192,53398,1,2,0:0:0:0:
256,192,53751,1,0,0:0:0:0:
256,192,54280,1,0,0:0:0:0:
256,192,54633,1,2,0:0:0:0:
256,192,55162,1,0,0:0:0:0:
256,192,55515,1,2,0:0:0:0:
256,192,55868,1,2,0:0:0:0:
256,192,56574,1,0,0:0:0:0:
256,192,57633,1,2,0:0:0:0:
256,192,57986,1,0,0:0:0:0:
256,192,58692,1,0,0:0:0:0:
256,192,59045,1,2,0:0:0:0:
256,192,59398,1,0,0:0:0:0:
256,192,59927,1,0,0:0:0:0:
256,192,60280,1,0,0:0:0:0:
256,192,60809,1,2,0:0:0:0:
256,192,61162,1,0,0:0:0:0:
256,192,61515,1,2,0:0:0:0:
256,192,62221,1,0,0:0:0:0:
256,192,63280,1,2,0:0:0:0:
256,192,63633,1,2,0:0:0:0:
256,192,64339,1,2,0:0:0:0:
256,192,64692,1,2,0:0:0:0:
256,192,65045,1,0,0:0:0:0:
256,192,65574,1,0,0:0:0:0:
256,192,65927,1,2,0:0:0:0:
256,192,66456,1,0,0:0:0:0:
256,192,66809,1,2,0:0:0:0:
256,192,67162,1,0,0:0:0:0:
256,192,67868,1,0,0:0:0:0:
256,192,68927,1,0,0:0:0:0:
256,192,69280,1,0,0:0:0:0:
256,192,69986,1,0,0:0:0:0:
256,192,70339,1,2,0:0:0:0:
256,192,70692,1,0,0:0:0:0:
256,192,71221,1,2,0:0:0:0:
256,192,71574,1,0,0:0:0:0:
256,192,72456,1,2,0:0:0:0:
256,192,72809,1,2,0:0:0:0:
256,192,73162,1,2,0:0:0:0:
256,192,73515,1,0,0:0:0:0:
256,192,74221,1,2,0:0:0:0:
256,192,74927,1,2,0:0:0:0:
256,192,75633,1,2,0:0:0:0:
256,192,75986,1,0,0:0:0:0:
256,192,76339,1,2,0:0:0:0:
256,192,77398,1,2,0:0:0:0:
256,192,77751,1,2,0:0:0:0:
256,192,78456,1,0,0:0:0:0:
256,192,79162,1,0,0:0:0:0:
256,192,79515,1,2,0:0:0:0:
256,192,79868,1,2,0:0:0:0:
256,192,80574,1,0,0:0:0:0:
256,192,81280,1,2,0:0:0:0:
256,192,81633,1,0,0:0:0:0:
256,192,81986,1,2,0:0:0:0:
256,192,83045,1,2,0:0:0:0:
256,192,83398,1,0,0:0:0:0:
256,192,84103,1,2,0:0:0:0:
256,192,84456,1,2,0:0:0:0:
256,192,84809,1,0,0:0:0:0:
256,192,85515,1,2,0:0:0:0:
256,192,86221,1,2,0:0:0:0:
256,192,86927,1,2,0:0:0:0:
256,192,87280,1,0,0:0:0:0:
256,192,87633,1,2,0:0:0:0:
256,192,88692,1,2,0:0:0:0:
256,192,89045,1,0,0:0:0:0:
256,192,89751,1,2,0:0:0:0:
256,192,90103,1,0,0:0:0:0:
256,192,90456,1,0,0:0:0:0:
256,192,91162,1,2,0:0:0:0:
256,192,91515,1,0,0:0:0:0:
256,192,91868,1,2,0:0:0:0:
256,192,92574,1,2,0:0:0:0:
256,192,93280,1,0,0:0:0:0:
256,192,93809,1,2,0:0:0:0:
256,192,94339,1,0,0:0:0:0:
256,192,95045,1,2,0:0:0:0:
256,192,95398,1,2,0:0:0:0:
256,192,96103,1,2,0:0:0:0:
256,192,97162,1,0,0:0:0:0:
256,192,97515,1,2,0:0:0:0:
256,192,98221,1,2,0:0:0:0:
256,192,98574,1,0,0:0:0:0:
256,192,98928,1,2,0:0:0:0:
256,192,99809,1,2,0:0:0:0:
256,192,100339,1,2,0:0:0:0:
256,192,101221,1,2,0:0:0:0:
256,192,101751,1,2,0:0:0:0:
256,192,102456,1,0,0:0:0:0:
256,192,102809,1,0,0:0:0:0:
256,192,103162,1,2,0:0:0:0:
256,192,103868,1,2,0:0:0:0:
256,192,104221,1,2,0:0:0:0:
256,192,104574,1,0,0:0:0:0:
256,192,105103,1,2,0:0:0:0:
256,192,105633,1,2,0:0:0:0:
256,192,105986,1,0,0:0:0:0:
256,192,106515,1,2,0:0:0:0:
256,192,107045,1,0,0:0:0:0:
256,192,107398,1,2,0:0:0:0:
256,192,108456,1,0,0:0:0:0:
256,192,108809,1,2,0:0:0:0:
256,192,109515,1,0,0:0:0:0:
256,192,109868,1,0,0:0:0:0:
256,192,110221,1,2,0:0:0:0:
256,192,110927,1,0,0:0:0:0:
256,192,111280,1,2,0:0:0:0:
256,192,111633,1,0,0:0:0:0:
256,192,112162,1,2,0:0:0:0:
256,192,112692,1,0,0:0:0:0:
256,192,113045,1,2,0:0:0:0:
256,192,114103,1,0,0:0:0:0:
256,192,114456,1,2,0:0:0:0:
256,192,115162,1,0,0:0:0:0:
256,192,115515,1,2,0:0:0:0:
256,192,115868,1,2,0:0:0:0:
256,192,116398,1,0,0:0:0:0:
256,192,116927,1,0,0:0:0:0:
256,192,117280,1,0,0:0:0:0:
256,192,117633,1,2,0:0:0:0:
256,192,117986,1,0,0:0:0:0:
256,192,118339,1,2,0:0:0:0:
256,192,118692,1,0,0:0:0:0:
256,192,119751,1,0,0:0:0:0:
256,192,120103,1,2,0:0:0:0:
256,192,120809,1,2,0:0:0:0:
256,192,121162,1,0,0:0:0:0:
256,192,121515,1,0,0:0:0:0:
256,192,122045,1,2,0:0:0:0:
256,192,122574,1,2,0:0:0:0:
256,192,122927,1,0,0:0:0:0:
256,192,123280,1,2,0:0:0:0:
256,192,123633,1,0,0:0:0:0:
256,192,124339,1,2,0:0:0:0:
256,192,125398,1,0,0:0:0:0:
256,192,125751,1,2,0:0:0:0:
256,192,126456,1,2,0:0:0:0:
256,192,126809,1,2,0:0:0:0:
256,192,127162,1,0,0:0:0:0:
256,192,127692,1,2,0:0:0:0:
256,192,128221,1,0,0:0:0:0:
256,192,128574,1,0,0:0:0:0:
256,192,128927,1,2,0:0:0:0:
256,192,129280,1,0,0:0:0:0:
256,192,129986,1,2,0:0:0:0:
256,192,131045,1,2,0:0:0:0:
256,192,131398,1,0,0:0:0:0:
256,192,132103,1,2,0:0:0:0:
256,192,132456,1,0,0:0:0:0:
256,192,132809,1,2,0:0:0:0:
256,192,133339,1,2,0:0:0:0:
256,192,133868,1,0,0:0:0:0:
256,192,134221,1,0,0:0:0:0:
256,192,134574,1,2,0:0:0:0:
256,192,134927,1,2,0:0:0:0:
256,192,135633,1,2,0:0:0:0:
256,192,136692,1,2,0:0:0:0:
256,192,137045,1,2,0:0:0:0:
256,192,137751,1,2,0:0:0:0:
256,192,138103,1,0,0:0:0:0:
256,192,138456,1,2,0:0:0:0:
256,192,138986,1,0,0:0:0:0:
256,192,139515,1,2,0:0:0:0:
256,192,140221,1,2,0:0:0:0:
256,192,140574,1,0,0:0:0:0:
256,192,140927,1,0,0:0:0:0:
