osu file format v14

[General]
AudioFilename: audio.mp3
AudioLeadIn: 0
PreviewTime: 96103
Countdown: 0
SampleSet: Normal
StackLeniency: 0.7
Mode: 1
LetterboxInBreaks: 0
WidescreenStoryboard: 1

[Editor]
Bookmarks: 5751,11398,96103
DistanceSpacing: 1.5
BeatDivisor: 4
GridSize: 32
TimelineZoom: 2

[Metadata]
Title:Disconnect
TitleUnicode:Disconnect
Artist:fiend
ArtistUnicode:fiend
Creator:HEAVENLY MOON
Version:muzukashii
Source:
Tags:kitty featured artist fa english breakcore electronic fever dream mappers' guild mpg mg ginjani naotoshi nao tomori
BeatmapID:3732091
BeatmapSetID:1818924

[Difficulty]
HPDrainRate:6.5
CircleSize:5
OverallDifficulty:4
ApproachRate:5
SliderMultiplier:1.4
SliderTickRate:1

[Events]
//Background and Video events
0,0,"FIENDCOVER.jpg",0,0
//Break Periods
//Storyboard Layer 0 (Background)
//Storyboard Layer 1 (Fail)
//Storyboard Layer 2 (Pass)
//Storyboard Layer 3 (Foreground)
//Storyboard Layer 4 (Overlay)
//Storyboard Sound Samples

[TimingPoints]
104,352.941176470588,4,1,0,40,1,8
104,-133.333333333333,4,1,0,40,0,0
192,-111.111111111111,4,1,0,40,0,0
2927,-100,4,1,0,70,0,0
5751,-111.111111111111,4,1,0,40,0,0
8574,-100,4,1,0,70,0,0
11398,-111.111111111111,4,1,0,40,0,0
14221,-100,4,1,0,70,0,0
17398,-111.111111111111,4,1,0,40,0,0
19868,-100,4,1,0,70,0,0
22692,-111.111111111111,4,1,0,40,0,0
25515,-100,4,1,0,70,0,0
27192,-102.040816326531,4,1,0,70,0,0
27280,-104.166666666667,4,1,0,70,0,0
27456,-106.382978723404,4,1,0,70,0,0
27633,-108.695652173913,4,1,0,70,0,0
27809,-111.111111111111,4,1,0,70,0,0
27986,-113.636363636364,4,1,0,70,0,0
28162,-116.279069767442,4,1,0,70,0,0
28251,-120.481927710843,4,1,0,70,0,0
28339,-125,4,1,0,50,0,0
31162,-125,4,1,0,55,0,0
33986,-111.111111111111,4,1,0,60,0,0
50927,-108.695652173913,4,1,0,60,0,0
72456,-107.52688172043,4,1,0,70,0,0
72633,-106.382978723404,4,1,0,70,0,0
72809,-105.263157894737,4,1,0,70,0,0
72986,-104.166666666667,4,1,0,70,0,0
73074,-103.092783505155,4,1,0,70,0,0
73162,-102.040816326531,4,1,0,70,0,0
73251,-101.010101010101,4,1,0,70,0,0
73339,-100,4,1,0,70,0,0
73427,-99.009900990099,4,1,0,70,0,0
73515,-98.0392156862745,4,1,0,60,0,0
73868,-111.111111111111,4,1,0,60,0,0
95398,-115.473441108545,4,1,0,60,0,0
95751,-120.048019207683,4,1,0,60,0,0
96103,-125,4,1,0,60,0,0
98927,-111.111111111111,4,1,0,60,0,0
118956,-111.111111111111,4,1,0,70,0,0
138456,-112.359550561798,4,1,0,60,0,0
138721,-113.636363636364,4,1,0,60,0,0
138809,-114.942528735632,4,1,0,60,0,0
138986,-116.279069767442,4,1,0,60,0,0
139515,-117.647058823529,4,1,0,60,0,0
140045,-119.047619047619,4,1,0,60,0,0
140133,-120.481927710843,4,1,0,60,0,0
140221,-121.951219512195,4,1,0,60,0,0
140398,-123.456790123457,4,1,0,60,0,0
140486,-125,4,1,0,60,0,0
140574,-126.582278481013,4,1,0,60,0,0
140751,-128.205128205128,4,1,0,60,0,0
140839,-129.87012987013,4,1,0,60,0,0

[HitObjects]
256,200,192,5,0,0:0:0:0:
268,208,280,1,0,0:0:0:0:
256,200,456,1,2,0:0:0:0:
256,192,633,1,0,0:0:0:0:
256,192,986,1,2,0:0:0:0:
256,192,1162,1,0,0:0:0:0:
256,192,1339,1,0,0:0:0:0:
256,192,1515,1,0,0:0:0:0:
256,192,1868,1,2,0:0:0:0:
256,192,2045,1,0,0:0:0:0:
256,192,2221,1,0,0:0:0:0:
256,192,2398,1,2,0:0:0:0:
256,192,2574,1,2,0:0:0:0:
256,192,2927,1,2,0:0:0:0:
256,192,3280,1,2,0:0:0:0:
256,192,3456,1,0,0:0:0:0:
256,192,3633,1,2,0:0:0:0:
256,192,3721,1,2,0:0:0:0:
256,192,3809,1,2,0:0:0:0:
256,192,3986,1,0,0:0:0:0:
256,192,4162,1,2,0:0:0:0:
256,192,4339,1,0,0:0:0:0:
256,192,4692,1,2,0:0:0:0:
256,192,4868,1,0,0:0:0:0:
256,192,5045,1,0,0:0:0:0:
256,192,5221,1,2,0:0:0:0:
256,192,5398,1,2,0:0:0:0:
256,192,5751,1,0,0:0:0:0:
256,192,6280,1,0,0:0:0:0:
256,192,6633,1,2,0:0:0:0:
256,192,6809,1,0,0:0:0:0:
256,192,7162,1,0,0:0:0:0:
256,192,7515,1,2,0:0:0:0:
256,192,7692,1,0,0:0:0:0:
256,192,7868,1,0,0:0:0:0:
256,192,8045,1,2,0:0:0:0:
256,192,8221,1,2,0:0:0:0:
256,192,8574,1,0,0:0:0:0:
256,192,8927,1,2,0:0:0:0:
256,192,9103,1,0,0:0:0:0:
256,192,9192,1,0,0:0:0:0:
256,192,9280,1,0,0:0:0:0:
256,192,9456,1,2,0:0:0:0:
256,192,9633,1,0,0:0:0:0:
256,192,9721,1,0,0:0:0:0:
256,192,9809,1,0,0:0:0:0:
256,192,9986,1,2,0:0:0:0:
256,192,10339,1,2,0:0:0:0:
256,192,10515,1,0,0:0:0:0:
256,192,10692,1,0,0:0:0:0:
256,192,10868,1,2,0:0:0:0:
256,192,11045,1,2,0:0:0:0:
256,192,11398,1,0,0:0:0:0:
256,192,11927,1,0,0:0:0:0:
256,192,12280,1,2,0:0:0:0:
256,192,12456,1,0,0:0:0:0:
256,192,12633,1,0,0:0:0:0:
256,192,12809,1,0,0:0:0:0:
256,192,13162,1,2,0:0:0:0:
256,192,13339,1,0,0:0:0:0:
256,192,13515,1,0,0:0:0:0:
256,192,13692,1,2,0:0:0:0:
256,192,13868,1,2,0:0:0:0:
256,192,14221,1,0,0:0:0:0:
256,192,14574,1,2,0:0:0:0:
256,192,14751,1,0,0:0:0:0:
256,192,14927,1,2,0:0:0:0:
256,192,15015,1,2,0:0:0:0:
256,192,15103,1,2,0:0:0:0:
256,192,15280,1,2,0:0:0:0:
256,192,15456,1,0,0:0:0:0:
256,192,15633,1,0,0:0:0:0:
256,192,15986,1,2,0:0:0:0:
256,192,16162,1,0,0:0:0:0:
256,192,16339,1,0,0:0:0:0:
256,192,16515,1,2,0:0:0:0:
256,192,16692,1,2,0:0:0:0:
256,192,17045,1,0,0:0:0:0:
256,192,17574,1,0,0:0:0:0:
256,192,17927,1,2,0:0:0:0:
256,192,18103,1,0,0:0:0:0:
256,192,18456,1,0,0:0:0:0:
256,192,18809,1,2,0:0:0:0:
256,192,18986,1,0,0:0:0:0:
256,192,19162,1,0,0:0:0:0:
256,192,19339,1,2,0:0:0:0:
256,192,19515,1,2,0:0:0:0:
256,192,19868,1,0,0:0:0:0:
256,192,20221,1,2,0:0:0:0:
256,192,20398,1,0,0:0:0:0:
256,192,20486,1,0,0:0:0:0:
256,192,20574,1,0,0:0:0:0:
256,192,20751,1,2,0:0:0:0:
256,192,20927,1,2,0:0:0:0:
256,192,21015,1,2,0:0:0:0:
256,192,21103,1,2,0:0:0:0:
256,192,21280,1,0,0:0:0:0:
256,192,21633,1,2,0:0:0:0:
256,192,21809,1,0,0:0:0:0:
256,192,21986,1,0,0:0:0:0:
256,192,22162,1,2,0:0:0:0:
256,192,22339,1,2,0:0:0:0:
256,192,22692,1,0,0:0:0:0:
256,192,23221,1,0,0:0:0:0:
256,192,23398,1,2,0:0:0:0:
256,192,23751,1,2,0:0:0:0:
256,192,23927,1,0,0:0:0:0:
256,192,24103,1,2,0:0:0:0:
256,192,24456,1,0,0:0:0:0:
256,192,24633,1,0,0:0:0:0:
256,192,24809,1,0,0:0:0:0:
256,192,24986,1,2,0:0:0:0:
256,192,25162,1,2,0:0:0:0:
256,192,25515,1,2,0:0:0:0:
256,192,25868,1,0,0:0:0:0:
256,192,26045,1,2,0:0:0:0:
256,192,26221,1,0,0:0:0:0:
256,192,26398,1,0,0:0:0:0:
256,192,26486,1,0,0:0:0:0:
256,192,26574,1,0,0:0:0:0:
256,192,26751,1,2,0:0:0:0:
256,192,26927,1,0,0:0:0:0:
256,192,27280,1,2,0:0:0:0:
256,192,27456,1,0,0:0:0:0:
256,192,27633,1,0,0:0:0:0:
256,192,27809,1,2,0:0:0:0:
256,192,27986,1,2,0:0:0:0:
256,192,28339,1,2,0:0:0:0:
256,192,28868,1,0,0:0:0:0:
256,192,29045,1,2,0:0:0:0:
256,192,29221,1,2,0:0:0:0:
256,192,29398,1,2,0:0:0:0:
256,192,29574,1,0,0:0:0:0:
256,192,29751,1,2,0:0:0:0:
256,192,30015,1,2,0:0:0:0:
256,192,30280,1,0,0:0:0:0:
256,192,30456,1,2,0:0:0:0:
256,192,30633,1,0,0:0:0:0:
256,192,30809,1,2,0:0:0:0:
256,192,30986,1,2,0:0:0:0:
256,192,31162,1,0,0:0:0:0:
256,192,31515,1,0,0:0:0:0:
256,192,31692,1,2,0:0:0:0:
256,192,31868,1,0,0:0:0:0:
256,192,32045,1,2,0:0:0:0:
256,192,32221,1,0,0:0:0:0:
256,192,32398,1,0,0:0:0:0:
256,192,32574,1,2,0:0:0:0:
256,192,32927,1,0,0:0:0:0:
256,192,33103,1,0,0:0:0:0:
256,192,33280,1,0,0:0:0:0:
256,192,33456,1,2,0:0:0:0:
256,192,33633,1,0,0:0:0:0:
256,192,33809,1,0,0:0:0:0:
256,192,33986,1,2,0:0:0:0:
256,192,34515,1,0,0:0:0:0:
256,192,34692,1,2,0:0:0:0:
256,192,34868,1,2,0:0:0:0:
256,192,35045,1,0,0:0:0:0:
256,192,35221,1,0,0:0:0:0:
256,192,35398,1,2,0:0:0:0:
256,192,35662,1,2,0:0:0:0:
256,192,35927,1,0,0:0:0:0:
256,192,36103,1,2,0:0:0:0:
256,192,36280,1,0,0:0:0:0:
256,192,36456,1,2,0:0:0:0:
256,192,36633,1,2,0:0:0:0:
256,192,36809,1,0,0:0:0:0:
256,192,37162,1,0,0:0:0:0:
256,192,37339,1,2,0:0:0:0:
256,192,37515,1,0,0:0:0:0:
256,192,37692,1,0,0:0:0:0:
256,192,37868,1,2,0:0:0:0:
256,192,37956,1,2,0:0:0:0:
256,192,38045,1,2,0:0:0:0:
256,192,38221,1,0,0:0:0:0:
256,192,38574,1,2,0:0:0:0:
256,192,38751,1,0,0:0:0:0:
256,192,38927,1,0,0:0:0:0:
256,192,39103,1,0,0:0:0:0:
256,192,39280,1,2,0:0:0:0:
256,192,39456,1,2,0:0:0:0:
256,192,39633,1,2,0:0:0:0:
256,192,40162,1,0,0:0:0:0:
256,192,40339,5,2,0:0:0:0:
256,192,40515,1,2,0:0:0:0:
256,192,40692,1,2,0:0:0:0:
256,192,40868,1,0,0:0:0:0:
256,192,41045,1,2,0:0:0:0:
256,192,41309,1,2,0:0:0:0:
256,192,41574,1,0,0:0:0:0:
256,192,41751,1,2,0:0:0:0:
256,192,41927,1,0,0:0:0:0:
256,192,42103,1,2,0:0:0:0:
256,192,42280,1,2,0:0:0:0:
256,192,42456,1,0,0:0:0:0:
256,192,42809,1,0,0:0:0:0:
256,192,42986,1,2,0:0:0:0:
256,192,43162,1,0,0:0:0:0:
256,192,43339,1,0,0:0:0:0:
256,192,43515,1,2,0:0:0:0:
256,192,43603,1,2,0:0:0:0:
256,192,43692,1,2,0:0:0:0:
256,192,43868,1,0,0:0:0:0:
256,192,44221,1,2,0:0:0:0:
256,192,44398,1,0,0:0:0:0:
256,192,44574,1,2,0:0:0:0:
256,192,44751,1,2,0:0:0:0:
256,192,44927,1,0,0:0:0:0:
256,192,45280,1,2,0:0:0:0:
256,192,45809,1,0,0:0:0:0:
256,192,45986,1,2,0:0:0:0:
256,192,46162,1,2,0:0:0:0:
256,192,46339,1,0,0:0:0:0:
256,192,46515,1,0,0:0:0:0:
256,192,46691,1,2,0:0:0:0:
256,192,46956,1,2,0:0:0:0:
256,192,47221,1,0,0:0:0:0:
256,192,47398,1,2,0:0:0:0:
256,192,47574,1,0,0:0:0:0:
256,192,47751,1,2,0:0:0:0:
256,192,47927,1,2,0:0:0:0:
256,192,48103,1,0,0:0:0:0:
256,192,48456,1,2,0:0:0:0:
256,192,48545,1,2,0:0:0:0:
256,192,48633,1,2,0:0:0:0:
256,192,48809,1,2,0:0:0:0:
256,192,48986,1,0,0:0:0:0:
256,192,49162,1,2,0:0:0:0:
256,192,49339,1,2,0:0:0:0:
256,192,49515,1,0,0:0:0:0:
256,192,49868,1,2,0:0:0:0:
256,192,49956,1,2,0:0:0:0:
256,192,50045,1,2,0:0:0:0:
256,192,50221,1,0,0:0:0:0:
256,192,50398,1,0,0:0:0:0:
256,192,50574,1,2,0:0:0:0:
256,192,50662,1,2,0:0:0:0:
256,192,50751,1,2,0:0:0:0:
256,192,50927,1,0,0:0:0:0:
256,192,51456,1,2,0:0:0:0:
256,192,51633,1,0,0:0:0:0:
256,192,51809,1,2,0:0:0:0:
256,192,51986,1,0,0:0:0:0:
256,192,52162,1,0,0:0:0:0:
256,192,52339,1,2,0:0:0:0:
256,192,52692,1,2,0:0:0:0:
256,192,52868,1,0,0:0:0:0:
256,192,53045,1,0,0:0:0:0:
256,192,53221,1,2,0:0:0:0:
256,192,53398,1,2,0:0:0:0:
256,192,53751,1,0,0:0:0:0:
256,192,54103,1,0,0:0:0:0:
256,192,54280,1,0,0:0:0:0:
256,192,54456,1,2,0:0:0:0:
256,192,54545,1,2,0:0:0:0:
256,192,54633,1,2,0:0:0:0:
256,192,54809,1,0,0:0:0:0:
256,192,54986,1,2,0:0:0:0:
256,192,55162,1,0,0:0:0:0:
256,192,55515,1,2,0:0:0:0:
256,192,55692,1,0,0:0:0:0:
256,192,55868,1,2,0:0:0:0:
256,192,56045,1,2,0:0:0:0:
256,192,56221,1,2,0:0:0:0:
256,192,56574,1,0,0:0:0:0:
256,192,57103,1,2,0:0:0:0:
256,192,57280,1,0,0:0:0:0:
256,192,57456,1,2,0:0:0:0:
256,192,57633,1,2,0:0:0:0:
256,192,57809,1,0,0:0:0:0:
256,192,57986,1,2,0:0:0:0:
256,192,58339,1,2,0:0:0:0:
256,192,58515,1,0,0:0:0:0:
256,192,58692,1,0,0:0:0:0:
256,192,58868,1,2,0:0:0:0:
256,192,59045,1,2,0:0:0:0:
256,192,59398,1,0,0:0:0:0:
256,192,59751,1,0,0:0:0:0:
256,192,59927,1,2,0:0:0:0:
256,192,60103,1,0,0:0:0:0:
256,192,60192,1,0,0:0:0:0:
256,192,60280,1,0,0:0:0:0:
256,192,60456,1,2,0:0:0:0:
256,192,60633,1,2,0:0:0:0:
256,192,60809,1,0,0:0:0:0:
256,192,61162,1,0,0:0:0:0:
256,192,61339,1,0,0:0:0:0:
256,192,61515,1,2,0:0:0:0:
256,192,61692,1,2,0:0:0:0:
256,192,61868,1,2,0:0:0:0:
256,192,62221,1,0,0:0:0:0:
256,192,62751,1,2,0:0:0:0:
256,192,62927,1,0,0:0:0:0:
256,192,63103,1,2,0:0:0:0:
256,192,63280,1,0,0:0:0:0:
256,192,63456,1,0,0:0:0:0:
256,192,63633,1,2,0:0:0:0:
256,192,63986,1,2,0:0:0:0:
256,192,64162,1,0,0:0:0:0:
256,192,64339,1,0,0:0:0:0:
256,192,64515,1,2,0:0:0:0:
256,192,64692,1,2,0:0:0:0:
256,192,65045,1,0,0:0:0:0:
256,192,65398,1,2,0:0:0:0:
256,192,65574,1,0,0:0:0:0:
256,192,65751,1,2,0:0:0:0:
256,192,65839,1,2,0:0:0:0:
256,192,65927,1,2,0:0:0:0:
256,192,66103,1,0,0:0:0:0:
256,192,66280,1,2,0:0:0:0:
256,192,66456,1,0,0:0:0:0:
256,192,66809,1,2,0:0:0:0:
256,192,66986,1,0,0:0:0:0:
256,192,67162,1,2,0:0:0:0:
256,192,67339,1,2,0:0:0:0:
256,192,67515,1,2,0:0:0:0:
256,192,67868,1,0,0:0:0:0:
256,192,68398,1,2,0:0:0:0:
256,192,68574,1,0,0:0:0:0:
256,192,68751,1,0,0:0:0:0:
256,192,68927,1,2,0:0:0:0:
256,192,69103,1,2,0:0:0:0:
256,192,69280,1,0,0:0:0:0:
256,192,69633,1,2,0:0:0:0:
256,192,69809,1,0,0:0:0:0:
256,192,69986,1,0,0:0:0:0:
256,192,70162,1,2,0:0:0:0:
256,192,70339,1,2,0:0:0:0:
256,192,70692,1,0,0:0:0:0:
256,192,71045,1,2,0:0:0:0:
256,192,71221,1,2,0:0:0:0:
256,192,71398,1,0,0:0:0:0:
256,192,71486,1,0,0:0:0:0:
256,192,71574,1,0,0:0:0:0:
256,192,71751,1,2,0:0:0:0:
256,192,71927,1,2,0:0:0:0:
256,192,72103,1,0,0:0:0:0:
256,192,72456,1,2,0:0:0:0:
256,192,72633,1,2,0:0:0:0:
256,192,72809,1,2,0:0:0:0:
256,192,72986,1,2,0:0:0:0:
256,192,73074,1,2,0:0:0:0:
256,192,73162,1,2,0:0:0:0:
256,192,73339,1,2,0:0:0:0:
256,192,73515,1,0,0:0:0:0:
256,192,73868,1,0,0:0:0:0:
256,192,74221,1,2,0:0:0:0:
256,192,74574,1,2,0:0:0:0:
256,192,74751,1,0,0:0:0:0:
256,192,74927,1,2,0:0:0:0:
256,192,75280,1,2,0:0:0:0:
256,192,75456,1,0,0:0:0:0:
256,192,75633,1,2,0:0:0:0:
256,192,75809,1,2,0:0:0:0:
256,192,75986,1,0,0:0:0:0:
256,192,76339,1,2,0:0:0:0:
256,192,76692,1,0,0:0:0:0:
256,192,76868,1,0,0:0:0:0:
256,192,77045,1,2,0:0:0:0:
256,192,77221,1,2,0:0:0:0:
256,192,77398,1,2,0:0:0:0:
256,192,77751,1,2,0:0:0:0:
256,192,78103,1,2,0:0:0:0:
256,192,78280,1,0,0:0:0:0:
256,192,78456,1,0,0:0:0:0:
256,192,78809,1,2,0:0:0:0:
256,192,79162,1,0,0:0:0:0:
256,192,79515,1,2,0:0:0:0:
256,192,79692,1,0,0:0:0:0:
256,192,79868,1,2,0:0:0:0:
256,192,80045,1,2,0:0:0:0:
256,192,80221,1,0,0:0:0:0:
256,192,80398,1,0,0:0:0:0:
256,192,80574,1,0,0:0:0:0:
256,192,80927,1,2,0:0:0:0:
256,192,81280,1,2,0:0:0:0:
256,192,81456,1,2,0:0:0:0:
256,192,81633,1,0,0:0:0:0:
256,192,81986,1,2,0:0:0:0:
256,192,82515,1,0,0:0:0:0:
256,192,82692,1,2,0:0:0:0:
256,192,83045,1,2,0:0:0:0:
256,192,83398,1,2,0:0:0:0:
256,192,83574,1,0,0:0:0:0:
256,192,83751,1,0,0:0:0:0:
256,192,84103,1,2,0:0:0:0:
256,192,84280,1,0,0:0:0:0:
256,192,84456,1,2,0:0:0:0:
256,192,84809,1,2,0:0:0:0:
256,192,85162,1,0,0:0:0:0:
256,192,85339,1,0,0:0:0:0:
256,192,85515,1,2,0:0:0:0:
256,192,85692,1,2,0:0:0:0:
256,192,85868,1,0,0:0:0:0:
256,192,86221,1,2,0:0:0:0:
256,192,86398,1,2,0:0:0:0:
256,192,86486,1,2,0:0:0:0:
256,192,86574,1,2,0:0:0:0:
256,192,86751,1,0,0:0:0:0:
256,192,86927,1,2,0:0:0:0:
256,192,87103,1,0,0:0:0:0:
256,192,87280,1,0,0:0:0:0:
256,192,87633,1,2,0:0:0:0:
256,192,87986,1,0,0:0:0:0:
256,192,88162,1,0,0:0:0:0:
256,192,88339,1,2,0:0:0:0:
256,192,88515,1,0,0:0:0:0:
256,192,88692,1,2,0:0:0:0:
256,192,88868,1,0,0:0:0:0:
256,192,88956,1,0,0:0:0:0:
256,192,89045,1,0,0:0:0:0:
256,192,89398,1,0,0:0:0:0:
256,192,89751,1,2,0:0:0:0:
256,192,89927,1,2,0:0:0:0:
256,192,90103,1,0,0:0:0:0:
256,192,90280,1,2,0:0:0:0:
256,192,90456,1,0,0:0:0:0:
256,192,90809,1,0,0:0:0:0:
256,192,91162,1,2,0:0:0:0:
256,192,91515,1,0,0:0:0:0:
256,192,91692,1,0,0:0:0:0:
256,192,91868,1,2,0:0:0:0:
256,192,92221,1,2,0:0:0:0:
256,192,92398,1,0,0:0:0:0:
256,192,92574,1,2,0:0:0:0:
256,192,92751,1,0,0:0:0:0:
256,192,92839,1,0,0:0:0:0:
256,192,92927,1,0,0:0:0:0:
256,192,93103,1,0,0:0:0:0:
256,192,93280,1,2,0:0:0:0:
256,192,93545,1,0,0:0:0:0:
256,192,93633,1,0,0:0:0:0:
256,192,93809,1,2,0:0:0:0:
256,192,94339,1,2,0:0:0:0:
256,192,94868,1,2,0:0:0:0:
256,192,94956,1,2,0:0:0:0:
256,192,95045,1,2,0:0:0:0:
256,192,95398,1,2,0:0:0:0:
256,192,95751,1,0,0:0:0:0:
256,192,96103,1,2,0:0:0:0:
256,192,96633,1,0,0:0:0:0:
256,192,96809,1,2,0:0:0:0:
256,192,96986,1,2,0:0:0:0:
256,192,97162,1,2,0:0:0:0:
256,192,97339,1,0,0:0:0:0:
256,192,97515,1,2,0:0:0:0:
256,192,97780,1,2,0:0:0:0:
256,192,98045,1,0,0:0:0:0:
256,192,98221,1,2,0:0:0:0:
256,192,98398,1,2,0:0:0:0:
256,192,98574,1,0,0:0:0:0:
256,192,98751,1,0,0:0:0:0:
256,192,98928,1,2,0:0:0:0:
256,192,99103,1,2,0:0:0:0:
256,192,99280,1,2,0:0:0:0:
256,192,99456,1,2,0:0:0:0:
256,192,99633,1,0,0:0:0:0:
256,192,99809,1,2,0:0:0:0:
256,192,99986,1,0,0:0:0:0:
256,192,100162,1,2,0:0:0:0:
256,192,100339,1,0,0:0:0:0:
256,192,100515,1,2,0:0:0:0:
256,192,100692,1,0,0:0:0:0:
256,192,100868,1,2,0:0:0:0:
256,192,101045,1,0,0:0:0:0:
256,192,101221,1,2,0:0:0:0:
256,192,101398,1,0,0:0:0:0:
256,192,101574,1,0,0:0:0:0:
256,192,101751,1,2,0:0:0:0:
256,192,102280,1,0,0:0:0:0:
256,192,102456,1,2,0:0:0:0:
256,192,102633,1,2,0:0:0:0:
256,192,102809,1,0,0:0:0:0:
256,192,102986,1,0,0:0:0:0:
256,192,103162,1,2,0:0:0:0:
256,192,103427,1,0,0:0:0:0:
256,192,103692,1,0,0:0:0:0:
256,192,103868,1,2,0:0:0:0:
256,192,104045,1,0,0:0:0:0:
256,192,104221,1,2,0:0:0:0:
256,192,104398,1,2,0:0:0:0:
256,192,104574,1,0,0:0:0:0:
256,192,104751,1,2,0:0:0:0:
256,192,104927,1,0,0:0:0:0:
256,192,105103,1,2,0:0:0:0:
256,192,105280,1,0,0:0:0:0:
256,192,105456,1,2,0:0:0:0:
256,192,105633,1,2,0:0:0:0:
256,192,105721,1,2,0:0:0:0:
256,192,105809,1,2,0:0:0:0:
256,192,105986,1,0,0:0:0:0:
256,192,106162,1,2,0:0:0:0:
256,192,106339,1,0,0:0:0:0:
256,192,106515,1,2,0:0:0:0:
256,192,106692,1,0,0:0:0:0:
256,192,106868,1,2,0:0:0:0:
256,192,107045,1,0,0:0:0:0:
256,192,107221,1,0,0:0:0:0:
256,192,107398,1,2,0:0:0:0:
256,192,107927,1,0,0:0:0:0:
256,192,108103,1,2,0:0:0:0:
256,192,108280,1,2,0:0:0:0:
256,192,108456,1,0,0:0:0:0:
256,192,108633,1,0,0:0:0:0:
256,192,108809,1,2,0:0:0:0:
256,192,109074,1,2,0:0:0:0:
256,192,109339,1,0,0:0:0:0:
256,192,109515,1,2,0:0:0:0:
256,192,109692,1,0,0:0:0:0:
256,192,109868,1,2,0:0:0:0:
256,192,110045,1,2,0:0:0:0:
256,192,110221,1,0,0:0:0:0:
256,192,110398,1,2,0:0:0:0:
256,192,110574,1,0,0:0:0:0:
256,192,110751,1,2,0:0:0:0:
256,192,110927,1,0,0:0:0:0:
256,192,111103,1,2,0:0:0:0:
256,192,111280,1,2,0:0:0:0:
256,192,111368,1,2,0:0:0:0:
256,192,111456,1,2,0:0:0:0:
256,192,111633,1,0,0:0:0:0:
256,192,111809,1,2,0:0:0:0:
256,192,111986,1,0,0:0:0:0:
256,192,112162,1,2,0:0:0:0:
256,192,112339,1,0,0:0:0:0:
256,192,112515,1,2,0:0:0:0:
256,192,112692,1,2,0:0:0:0:
256,192,112868,1,0,0:0:0:0:
256,192,113045,1,2,0:0:0:0:
256,192,113574,1,0,0:0:0:0:
256,192,113751,1,2,0:0:0:0:
256,192,113927,1,2,0:0:0:0:
256,192,114103,1,2,0:0:0:0:
256,192,114280,1,0,0:0:0:0:
256,192,114456,1,2,0:0:0:0:
256,192,114721,1,2,0:0:0:0:
256,192,114986,1,0,0:0:0:0:
256,192,115162,1,2,0:0:0:0:
256,192,115339,1,2,0:0:0:0:
256,192,115515,1,0,0:0:0:0:
256,192,115692,1,2,0:0:0:0:
256,192,115868,1,2,0:0:0:0:
256,192,116045,1,0,0:0:0:0:
256,192,116221,1,2,0:0:0:0:
256,192,116309,1,2,0:0:0:0:
256,192,116398,1,2,0:0:0:0:
256,192,116574,1,0,0:0:0:0:
256,192,116751,1,2,0:0:0:0:
256,192,117103,1,2,0:0:0:0:
256,192,117280,1,0,0:0:0:0:
256,192,117456,1,0,0:0:0:0:
256,192,117633,1,2,0:0:0:0:
256,192,117721,1,2,0:0:0:0:
256,192,117809,1,2,0:0:0:0:
256,192,117986,1,0,0:0:0:0:
256,192,118162,1,0,0:0:0:0:
256,192,118339,1,2,0:0:0:0:
256,192,118427,1,2,0:0:0:0:
256,192,118515,1,2,0:0:0:0:
256,192,118692,1,0,0:0:0:0:
256,192,119045,1,0,0:0:0:0:
256,192,119221,1,0,0:0:0:0:
256,192,119398,1,2,0:0:0:0:
256,192,119574,1,2,0:0:0:0:
256,192,119751,1,0,0:0:0:0:
256,192,119839,1,0,0:0:0:0:
256,192,119927,1,0,0:0:0:0:
256,192,120103,1,2,0:0:0:0:
256,192,120456,1,0,0:0:0:0:
256,192,120633,1,0,0:0:0:0:
256,192,120809,1,2,0:0:0:0:
256,192,120986,1,2,0:0:0:0:
256,192,121162,1,0,0:0:0:0:
256,192,121339,1,2,0:0:0:0:
256,192,121515,1,0,0:0:0:0:
256,192,121868,1,0,0:0:0:0:
256,192,122045,1,2,0:0:0:0:
256,192,122398,1,0,0:0:0:0:
256,192,122574,1,2,0:0:0:0:
256,192,122751,1,2,0:0:0:0:
256,192,122927,1,0,0:0:0:0:
256,192,123280,1,2,0:0:0:0:
256,192,123456,1,0,0:0:0:0:
256,192,123633,1,0,0:0:0:0:
256,192,123809,1,2,0:0:0:0:
256,192,123986,1,2,0:0:0:0:
256,192,124339,1,2,0:0:0:0:
256,192,124868,1,0,0:0:0:0:
256,192,125045,1,2,0:0:0:0:
256,192,125221,1,2,0:0:0:0:
256,192,125398,1,0,0:0:0:0:
256,192,125486,1,0,0:0:0:0:
256,192,125574,1,0,0:0:0:0:
256,192,125751,1,2,0:0:0:0:
256,192,126103,1,0,0:0:0:0:
256,192,126280,1,0,0:0:0:0:
256,192,126456,1,2,0:0:0:0:
256,192,126633,1,0,0:0:0:0:
256,192,126809,1,2,0:0:0:0:
256,192,126986,1,2,0:0:0:0:
256,192,127162,1,0,0:0:0:0:
256,192,127515,1,0,0:0:0:0:
256,192,127692,1,2,0:0:0:0:
256,192,128045,1,2,0:0:0:0:
256,192,128221,1,0,0:0:0:0:
256,192,128398,1,0,0:0:0:0:
256,192,128574,1,0,0:0:0:0:
256,192,128927,1,2,0:0:0:0:
256,192,129103,1,0,0:0:0:0:
256,192,129280,1,2,0:0:0:0:
256,192,129456,1,2,0:0:0:0:
256,192,129633,1,2,0:0:0:0:
256,192,129986,1,2,0:0:0:0:
256,192,130515,1,0,0:0:0:0:
256,192,130692,1,2,0:0:0:0:
256,192,130868,1,0,0:0:0:0:
256,192,131045,1,2,0:0:0:0:
256,192,131133,1,2,0:0:0:0:
256,192,131221,1,2,0:0:0:0:
256,192,131398,1,0,0:0:0:0:
256,192,131751,1,0,0:0:0:0:
256,192,131927,1,0,0:0:0:0:
256,192,132103,1,2,0:0:0:0:
256,192,132280,1,2,0:0:0:0:
256,192,132456,1,0,0:0:0:0:
256,192,132633,1,0,0:0:0:0:
256,192,132809,1,2,0:0:0:0:
256,192,133162,1,0,0:0:0:0:
256,192,133339,1,2,0:0:0:0:
256,192,133692,1,0,0:0:0:0:
256,192,133868,1,2,0:0:0:0:
256,192,134045,1,0,0:0:0:0:
256,192,134221,1,0,0:0:0:0:
256,192,134574,1,0,0:0:0:0:
256,192,134751,1,0,0:0:0:0:
256,192,134927,1,0,0:0:0:0:
256,192,135103,1,2,0:0:0:0:
256,192,135280,1,2,0:0:0:0:
256,192,135633,1,2,0:0:0:0:
256,192,135986,1,0,0:0:0:0:
256,192,136162,1,0,0:0:0:0:
256,192,136339,1,2,0:0:0:0:
256,192,136515,1,0,0:0:0:0:
256,192,136692,1,2,0:0:0:0:
256,192,136780,1,2,0:0:0:0:
256,192,136868,1,2,0:0:0:0:
256,192,137045,1,2,0:0:0:0:
256,192,137398,1,0,0:0:0:0:
256,192,137574,1,0,0:0:0:0:
256,192,137751,1,2,0:0:0:0:
256,192,137927,1,2,0:0:0:0:
256,192,138103,1,0,0:0:0:0:
256,192,138280,1,2,0:0:0:0:
256,192,138456,1,2,0:0:0:0:
256,192,138721,1,0,0:0:0:0:
256,192,138809,1,0,0:0:0:0:
256,192,138986,1,2,0:0:0:0:
256,192,139515,1,2,0:0:0:0:
256,192,140045,1,2,0:0:0:0:
256,192,140133,1,2,0:0:0:0:
256,192,140221,1,2,0:0:0:0:
256,192,140398,1,0,0:0:0:0:
256,192,140486,1,0,0:0:0:0:
256,192,140574,1,0,0:0:0:0:
256,192,140751,1,2,0:0:0:0:
256,192,140927,1,2,0:0:0:0:
256,192,141103,1,0,0:0:0:0:
