osu file format v14

[General]
AudioFilename: audio.mp3
AudioLeadIn: 0
PreviewTime: 9431
Countdown: 0
SampleSet: Soft
StackLeniency: 0.7
Mode: 2
LetterboxInBreaks: 0
WidescreenStoryboard: 1

[Editor]
Bookmarks: 9480,40351
DistanceSpacing: 1
BeatDivisor: 4
GridSize: 4
TimelineZoom: 2.799999

[Metadata]
Title:2DF2
TitleUnicode:2DF2
Artist:fiend
ArtistUnicode:fiend
Creator:Kimitakari
Version:Rain
Source:
Tags:nelly featured artist fa mappers' guild mpg rap q1x feind 2d2f 2f2d 2fd2 bonus track breakcore experimental jungle youngster jiji kamiyada+ fever dream drum and bass dnb hip-hop hip hop english
BeatmapID:4456164
BeatmapSetID:2120798

[Difficulty]
HPDrainRate:5
CircleSize:4.5
OverallDifficulty:8.8
ApproachRate:8.8
SliderMultiplier:1.94
SliderTickRate:1

[Events]
//Background and Video events
0,0,"FIENDCOVER.jpg",0,0
//Break Periods
//Storyboard Layer 0 (Background)
//Storyboard Layer 1 (Fail)
//Storyboard Layer 2 (Pass)
//Storyboard Layer 3 (Foreground)
//Storyboard Layer 4 (Overlay)
//Storyboard Sound Samples

[TimingPoints]
190,387.096774193548,4,2,1,20,1,0
6770,-100,4,2,1,25,0,0
7157,-100,4,2,1,30,0,0
7544,-100,4,2,1,35,0,0
7931,-100,4,2,1,40,0,0
8319,-100,4,2,1,45,0,0
8706,-100,4,2,1,50,0,0
9093,-100,4,2,1,55,0,0
9286,-100,4,2,1,5,0,0
9480,-100,4,2,1,60,0,0
29996,-100,4,2,1,25,0,0
30044,-100,4,2,1,31,0,0
30093,-100,4,2,1,36,0,0
30141,-100,4,2,1,42,0,0
30189,-100,4,2,1,48,0,0
30238,-100,4,2,1,54,0,0
30286,-100,4,2,1,57,0,0
30383,-100,4,2,1,60,0,0
33891,-100,4,2,1,25,0,0
33939,-100,4,2,1,31,0,0
33988,-100,4,2,1,36,0,0
34036,-100,4,2,1,42,0,0
34085,-100,4,2,1,48,0,0
34133,-100,4,2,1,54,0,0
34254,-100,4,2,1,60,0,0
36988,-100,4,2,1,25,0,0
37036,-100,4,2,1,31,0,0
37085,-100,4,2,1,36,0,0
37133,-100,4,2,1,42,0,0
37181,-100,4,2,1,48,0,0
37230,-100,4,2,1,54,0,0
37351,-100,4,2,1,60,0,0

[Colours]
Combo1 : 253,39,37
Combo2 : 114,157,148

[HitObjects]
256,192,6383,12,0,9286,0:0:0:0:
376,117,9480,5,6,0:0:0:0:
366,197,9673,1,0,0:0:0:0:
113,228,9867,1,10,0:0:0:0:
209,228,10060,1,2,0:0:0:0:
164,211,10157,1,2,0:0:0:0:
145,168,10253,1,2,0:0:0:0:
164,125,10350,1,2,0:0:0:0:
209,108,10447,1,2,0:0:0:0:
34,96,10641,1,8,0:0:0:0:
228,143,11028,5,2,0:0:0:0:
233,240,11222,1,2,0:0:0:0:
484,305,11415,1,10,0:0:0:0:
387,279,11609,1,2,0:0:0:0:
392,232,11706,1,2,0:0:0:0:
440,221,11802,1,2,0:0:0:0:
488,225,11899,1,2,0:0:0:0:
440,221,11996,1,2,0:0:0:0:
266,209,12189,1,10,0:0:0:0:
460,121,12577,5,2,0:0:0:0:
412,117,12674,1,2,0:0:0:0:
258,103,12770,1,2,0:0:0:0:
161,96,12964,1,10,0:0:0:0:
335,163,13157,1,2,0:0:0:0:
380,180,13254,1,2,0:0:0:0:
399,223,13351,1,2,0:0:0:0:
380,266,13447,1,2,0:0:0:0:
335,283,13544,1,2,0:0:0:0:
159,283,13738,1,10,0:0:0:0:
352,359,14125,5,2,0:0:0:0:
347,262,14319,1,2,0:0:0:0:
96,241,14512,1,10,0:0:0:0:
193,163,14706,1,2,0:0:0:0:
145,159,14803,1,2,0:0:0:0:
48,85,14996,1,2,0:0:0:0:
96,81,15093,1,2,0:0:0:0:
270,63,15286,1,10,0:0:0:0:
77,156,15673,5,2,0:0:0:0:
82,253,15867,1,0,0:0:0:0:
333,278,16060,1,10,0:0:0:0:
381,282,16157,1,2,0:0:0:0:
333,278,16254,1,2,0:0:0:0:
237,207,16448,1,2,0:0:0:0:
285,203,16544,1,0,0:0:0:0:
333,199,16641,1,2,0:0:0:0:
158,128,16835,1,10,0:0:0:0:
110,124,16931,1,8,0:0:0:0:
110,76,17028,1,8,0:0:0:0:
158,72,17124,1,8,0:0:0:0:
315,58,17222,5,2,0:0:0:0:
412,53,17416,1,2,0:0:0:0:
238,151,17609,1,8,0:0:0:0:
190,147,17705,1,8,0:0:0:0:
345,227,17802,1,8,0:0:0:0:
393,223,17898,1,8,0:0:0:0:
238,303,17996,1,2,0:0:0:0:
190,299,18092,1,2,0:0:0:0:
238,303,18189,1,2,0:0:0:0:
413,320,18383,1,10,0:0:0:0:
220,299,18770,5,2,0:0:0:0:
204,249,18867,1,0,0:0:0:0:
220,202,18964,1,2,0:0:0:0:
476,172,19157,1,10,0:0:0:0:
379,162,19351,1,2,0:0:0:0:
331,158,19447,1,2,0:0:0:0:
379,162,19544,1,2,0:0:0:0:
427,166,19641,1,2,0:0:0:0:
379,170,19738,1,2,0:0:0:0:
205,180,19931,1,10,0:0:0:0:
399,249,20319,5,2,0:0:0:0:
415,294,20415,1,0,0:0:0:0:
399,249,20512,1,2,0:0:0:0:
146,321,20706,1,10,0:0:0:0:
242,321,20899,1,2,0:0:0:0:
197,304,20996,1,0,0:0:0:0:
178,261,21092,1,2,0:0:0:0:
197,218,21189,1,2,0:0:0:0:
242,201,21286,1,2,0:0:0:0:
417,201,21480,1,10,0:0:0:0:
224,115,21867,5,2,0:0:0:0:
176,111,21964,1,0,0:0:0:0:
22,101,22060,1,0,0:0:0:0:
119,101,22254,1,10,0:0:0:0:
164,118,22351,1,2,0:0:0:0:
183,161,22448,1,2,0:0:0:0:
164,204,22544,1,2,0:0:0:0:
119,221,22641,1,0,0:0:0:0:
71,217,22738,1,2,0:0:0:0:
119,221,22835,1,2,0:0:0:0:
292,239,23028,1,10,0:0:0:0:
98,269,23415,5,2,0:0:0:0:
93,172,23609,1,0,0:0:0:0:
344,136,23802,1,10,0:0:0:0:
389,153,23899,1,2,0:0:0:0:
408,196,23996,1,2,0:0:0:0:
389,239,24092,1,2,0:0:0:0:
344,256,24189,1,2,0:0:0:0:
392,260,24286,1,2,0:0:0:0:
440,265,24383,1,2,0:0:0:0:
265,323,24577,1,10,0:0:0:0:
458,310,24964,5,2,0:0:0:0:
453,213,25158,1,0,0:0:0:0:
202,168,25351,1,10,0:0:0:0:
250,165,25448,1,2,0:0:0:0:
298,162,25544,1,2,0:0:0:0:
250,159,25641,1,2,0:0:0:0:
202,156,25738,1,0,0:0:0:0:
250,153,25835,1,2,0:0:0:0:
298,150,25931,1,2,0:0:0:0:
123,90,26125,1,10,0:0:0:0:
316,122,26512,5,2,0:0:0:0:
311,219,26706,1,0,0:0:0:0:
60,253,26899,1,10,0:0:0:0:
105,236,26996,1,2,0:0:0:0:
124,193,27092,1,2,0:0:0:0:
105,150,27189,1,2,0:0:0:0:
60,133,27286,1,2,0:0:0:0:
108,130,27383,1,2,0:0:0:0:
156,127,27479,1,2,0:0:0:0:
331,114,27673,1,10,0:0:0:0:
138,174,28060,5,2,0:0:0:0:
143,271,28254,1,0,0:0:0:0:
396,305,28448,1,10,0:0:0:0:
300,232,28641,1,2,0:0:0:0:
348,229,28738,1,0,0:0:0:0:
396,226,28835,1,2,0:0:0:0:
348,223,28932,1,0,0:0:0:0:
300,220,29028,1,2,0:0:0:0:
125,206,29222,1,10,0:0:0:0:
318,202,29609,5,2,0:0:0:0:
313,105,29803,1,0,0:0:0:0:
139,82,29996,1,8,0:0:0:0:
119,82,30044,1,8,0:0:0:0:
139,82,30093,1,8,0:0:0:0:
114,82,30141,1,8,0:0:0:0:
139,82,30189,1,8,0:0:0:0:
109,82,30237,1,8,0:0:0:0:
139,82,30286,1,8,0:0:0:0:
294,82,30383,5,2,0:0:0:0:
342,82,30480,1,0,0:0:0:0:
294,82,30577,1,0,0:0:0:0:
119,82,30770,1,10,0:0:0:0:
312,165,31157,5,2,0:0:0:0:
215,160,31351,1,0,0:0:0:0:
466,241,31544,1,10,0:0:0:0:
369,250,31738,1,2,0:0:0:0:
353,287,31835,1,0,0:0:0:0:
369,250,31931,1,2,0:0:0:0:
417,250,32028,1,0,0:0:0:0:
369,250,32125,1,2,0:0:0:0:
320,250,32222,1,0,0:0:0:0:
164,250,32319,1,10,0:0:0:0:
358,236,32706,5,2,0:0:0:0:
353,139,32900,1,0,0:0:0:0:
102,113,33093,1,10,0:0:0:0:
199,174,33286,1,0,0:0:0:0:
194,218,33383,1,0,0:0:0:0:
146,227,33480,1,2,0:0:0:0:
98,222,33577,1,0,0:0:0:0:
146,227,33673,1,2,0:0:0:0:
321,227,33867,5,2,0:0:0:0:
336,227,33891,1,0,0:0:0:0:
321,227,33915,1,0,0:0:0:0:
338,227,33939,1,0,0:0:0:0:
321,227,33964,1,0,0:0:0:0:
340,227,33988,1,0,0:0:0:0:
321,227,34012,1,0,0:0:0:0:
342,227,34036,1,0,0:0:0:0:
321,227,34060,1,0,0:0:0:0:
344,227,34084,1,0,0:0:0:0:
321,227,34108,1,0,0:0:0:0:
346,227,34132,1,0,0:0:0:0:
321,227,34157,1,0,0:0:0:0:
165,227,34254,5,2,0:0:0:0:
67,227,34448,1,0,0:0:0:0:
318,133,34641,1,10,0:0:0:0:
220,133,34835,1,0,0:0:0:0:
204,178,34931,1,0,0:0:0:0:
220,220,35028,1,2,0:0:0:0:
268,234,35125,1,0,0:0:0:0:
423,296,35222,1,2,0:0:0:0:
375,301,35318,1,0,0:0:0:0:
220,310,35415,1,10,0:0:0:0:
413,293,35802,5,2,0:0:0:0:
408,196,35996,1,0,0:0:0:0:
156,174,36189,1,10,0:0:0:0:
253,141,36383,1,0,0:0:0:0:
205,138,36480,1,0,0:0:0:0:
157,136,36577,1,2,0:0:0:0:
205,134,36673,1,0,0:0:0:0:
253,132,36770,1,2,0:0:0:0:
78,49,36964,5,2,0:0:0:0:
63,49,36988,1,0,0:0:0:0:
78,49,37012,1,0,0:0:0:0:
61,49,37036,1,0,0:0:0:0:
78,49,37061,1,0,0:0:0:0:
59,49,37085,1,0,0:0:0:0:
78,49,37109,1,0,0:0:0:0:
57,49,37133,1,0,0:0:0:0:
78,49,37157,1,0,0:0:0:0:
55,49,37181,1,0,0:0:0:0:
78,49,37205,1,0,0:0:0:0:
53,49,37229,1,0,0:0:0:0:
78,49,37254,1,0,0:0:0:0:
233,49,37351,5,2,0:0:0:0:
329,49,37544,1,0,0:0:0:0:
76,126,37738,1,10,0:0:0:0:
173,134,37931,1,0,0:0:0:0:
221,137,38028,1,0,0:0:0:0:
221,195,38125,1,2,0:0:0:0:
173,198,38222,1,2,0:0:0:0:
18,272,38319,1,2,0:0:0:0:
66,275,38416,1,0,0:0:0:0:
220,290,38512,1,10,0:0:0:0:
27,274,38899,5,2,0:0:0:0:
32,177,39093,1,0,0:0:0:0:
284,155,39286,1,10,0:0:0:0:
381,155,39480,1,0,0:0:0:0:
336,172,39577,1,0,0:0:0:0:
317,215,39673,1,2,0:0:0:0:
336,258,39770,1,2,0:0:0:0:
381,275,39867,1,2,0:0:0:0:
333,278,39964,1,0,0:0:0:0:
179,285,40060,1,8,0:0:0:0:
276,265,40254,1,2,0:0:0:0:
279,217,40351,1,2,0:0:0:0:
