osu file format v14

[General]
AudioFilename: audio.mp3
AudioLeadIn: 0
PreviewTime: 9431
Countdown: 0
SampleSet: Soft
StackLeniency: 0.7
Mode: 2
LetterboxInBreaks: 0
WidescreenStoryboard: 0

[Editor]
Bookmarks: 9480,40351
DistanceSpacing: 3.1
BeatDivisor: 4
GridSize: 4
TimelineZoom: 4.299998

[Metadata]
Title:2DF2
TitleUnicode:2DF2
Artist:fiend
ArtistUnicode:fiend
Creator:Kimitakari
Version:Overdose
Source:
Tags:nelly featured artist fa mappers' guild mpg rap q1x feind 2d2f 2f2d 2fd2 bonus track breakcore experimental jungle youngster jiji kamiyada+ fever dream drum and bass dnb hip-hop hip hop english
BeatmapID:4455841
BeatmapSetID:2120798

[Difficulty]
HPDrainRate:6
CircleSize:5
OverallDifficulty:9
ApproachRate:9
SliderMultiplier:2.13
SliderTickRate:1

[Events]
//Background and Video events
0,0,"FIENDCOVER.jpg",0,0
//Break Periods
//Storyboard Layer 0 (Background)
//Storyboard Layer 1 (Fail)
//Storyboard Layer 2 (Pass)
//Storyboard Layer 3 (Foreground)
//Storyboard Layer 4 (Overlay)
//Storyboard Sound Samples

[TimingPoints]
190,387.096774193548,4,2,1,20,1,0
6383,-100,4,2,1,20,0,0
6770,-100,4,2,1,25,0,0
7157,-100,4,2,1,30,0,0
7544,-100,4,2,1,35,0,0
7931,-100,4,2,1,40,0,0
8319,-100,4,2,1,45,0,0
8706,-100,4,2,1,50,0,0
9093,-100,4,2,1,55,0,0
9286,-100,4,2,1,5,0,0
9480,-100,4,2,1,60,0,0
29996,-100,4,2,1,25,0,0
30044,-100,4,2,1,31,0,0
30093,-100,4,2,1,36,0,0
30141,-100,4,2,1,42,0,0
30189,-100,4,2,1,48,0,0
30238,-100,4,2,1,54,0,0
30286,-100,4,2,1,57,0,0
30383,-100,4,2,1,60,0,0
33891,-100,4,2,1,25,0,0
33939,-100,4,2,1,31,0,0
33988,-100,4,2,1,36,0,0
34036,-100,4,2,1,42,0,0
34085,-100,4,2,1,48,0,0
34133,-100,4,2,1,54,0,0
34254,-100,4,2,1,60,0,0
36988,-100,4,2,1,25,0,0
37036,-100,4,2,1,31,0,0
37085,-100,4,2,1,36,0,0
37133,-100,4,2,1,42,0,0
37181,-100,4,2,1,48,0,0
37230,-100,4,2,1,54,0,0
37351,-100,4,2,1,60,0,0

[Colours]
Combo1 : 253,39,37
Combo2 : 114,157,148

[HitObjects]
256,192,6383,12,0,9286,0:0:0:0:
382,335,9480,5,6,0:0:0:0:
371,235,9673,1,0,0:0:0:0:
115,191,9867,1,10,0:0:0:0:
110,145,9964,1,2,0:0:0:0:
163,110,10060,1,2,0:0:0:0:
110,105,10157,1,2,0:0:0:0:
260,71,10254,1,2,0:0:0:0:
313,66,10351,1,2,0:0:0:0:
260,71,10447,1,2,0:0:0:0:
255,117,10544,1,0,0:0:0:0:
405,198,10641,1,8,0:0:0:0:
193,215,11028,5,2,0:0:0:0:
342,235,11125,1,2,0:0:0:0:
395,240,11222,1,2,0:0:0:0:
342,235,11318,1,2,0:0:0:0:
193,215,11415,1,10,0:0:0:0:
239,209,11512,1,2,0:0:0:0:
285,203,11609,1,2,0:0:0:0:
239,197,11706,1,2,0:0:0:0:
387,138,11802,1,2,0:0:0:0:
440,143,11899,1,2,0:0:0:0:
387,138,11995,1,2,0:0:0:0:
131,110,12189,1,10,0:0:0:0:
120,210,12382,1,0,0:0:0:0:
377,302,12577,5,2,0:0:0:0:
229,296,12673,1,2,0:0:0:0:
224,249,12770,1,2,0:0:0:0:
480,198,12964,1,10,0:0:0:0:
374,126,13157,1,2,0:0:0:0:
427,121,13254,1,2,0:0:0:0:
277,49,13351,1,2,0:0:0:0:
330,54,13448,1,2,0:0:0:0:
277,49,13544,1,2,0:0:0:0:
272,95,13641,1,0,0:0:0:0:
422,162,13738,1,10,0:0:0:0:
209,247,14125,5,2,0:0:0:0:
369,245,14222,1,0,0:0:0:0:
316,238,14319,1,2,0:0:0:0:
61,182,14512,1,10,0:0:0:0:
168,157,14706,1,2,0:0:0:0:
115,165,14802,1,2,0:0:0:0:
110,211,14899,1,0,0:0:0:0:
262,252,14996,1,2,0:0:0:0:
115,165,15093,1,2,0:0:0:0:
110,211,15190,1,0,0:0:0:0:
262,252,15286,1,10,0:0:0:0:
49,325,15673,5,2,0:0:0:0:
60,225,15866,1,0,0:0:0:0:
316,181,16060,1,10,0:0:0:0:
263,186,16157,1,2,0:0:0:0:
316,181,16253,1,2,0:0:0:0:
321,227,16350,1,0,0:0:0:0:
170,308,16448,1,2,0:0:0:0:
223,303,16545,1,0,0:0:0:0:
371,289,16641,1,2,0:0:0:0:
115,207,16835,1,10,0:0:0:0:
263,195,16931,1,8,0:0:0:0:
411,183,17028,1,8,0:0:0:0:
263,171,17125,1,8,0:0:0:0:
115,159,17222,5,2,0:0:0:0:
126,259,17415,1,2,0:0:0:0:
179,264,17512,1,2,0:0:0:0:
360,358,17609,1,8,0:0:0:0:
212,346,17705,1,8,0:0:0:0:
64,334,17802,1,8,0:0:0:0:
212,322,17899,1,8,0:0:0:0:
360,310,17996,1,2,0:0:0:0:
307,305,18093,1,2,0:0:0:0:
360,310,18189,1,2,0:0:0:0:
365,263,18286,1,0,0:0:0:0:
215,216,18383,1,10,0:0:0:0:
427,201,18770,5,2,0:0:0:0:
444,150,18867,1,0,0:0:0:0:
427,103,18963,1,2,0:0:0:0:
160,71,19157,1,10,0:0:0:0:
267,63,19351,1,2,0:0:0:0:
118,46,19448,1,2,0:0:0:0:
65,51,19545,1,2,0:0:0:0:
118,46,19641,1,2,0:0:0:0:
267,132,19738,1,2,0:0:0:0:
214,127,19834,1,0,0:0:0:0:
65,116,19931,1,10,0:0:0:0:
278,212,20319,5,2,0:0:0:0:
119,223,20415,1,0,0:0:0:0:
172,219,20512,1,2,0:0:0:0:
428,300,20706,1,10,0:0:0:0:
322,234,20899,1,2,0:0:0:0:
375,239,20996,1,0,0:0:0:0:
322,234,21092,1,2,0:0:0:0:
471,167,21189,1,2,0:0:0:0:
418,162,21285,1,2,0:0:0:0:
161,135,21480,1,10,0:0:0:0:
150,235,21673,1,0,0:0:0:0:
406,328,21867,5,2,0:0:0:0:
257,316,21964,1,0,0:0:0:0:
204,311,22060,1,0,0:0:0:0:
460,253,22254,1,10,0:0:0:0:
465,200,22351,1,2,0:0:0:0:
412,165,22448,1,2,0:0:0:0:
465,160,22545,1,2,0:0:0:0:
317,97,22641,1,0,0:0:0:0:
370,92,22738,1,2,0:0:0:0:
423,87,22835,1,2,0:0:0:0:
168,30,23028,1,10,0:0:0:0:
380,105,23415,5,2,0:0:0:0:
369,205,23608,1,0,0:0:0:0:
113,232,23802,1,10,0:0:0:0:
262,249,23899,1,2,0:0:0:0:
315,254,23996,1,2,0:0:0:0:
262,249,24092,1,2,0:0:0:0:
113,232,24189,1,2,0:0:0:0:
166,227,24285,1,2,0:0:0:0:
112,217,24383,1,2,0:0:0:0:
107,164,24479,1,0,0:0:0:0:
258,111,24577,1,10,0:0:0:0:
46,149,24964,5,2,0:0:0:0:
57,249,25157,1,0,0:0:0:0:
313,276,25351,1,10,0:0:0:0:
163,264,25448,1,2,0:0:0:0:
168,211,25544,1,2,0:0:0:0:
318,199,25641,1,2,0:0:0:0:
164,158,25738,1,0,0:0:0:0:
111,163,25835,1,2,0:0:0:0:
164,158,25931,1,2,0:0:0:0:
420,142,26125,1,10,0:0:0:0:
431,242,26318,1,0,0:0:0:0:
175,318,26512,5,2,0:0:0:0:
275,307,26705,1,0,0:0:0:0:
19,268,26899,1,10,0:0:0:0:
72,263,26995,1,2,0:0:0:0:
19,268,27093,1,2,0:0:0:0:
14,215,27189,1,2,0:0:0:0:
164,144,27286,1,2,0:0:0:0:
217,149,27382,1,2,0:0:0:0:
164,144,27480,1,2,0:0:0:0:
159,197,27576,1,0,0:0:0:0:
309,248,27673,1,10,0:0:0:0:
97,356,28060,5,2,0:0:0:0:
108,256,28253,1,0,0:0:0:0:
366,222,28448,1,10,0:0:0:0:
260,202,28641,1,2,0:0:0:0:
255,149,28737,1,0,0:0:0:0:
104,155,28835,1,2,0:0:0:0:
109,102,28931,1,0,0:0:0:0:
162,95,29028,1,2,0:0:0:0:
418,83,29222,1,10,0:0:0:0:
429,174,29415,1,0,0:0:0:0:
376,179,29511,1,0,0:0:0:0:
225,187,29609,5,2,0:0:0:0:
125,176,29802,1,0,0:0:0:0:
369,333,29996,1,8,0:0:0:0:
393,333,30044,1,8,0:0:0:0:
369,333,30093,1,8,0:0:0:0:
398,333,30141,1,8,0:0:0:0:
369,333,30189,1,8,0:0:0:0:
403,333,30237,1,8,0:0:0:0:
369,333,30286,1,8,0:0:0:0:
220,333,30383,5,2,0:0:0:0:
167,338,30479,1,0,0:0:0:0:
220,333,30577,1,0,0:0:0:0:
475,319,30770,1,10,0:0:0:0:
464,227,30964,1,0,0:0:0:0:
411,222,31060,1,0,0:0:0:0:
264,151,31157,5,2,0:0:0:0:
364,140,31350,1,0,0:0:0:0:
108,64,31544,1,10,0:0:0:0:
258,68,31641,1,0,0:0:0:0:
311,73,31738,1,2,0:0:0:0:
258,68,31835,1,0,0:0:0:0:
108,141,31931,1,2,0:0:0:0:
161,136,32029,1,0,0:0:0:0:
309,123,32125,1,2,0:0:0:0:
53,218,32319,1,10,0:0:0:0:
42,308,32512,1,0,0:0:0:0:
95,313,32610,1,0,0:0:0:0:
244,372,32706,5,2,0:0:0:0:
144,383,32899,1,0,0:0:0:0:
400,307,33093,1,10,0:0:0:0:
294,288,33286,1,0,0:0:0:0:
289,235,33384,1,0,0:0:0:0:
437,179,33480,1,2,0:0:0:0:
490,184,33578,1,0,0:0:0:0:
437,179,33673,1,2,0:0:0:0:
181,167,33867,5,2,0:0:0:0:
164,167,33891,1,0,0:0:0:0:
181,167,33915,1,0,0:0:0:0:
162,167,33939,1,0,0:0:0:0:
181,167,33964,1,0,0:0:0:0:
160,167,33988,1,0,0:0:0:0:
181,167,34012,1,0,0:0:0:0:
158,167,34036,1,0,0:0:0:0:
181,167,34060,1,0,0:0:0:0:
156,167,34084,1,0,0:0:0:0:
181,167,34108,1,0,0:0:0:0:
154,167,34132,1,0,0:0:0:0:
181,167,34157,1,0,0:0:0:0:
331,167,34254,5,2,0:0:0:0:
431,178,34447,1,0,0:0:0:0:
175,271,34641,1,10,0:0:0:0:
282,260,34835,1,0,0:0:0:0:
287,207,34931,1,0,0:0:0:0:
137,162,35028,1,2,0:0:0:0:
190,157,35126,1,0,0:0:0:0:
137,162,35222,1,2,0:0:0:0:
132,109,35320,1,0,0:0:0:0:
279,72,35415,1,10,0:0:0:0:
290,158,35609,1,0,0:0:0:0:
237,163,35705,1,0,0:0:0:0:
87,239,35802,5,2,0:0:0:0:
173,250,35996,1,0,0:0:0:0:
428,277,36189,1,10,0:0:0:0:
321,261,36383,1,0,0:0:0:0:
316,208,36481,1,0,0:0:0:0:
168,158,36577,1,2,0:0:0:0:
116,163,36673,1,0,0:0:0:0:
168,158,36770,1,2,0:0:0:0:
424,135,36964,5,2,0:0:0:0:
441,135,36988,1,0,0:0:0:0:
424,135,37012,1,0,0:0:0:0:
443,135,37036,1,0,0:0:0:0:
424,135,37061,1,0,0:0:0:0:
445,135,37085,1,0,0:0:0:0:
424,135,37109,1,0,0:0:0:0:
447,135,37133,1,0,0:0:0:0:
424,135,37157,1,0,0:0:0:0:
449,135,37181,1,0,0:0:0:0:
424,135,37205,1,0,0:0:0:0:
451,135,37229,1,0,0:0:0:0:
424,135,37254,1,0,0:0:0:0:
275,135,37351,5,2,0:0:0:0:
189,146,37545,1,0,0:0:0:0:
444,238,37738,1,10,0:0:0:0:
338,250,37931,1,0,0:0:0:0:
333,197,38028,1,0,0:0:0:0:
387,161,38125,1,2,0:0:0:0:
440,166,38221,1,2,0:0:0:0:
387,161,38319,1,2,0:0:0:0:
132,138,38512,1,10,0:0:0:0:
121,234,38706,1,0,0:0:0:0:
174,229,38802,1,0,0:0:0:0:
324,211,38899,5,2,0:0:0:0:
410,200,39093,1,0,0:0:0:0:
155,324,39286,1,10,0:0:0:0:
262,306,39480,1,0,0:0:0:0:
267,253,39576,1,0,0:0:0:0:
214,265,39673,1,2,0:0:0:0:
209,212,39769,1,2,0:0:0:0:
263,193,39867,1,2,0:0:0:0:
8,155,40060,1,8,0:0:0:0:
115,190,40254,1,2,0:0:0:0:
120,243,40350,1,2,0:0:0:0:
