osu file format v14

[General]
AudioFilename: audio.mp3
AudioLeadIn: 0
PreviewTime: 9431
Countdown: 0
SampleSet: Soft
StackLeniency: 0.7
Mode: 2
LetterboxInBreaks: 0
WidescreenStoryboard: 1

[Editor]
Bookmarks: 9480,40351
DistanceSpacing: 1
BeatDivisor: 4
GridSize: 4
TimelineZoom: 1.8

[Metadata]
Title:2DF2
TitleUnicode:2DF2
Artist:fiend
ArtistUnicode:fiend
Creator:Kimitakari
Version:Cup
Source:
Tags:nelly featured artist fa mappers' guild mpg rap q1x feind 2d2f 2f2d 2fd2 bonus track breakcore experimental jungle youngster jiji kamiyada+ fever dream drum and bass dnb hip-hop hip hop english
BeatmapID:4456162
BeatmapSetID:2120798

[Difficulty]
HPDrainRate:2
CircleSize:3
OverallDifficulty:6
ApproachRate:6
SliderMultiplier:1.4
SliderTickRate:1

[Events]
//Background and Video events
0,0,"FIENDCOVER.jpg",0,0
//Break Periods
//Storyboard Layer 0 (Background)
//Storyboard Layer 1 (Fail)
//Storyboard Layer 2 (Pass)
//Storyboard Layer 3 (Foreground)
//Storyboard Layer 4 (Overlay)
//Storyboard Sound Samples

[TimingPoints]
190,387.096774193548,4,2,1,20,1,0
6770,-100,4,2,1,25,0,0
7157,-100,4,2,1,30,0,0
7544,-100,4,2,1,35,0,0
7931,-100,4,2,1,40,0,0
8319,-100,4,2,1,45,0,0
8706,-100,4,2,1,50,0,0
9093,-100,4,2,1,55,0,0
9286,-100,4,2,1,5,0,0
9480,-100,4,2,1,60,0,0
30044,-100,4,2,1,31,0,0
30093,-100,4,2,1,36,0,0
30141,-100,4,2,1,42,0,0
30189,-100,4,2,1,48,0,0
30238,-100,4,2,1,54,0,0
30286,-100,4,2,1,57,0,0
30383,-100,4,2,1,60,0,0
33891,-100,4,2,1,25,0,0
33939,-100,4,2,1,31,0,0
33988,-100,4,2,1,36,0,0
34036,-100,4,2,1,42,0,0
34085,-100,4,2,1,48,0,0
34133,-100,4,2,1,54,0,0
34254,-100,4,2,1,60,0,0
36988,-100,4,2,1,25,0,0
37036,-100,4,2,1,31,0,0
37085,-100,4,2,1,36,0,0
37133,-100,4,2,1,42,0,0
37181,-100,4,2,1,48,0,0
37230,-100,4,2,1,54,0,0
37351,-100,4,2,1,60,0,0

[Colours]
Combo1 : 253,39,37
Combo2 : 114,157,148

[HitObjects]
256,192,6383,12,0,9093,0:0:0:0:
384,192,9480,5,6,0:0:0:0:
244,192,9867,1,10,0:0:0:0:
230,192,10254,1,2,0:0:0:0:
90,192,10641,1,8,0:0:0:0:
230,192,11028,5,2,0:0:0:0:
253,192,11222,1,2,0:0:0:0:
230,192,11415,1,10,0:0:0:0:
90,192,11802,1,2,0:0:0:0:
104,192,12189,1,10,0:0:0:0:
244,192,12577,5,2,0:0:0:0:
174,192,12770,1,2,0:0:0:0:
103,192,12964,1,10,0:0:0:0:
116,192,13351,1,2,0:0:0:0:
255,192,13738,1,10,0:0:0:0:
394,192,14125,5,2,0:0:0:0:
417,192,14319,1,2,0:0:0:0:
394,192,14512,1,10,0:0:0:0:
254,192,14899,1,0,0:0:0:0:
393,192,15286,1,10,0:0:0:0:
379,192,15673,5,2,0:0:0:0:
254,192,16060,1,10,0:0:0:0:
115,192,16448,1,2,0:0:0:0:
102,192,16835,1,10,0:0:0:0:
242,192,17222,5,2,0:0:0:0:
173,192,17415,1,2,0:0:0:0:
103,192,17609,1,8,0:0:0:0:
90,192,17996,1,2,0:0:0:0:
230,192,18383,1,10,0:0:0:0:
370,192,18770,5,2,0:0:0:0:
231,192,19157,1,10,0:0:0:0:
370,192,19544,1,2,0:0:0:0:
393,192,19738,1,2,0:0:0:0:
370,192,19931,1,10,0:0:0:0:
230,192,20319,5,2,0:0:0:0:
300,192,20512,1,2,0:0:0:0:
371,192,20706,1,10,0:0:0:0:
385,192,21093,1,2,0:0:0:0:
246,192,21480,1,10,0:0:0:0:
107,192,21867,5,2,0:0:0:0:
84,192,22061,1,0,0:0:0:0:
107,192,22254,1,10,0:0:0:0:
246,192,22641,1,0,0:0:0:0:
386,192,23028,1,10,0:0:0:0:
246,192,23415,5,2,0:0:0:0:
317,192,23609,1,0,0:0:0:0:
387,192,23802,1,10,0:0:0:0:
374,192,24189,1,2,0:0:0:0:
234,192,24577,1,10,0:0:0:0:
374,192,24964,5,2,0:0:0:0:
397,192,25158,1,0,0:0:0:0:
374,192,25351,1,10,0:0:0:0:
235,192,25738,1,0,0:0:0:0:
96,192,26125,1,10,0:0:0:0:
235,192,26512,5,2,0:0:0:0:
258,192,26706,1,0,0:0:0:0:
235,192,26899,1,10,0:0:0:0:
96,192,27286,1,2,0:0:0:0:
236,192,27673,1,10,0:0:0:0:
376,192,28060,5,2,0:0:0:0:
306,192,28254,1,0,0:0:0:0:
236,192,28448,1,10,0:0:0:0:
223,192,28835,1,2,0:0:0:0:
363,192,29222,1,10,0:0:0:0:
223,192,29609,5,2,0:0:0:0:
210,192,29996,1,8,0:0:0:0:
71,192,30383,1,2,0:0:0:0:
48,192,30577,1,0,0:0:0:0:
71,192,30770,1,10,0:0:0:0:
211,192,31157,5,2,0:0:0:0:
141,192,31351,1,0,0:0:0:0:
72,192,31544,1,10,0:0:0:0:
86,192,31931,1,2,0:0:0:0:
227,192,32319,1,10,0:0:0:0:
367,192,32706,5,2,0:0:0:0:
390,192,32900,1,0,0:0:0:0:
367,192,33093,1,10,0:0:0:0:
228,192,33480,1,2,0:0:0:0:
242,192,33867,1,2,0:0:0:0:
382,192,34254,5,2,0:0:0:0:
405,192,34448,1,0,0:0:0:0:
382,192,34641,1,10,0:0:0:0:
173,192,35222,1,2,0:0:0:0:
242,192,35415,1,10,0:0:0:0:
382,192,35802,5,2,0:0:0:0:
405,192,35996,1,0,0:0:0:0:
382,192,36189,1,10,0:0:0:0:
168,192,36770,1,2,0:0:0:0:
162,192,36963,1,2,0:0:0:0:
303,192,37351,5,2,0:0:0:0:
234,192,37544,1,0,0:0:0:0:
164,192,37738,1,10,0:0:0:0:
375,192,38319,1,2,0:0:0:0:
381,192,38512,1,10,0:0:0:0:
242,192,38899,5,2,0:0:0:0:
219,192,39093,1,0,0:0:0:0:
242,192,39286,1,10,0:0:0:0:
453,192,39867,1,2,0:0:0:0:
447,192,40060,1,8,0:0:0:0:
377,192,40254,1,2,0:0:0:0:
342,192,40351,1,2,0:0:0:0:
