osu file format v14

[General]
AudioFilename: audio.mp3
AudioLeadIn: 0
PreviewTime: 18722
Countdown: 0
SampleSet: Normal
StackLeniency: 0.7
Mode: 1
LetterboxInBreaks: 0
WidescreenStoryboard: 1

[Editor]
Bookmarks: 11028
DistanceSpacing: 1.5
BeatDivisor: 4
GridSize: 4
TimelineZoom: 2

[Metadata]
Title:2DF2
TitleUnicode:2DF2
Artist:fiend
ArtistUnicode:fiend
Creator:Horiiizon
Version:Muzukashii
Source:
Tags:breakcore dnb drum n bass and & jungle hip hop hip-hop electronic english fa featured artist osu!
BeatmapID:3150769
BeatmapSetID:1541350

[Difficulty]
HPDrainRate:7
CircleSize:5
OverallDifficulty:5
ApproachRate:5
SliderMultiplier:1.4
SliderTickRate:1

[Events]
//Background and Video events
0,0,"2df2.jpg",0,-30
//Break Periods
//Storyboard Layer 0 (Background)
//Storyboard Layer 1 (Fail)
//Storyboard Layer 2 (Pass)
//Storyboard Layer 3 (Foreground)
//Storyboard Layer 4 (Overlay)
//Storyboard Sound Samples

[TimingPoints]
190,387.096774193548,4,1,0,20,1,0
190,-125,4,1,0,20,0,0
6383,-125,4,1,0,20,0,0
6770,-125,4,1,0,24,0,0
7157,-125,4,1,0,29,0,0
7544,-125,4,1,0,33,0,0
7931,-100,4,1,0,37,0,0
8319,-100,4,1,0,41,0,0
8706,-100,4,1,0,46,0,0
9093,-100,4,1,0,50,0,0
9431,-83.3333333333333,4,1,0,70,0,0
34060,-86.9565217391304,4,1,0,70,0,0
34157,-88.8888888888889,4,1,0,70,0,0
34230,-90.9090909090909,4,1,0,60,0,0
37157,-95.2380952380952,4,1,0,60,0,0
37254,-97.5609756097561,4,1,0,60,0,0
37351,-100,4,1,0,60,0,0
40399,-117.647058823529,4,1,0,30,0,0
41996,-133.333333333333,4,1,0,30,0,0
43544,-153.846153846154,4,1,0,30,0,0
45093,-181.818181818182,4,1,0,30,0,0

[HitObjects]
256,192,6383,12,0,9093,0:0:0:0:
196,163,9480,5,0,0:0:0:0:
194,184,9673,1,0,0:0:0:0:
194,184,9867,1,8,0:0:0:0:
177,195,10157,1,8,0:0:0:0:
177,195,10351,1,0,0:0:0:0:
183,141,10448,1,0,0:0:0:0:
184,126,10641,1,8,0:0:0:0:
184,157,11028,1,8,0:0:0:0:
184,157,11125,1,8,0:0:0:0:
150,183,11222,1,8,0:0:0:0:
176,125,11415,1,0,0:0:0:0:
148,165,11609,1,8,0:0:0:0:
186,180,11706,1,8,0:0:0:0:
174,172,11899,1,0,0:0:0:0:
184,157,11996,1,0,0:0:0:0:
175,137,12189,1,8,0:0:0:0:
167,107,12577,1,0,0:0:0:0:
168,103,12673,1,0,0:0:0:0:
176,112,12770,1,0,0:0:0:0:
177,128,12964,1,8,0:0:0:0:
187,140,13254,1,8,0:0:0:0:
168,138,13448,1,0,0:0:0:0:
167,107,13544,1,0,0:0:0:0:
181,107,13738,1,8,0:0:0:0:
187,145,14125,1,8,0:0:0:0:
171,101,14222,1,8,0:0:0:0:
171,101,14319,1,8,0:0:0:0:
178,132,14512,1,0,0:0:0:0:
193,141,14706,1,8,0:0:0:0:
151,171,14802,1,8,0:0:0:0:
181,137,14996,1,0,0:0:0:0:
191,123,15093,1,0,0:0:0:0:
191,124,15286,1,0,0:0:0:0:
187,157,15673,1,0,0:0:0:0:
215,172,15867,1,0,0:0:0:0:
215,172,16060,1,8,0:0:0:0:
182,153,16351,1,8,0:0:0:0:
183,141,16641,1,0,0:0:0:0:
184,126,16834,1,8,0:0:0:0:
187,129,16931,1,8,0:0:0:0:
188,132,17028,1,8,0:0:0:0:
170,91,17222,1,0,0:0:0:0:
171,167,17609,1,8,0:0:0:0:
173,119,17706,1,8,0:0:0:0:
173,119,17802,1,8,0:0:0:0:
170,137,17899,1,8,0:0:0:0:
177,137,18093,1,0,0:0:0:0:
178,137,18189,1,0,0:0:0:0:
186,153,18382,1,0,0:0:0:0:
172,144,18770,1,0,0:0:0:0:
176,173,18867,1,0,0:0:0:0:
149,130,18964,1,0,0:0:0:0:
167,123,19157,1,8,0:0:0:0:
190,176,19448,1,8,0:0:0:0:
190,176,19641,1,0,0:0:0:0:
167,107,19737,1,0,0:0:0:0:
175,125,19931,1,8,0:0:0:0:
188,165,20319,1,8,0:0:0:0:
186,169,20415,1,8,0:0:0:0:
183,169,20512,1,8,0:0:0:0:
168,145,20706,1,0,0:0:0:0:
194,129,20899,1,8,0:0:0:0:
187,130,20996,1,8,0:0:0:0:
187,143,21189,1,0,0:0:0:0:
181,127,21286,1,0,0:0:0:0:
191,124,21479,1,0,0:0:0:0:
163,212,21867,1,0,0:0:0:0:
163,212,21964,1,0,0:0:0:0:
163,212,22060,1,0,0:0:0:0:
171,174,22254,1,8,0:0:0:0:
171,174,22544,1,8,0:0:0:0:
182,171,22738,1,0,0:0:0:0:
183,141,22835,1,0,0:0:0:0:
184,126,23028,1,8,0:0:0:0:
172,142,23415,1,0,0:0:0:0:
185,134,23609,1,0,0:0:0:0:
194,145,23802,1,8,0:0:0:0:
163,97,23996,1,8,0:0:0:0:
167,130,24093,1,8,0:0:0:0:
174,98,24286,1,0,0:0:0:0:
166,80,24383,1,0,0:0:0:0:
191,54,24577,1,8,0:0:0:0:
140,162,24964,1,0,0:0:0:0:
180,159,25157,1,0,0:0:0:0:
180,159,25351,1,8,0:0:0:0:
163,130,25641,1,8,0:0:0:0:
204,169,25835,1,0,0:0:0:0:
167,107,25931,1,0,0:0:0:0:
181,107,26125,1,8,0:0:0:0:
128,129,26512,1,0,0:0:0:0:
176,145,26706,1,0,0:0:0:0:
176,104,26899,1,8,0:0:0:0:
179,117,27093,1,8,0:0:0:0:
146,167,27190,1,8,0:0:0:0:
172,92,27383,1,0,0:0:0:0:
156,161,27480,1,0,0:0:0:0:
140,176,27673,1,8,0:0:0:0:
160,163,28060,1,0,0:0:0:0:
154,167,28254,1,0,0:0:0:0:
181,178,28448,1,8,0:0:0:0:
175,163,28738,1,8,0:0:0:0:
171,145,28931,1,0,0:0:0:0:
137,147,29028,1,0,0:0:0:0:
184,126,29221,1,8,0:0:0:0:
183,189,29609,1,0,0:0:0:0:
192,162,29802,1,0,0:0:0:0:
186,134,29996,1,8,0:0:0:0:
170,138,30189,1,8,0:0:0:0:
178,132,30286,1,8,0:0:0:0:
184,140,30383,1,8,0:0:0:0:
183,189,30577,1,0,0:0:0:0:
134,123,30770,1,8,0:0:0:0:
172,157,31157,1,0,0:0:0:0:
177,169,31351,1,0,0:0:0:0:
165,162,31544,1,8,0:0:0:0:
171,138,31835,1,8,0:0:0:0:
194,140,32028,1,0,0:0:0:0:
167,107,32124,1,0,0:0:0:0:
181,107,32318,1,8,0:0:0:0:
176,150,32706,1,0,0:0:0:0:
176,150,32899,1,0,0:0:0:0:
176,139,33093,1,8,0:0:0:0:
161,127,33286,1,8,0:0:0:0:
169,150,33383,1,8,0:0:0:0:
166,116,33577,1,0,0:0:0:0:
197,168,33673,1,0,0:0:0:0:
184,119,33867,1,0,0:0:0:0:
184,119,34060,1,0,0:0:0:0:
191,123,34157,1,0,0:0:0:0:
158,139,34254,1,0,0:0:0:0:
188,128,34641,1,8,0:0:0:0:
174,136,34931,1,8,0:0:0:0:
162,118,35125,1,0,0:0:0:0:
183,141,35222,1,0,0:0:0:0:
184,126,35415,1,8,0:0:0:0:
184,162,35802,1,0,0:0:0:0:
189,162,35996,1,0,0:0:0:0:
168,138,36189,1,8,0:0:0:0:
164,111,36480,1,8,0:0:0:0:
168,97,36673,1,0,0:0:0:0:
159,163,36770,1,0,0:0:0:0:
181,221,36964,1,8,0:0:0:0:
187,225,37157,1,8,0:0:0:0:
187,227,37254,1,8,0:0:0:0:
201,166,37351,1,8,0:0:0:0:
159,186,37544,1,0,0:0:0:0:
170,189,37738,1,8,0:0:0:0:
161,132,38028,1,8,0:0:0:0:
186,142,38222,1,0,0:0:0:0:
167,107,38318,1,0,0:0:0:0:
181,107,38512,1,8,0:0:0:0:
193,150,38899,1,0,0:0:0:0:
173,124,39093,1,0,0:0:0:0:
175,123,39286,1,8,0:0:0:0:
155,94,39577,1,8,0:0:0:0:
186,108,39770,1,0,0:0:0:0:
191,123,39867,1,0,0:0:0:0:
191,124,40060,1,0,0:0:0:0:
234,137,40448,1,4,0:0:0:0:
166,162,41996,1,4,0:0:0:0:
202,189,43544,1,4,0:0:0:0:
208,189,45093,1,4,0:0:0:0:
