osu file format v14

[General]
AudioFilename: audio.mp3
AudioLeadIn: 0
PreviewTime: 9480
Countdown: 0
SampleSet: Normal
StackLeniency: 0.7
Mode: 1
LetterboxInBreaks: 0
WidescreenStoryboard: 1

[Editor]
Bookmarks: 16835,17222,17609,17996,21867
DistanceSpacing: 1.5
BeatDivisor: 4
GridSize: 32
TimelineZoom: 1.9

[Metadata]
Title:2DF2
TitleUnicode:2DF2
Artist:fiend
ArtistUnicode:fiend
Creator:Chatter
Version:Oni
Source:
Tags:english fa featured artist rap drum and n bass dnb hip hop hip-hop FEVER DREAM breakcore break core Chatterzard_ Chatterzard
BeatmapID:3024619
BeatmapSetID:1433815

[Difficulty]
HPDrainRate:6.5
CircleSize:2
OverallDifficulty:5.5
ApproachRate:10
SliderMultiplier:1.4
SliderTickRate:1

[Events]
//Background and Video events
0,0,"cover.jpg",0,0
//Break Periods
//Storyboard Layer 0 (Background)
//Storyboard Layer 1 (Fail)
//Storyboard Layer 2 (Pass)
//Storyboard Layer 3 (Foreground)
//Storyboard Layer 4 (Overlay)
//Storyboard Sound Samples

[TimingPoints]
190,387.096774193548,4,1,0,5,1,0
3867,-100,4,1,0,6,0,0
4254,-100,4,1,0,7,0,0
4835,-100,4,1,0,8,0,0
4931,-99.009900990099,4,1,0,10,0,0
5028,-98.0392156862745,4,1,0,12,0,0
5125,-97.0873786407767,4,1,0,14,0,0
5222,-96.1538461538461,4,1,0,16,0,0
5319,-95.2380952380952,4,1,0,18,0,0
5415,-94.3396226415094,4,1,0,20,0,0
5512,-92.5925925925926,4,1,0,22,0,0
5609,-91.743119266055,4,1,0,24,0,0
5706,-90.9090909090909,4,1,0,26,0,0
5802,-90.0900900900901,4,1,0,28,0,0
5996,-89.2857142857143,4,1,0,30,0,0
6383,-86.9565217391304,4,1,0,36,0,0
6480,-86.2068965517241,4,1,0,38,0,0
6577,-85.4700854700855,4,1,0,40,0,0
6673,-84.7457627118644,4,1,0,42,0,0
6770,-84.0336134453781,4,1,0,44,0,0
6867,-83.3333333333333,4,1,0,46,0,0
6964,-82.6446280991736,4,1,0,48,0,0
7060,-81.9672131147541,4,1,0,50,0,0
7157,-81.3008130081301,4,1,0,50,0,0
7931,-81.9672131147541,4,1,0,50,0,0
8125,-83.3333333333333,4,1,0,50,0,0
8319,-85.4700854700855,4,1,0,50,0,0
8512,-86.9565217391304,4,1,0,50,0,0
8609,-89.2857142857143,4,1,0,50,0,0
8706,-90.9090909090909,4,1,0,50,0,0
8802,-93.4579439252336,4,1,0,50,0,0
8899,-95.2380952380952,4,1,0,50,0,0
9093,-98.0392156862745,4,1,0,50,0,0
16060,-100,4,1,0,50,0,0
16835,-83.3333333333333,4,1,0,50,0,0
16931,-86.9565217391304,4,1,0,50,0,0
17028,-90.9090909090909,4,1,0,50,0,0
17125,-95.2380952380952,4,1,0,50,0,0
17222,-100,4,1,0,50,0,0
17609,-83.3333333333333,4,1,0,50,0,0
17705,-86.9565217391304,4,1,0,50,0,0
17802,-90.9090909090909,4,1,0,50,0,0
17899,-95.2380952380952,4,1,0,50,0,0
17996,-100,4,1,0,50,0,0
18867,-99.009900990099,4,1,0,50,0,0
18964,-98.0392156862745,4,1,0,50,0,0
19060,-97.0873786407767,4,1,0,50,0,0
19157,-96.1538461538461,4,1,0,50,0,0
19351,-95.2380952380952,4,1,0,50,0,0
19448,-96.1538461538461,4,1,0,50,0,0
19544,-97.0873786407767,4,1,0,50,0,0
19641,-98.0392156862745,4,1,0,50,0,0
19738,-99.009900990099,4,1,0,50,0,0
19931,-100,4,1,0,50,0,0
20415,-99.009900990099,4,1,0,50,0,0
20512,-98.0392156862745,4,1,0,50,0,0
20608,-97.0873786407767,4,1,0,50,0,0
20705,-96.1538461538461,4,1,0,50,0,0
20899,-95.2380952380952,4,1,0,50,0,0
20996,-96.1538461538461,4,1,0,50,0,0
21092,-97.0873786407767,4,1,0,50,0,0
21189,-98.0392156862745,4,1,0,50,0,0
21286,-99.009900990099,4,1,0,50,0,0
21479,-100,4,1,0,50,0,0
23415,-90.9090909090909,4,1,0,50,0,0
24964,-83.3333333333333,4,1,0,50,0,0
26512,-76.9230769230769,4,1,0,50,0,0
28060,-100,4,1,0,50,0,0
29996,-83.3333333333333,4,1,0,50,0,0
30092,-86.9565217391304,4,1,0,50,0,0
30189,-90.9090909090909,4,1,0,50,0,0
30286,-95.2380952380952,4,1,0,50,0,0
30383,-100,4,1,0,50,0,0
33867,-83.3333333333333,4,1,0,50,0,0
33963,-86.9565217391304,4,1,0,50,0,0
34060,-90.9090909090909,4,1,0,50,0,0
34157,-95.2380952380952,4,1,0,50,0,0
34254,-100,4,1,0,50,0,0
36964,-83.3333333333333,4,1,0,50,0,0
37060,-86.9565217391304,4,1,0,50,0,0
37157,-90.9090909090909,4,1,0,50,0,0
37254,-95.2380952380952,4,1,0,50,0,0
37351,-100,4,1,0,50,0,0
40448,-100,4,1,0,5,0,0

[HitObjects]
256,160,3867,5,8,1:1:0:0:
256,160,4060,1,8,1:1:0:0:
256,160,4254,1,0,1:1:0:0:
256,160,4448,1,0,1:1:0:0:
256,192,4835,1,0,1:1:0:0:
256,192,4931,1,8,1:1:0:0:
256,192,5028,1,8,1:1:0:0:
256,192,5222,1,8,1:1:0:0:
256,192,5319,1,8,1:1:0:0:
256,192,5415,1,0,1:1:0:0:
256,192,5609,1,8,1:1:0:0:
256,192,5706,1,8,1:1:0:0:
256,192,5802,1,8,1:1:0:0:
256,192,5996,1,8,1:1:0:0:
256,192,6383,1,8,1:1:0:0:
256,192,6480,1,0,1:1:0:0:
256,192,6577,1,0,1:1:0:0:
256,192,6673,1,0,1:1:0:0:
256,192,6770,1,8,1:1:0:0:
256,192,6867,1,0,1:1:0:0:
256,192,6964,1,0,1:1:0:0:
256,192,7060,1,0,1:1:0:0:
256,192,7157,1,8,1:1:0:0:
256,192,7351,1,8,1:1:0:0:
256,192,7448,1,0,1:1:0:0:
256,192,7544,1,0,1:1:0:0:
256,192,7931,5,0,1:1:0:0:
256,192,8125,1,8,1:1:0:0:
256,192,8319,1,0,1:1:0:0:
256,192,8512,1,8,1:1:0:0:
256,192,8609,1,8,1:1:0:0:
256,192,8706,1,0,1:1:0:0:
256,192,8802,1,0,1:1:0:0:
256,192,8899,1,8,1:1:0:0:
256,192,9093,1,0,1:1:0:0:
256,192,9480,1,0,1:1:0:0:
256,192,9673,1,0,1:1:0:0:
256,192,9867,1,8,1:1:0:0:
256,192,9964,1,8,1:1:0:0:
256,192,10060,1,0,1:1:0:0:
256,192,10157,1,0,1:1:0:0:
256,192,10254,1,8,1:1:0:0:
256,192,10448,1,0,1:1:0:0:
256,192,10544,1,0,1:1:0:0:
256,192,10641,1,8,1:1:0:0:
256,192,11028,1,8,1:1:0:0:
256,192,11125,1,8,1:1:0:0:
256,192,11222,1,0,1:1:0:0:
256,192,11415,1,8,1:1:0:0:
256,192,11609,1,0,1:1:0:0:
256,192,11706,1,8,1:1:0:0:
256,192,11802,1,0,1:1:0:0:
256,192,11899,1,8,1:1:0:0:
256,192,11996,1,0,1:1:0:0:
256,192,12189,1,8,1:1:0:0:
256,192,12577,1,8,1:1:0:0:
256,192,12673,1,8,1:1:0:0:
256,192,12770,1,8,1:1:0:0:
256,192,12964,1,8,1:1:0:0:
256,192,13157,1,0,1:1:0:0:
256,192,13254,1,0,1:1:0:0:
256,192,13351,1,8,1:1:0:0:
256,192,13448,1,8,1:1:0:0:
256,192,13544,1,0,1:1:0:0:
256,192,13738,1,8,1:1:0:0:
256,192,14125,1,8,1:1:0:0:
256,192,14222,1,0,1:1:0:0:
256,192,14319,1,0,1:1:0:0:
256,192,14415,1,0,1:1:0:0:
256,192,14512,1,8,1:1:0:0:
256,192,14706,1,0,1:1:0:0:
256,192,14802,1,8,1:1:0:0:
256,192,14996,1,0,1:1:0:0:
256,192,15093,1,8,1:1:0:0:
256,192,15286,1,8,1:1:0:0:
256,192,15673,1,12,1:1:0:0:
256,192,16060,1,8,1:1:0:0:
256,192,16157,1,0,1:1:0:0:
256,192,16254,1,8,1:1:0:0:
256,192,16448,1,8,1:1:0:0:
256,192,16641,1,8,1:1:0:0:
256,192,16835,1,8,1:1:0:0:
256,192,16931,1,8,1:1:0:0:
256,192,17028,1,8,1:1:0:0:
256,192,17125,1,8,1:1:0:0:
256,192,17222,1,0,1:1:0:0:
256,192,17415,1,0,1:1:0:0:
256,192,17609,1,8,1:1:0:0:
256,192,17706,1,8,1:1:0:0:
256,192,17802,1,8,1:1:0:0:
256,192,17899,1,8,1:1:0:0:
256,192,17996,1,8,1:1:0:0:
256,192,18189,1,8,1:1:0:0:
256,192,18383,1,0,1:1:0:0:
256,192,18770,1,8,1:1:0:0:
256,192,18867,1,0,1:1:0:0:
256,192,18964,1,0,1:1:0:0:
256,192,19060,1,0,1:1:0:0:
256,192,19157,1,8,1:1:0:0:
256,192,19351,1,0,1:1:0:0:
256,192,19448,1,0,1:1:0:0:
256,192,19544,1,8,1:1:0:0:
256,192,19641,1,8,1:1:0:0:
256,192,19738,1,8,1:1:0:0:
256,192,19931,1,8,1:1:0:0:
256,192,20319,1,8,1:1:0:0:
256,192,20415,1,8,1:1:0:0:
256,192,20512,1,0,1:1:0:0:
256,192,20609,1,8,1:1:0:0:
256,192,20706,1,8,1:1:0:0:
256,192,20899,1,0,1:1:0:0:
256,192,20996,1,0,1:1:0:0:
256,192,21093,1,8,1:1:0:0:
256,192,21189,1,0,1:1:0:0:
256,192,21286,1,8,1:1:0:0:
256,192,21480,1,8,1:1:0:0:
256,192,21867,1,12,1:1:0:0:
256,192,22254,1,8,1:1:0:0:
256,192,22351,1,8,1:1:0:0:
256,192,22448,1,0,1:1:0:0:
256,192,22641,1,8,1:1:0:0:
256,192,22738,1,0,1:1:0:0:
256,192,22835,1,0,1:1:0:0:
256,192,23028,1,8,1:1:0:0:
256,192,23415,1,12,1:1:0:0:
256,192,23802,1,0,1:1:0:0:
256,192,23899,1,0,1:1:0:0:
256,192,23996,1,8,1:1:0:0:
256,192,24189,1,0,1:1:0:0:
256,192,24286,1,8,1:1:0:0:
256,192,24383,1,8,1:1:0:0:
256,192,24577,1,8,1:1:0:0:
256,192,24964,1,12,1:1:0:0:
256,192,25351,1,8,1:1:0:0:
256,192,25448,1,8,1:1:0:0:
256,192,25544,1,0,1:1:0:0:
256,192,25641,1,0,1:1:0:0:
256,192,25738,1,8,1:1:0:0:
256,192,25931,1,0,1:1:0:0:
256,192,26125,1,8,1:1:0:0:
256,192,26512,1,12,1:1:0:0:
256,192,26899,1,8,1:1:0:0:
256,192,26996,1,0,1:1:0:0:
256,192,27093,1,8,1:1:0:0:
256,192,27189,1,0,1:1:0:0:
256,192,27286,1,8,1:1:0:0:
256,192,27480,1,0,1:1:0:0:
256,192,27673,1,8,1:1:0:0:
256,192,28060,1,12,1:1:0:0:
256,192,28448,1,0,1:1:0:0:
256,192,28544,1,0,1:1:0:0:
256,192,28641,1,0,1:1:0:0:
256,192,28835,1,8,1:1:0:0:
256,192,29028,1,0,1:1:0:0:
256,192,29222,1,8,1:1:0:0:
256,192,29609,1,12,1:1:0:0:
256,192,29996,1,8,1:1:0:0:
256,192,30093,1,8,1:1:0:0:
256,192,30189,1,8,1:1:0:0:
256,192,30286,1,8,1:1:0:0:
256,192,30383,1,0,1:1:0:0:
256,192,30577,1,0,1:1:0:0:
256,192,30770,1,8,1:1:0:0:
256,192,31157,1,12,1:1:0:0:
256,192,31544,1,0,1:1:0:0:
256,192,31738,1,0,1:1:0:0:
256,192,31931,1,8,1:1:0:0:
256,192,32028,1,0,1:1:0:0:
256,192,32125,1,0,1:1:0:0:
256,192,32319,1,8,1:1:0:0:
256,192,32706,1,12,1:1:0:0:
256,192,33093,1,0,1:1:0:0:
256,192,33286,1,0,1:1:0:0:
256,192,33480,1,8,1:1:0:0:
256,192,33673,1,0,1:1:0:0:
256,192,33867,1,0,1:1:0:0:
256,192,33964,1,0,1:1:0:0:
256,192,34060,1,0,1:1:0:0:
256,192,34157,1,0,1:1:0:0:
256,192,34254,1,8,1:1:0:0:
256,192,34448,1,0,1:1:0:0:
256,192,34641,1,8,1:1:0:0:
224,192,34835,1,8,1:1:0:0:
256,192,34931,1,0,1:1:0:0:
256,192,35028,1,8,1:1:0:0:
256,192,35125,1,0,1:1:0:0:
256,192,35222,1,0,1:1:0:0:
256,192,35415,1,8,1:1:0:0:
256,192,35706,1,8,1:1:0:0:
256,192,35802,1,8,1:1:0:0:
256,192,35996,1,0,1:1:0:0:
256,192,36189,1,8,1:1:0:0:
256,192,36383,1,0,1:1:0:0:
256,192,36480,1,0,1:1:0:0:
256,192,36577,1,0,1:1:0:0:
256,192,36770,1,0,1:1:0:0:
256,192,36964,1,0,1:1:0:0:
256,192,37060,1,0,1:1:0:0:
256,192,37157,1,0,1:1:0:0:
256,192,37254,1,0,1:1:0:0:
256,192,37351,1,8,1:1:0:0:
268,182,37738,1,8,1:1:0:0:
268,182,37931,1,0,1:1:0:0:
268,182,38125,1,8,1:1:0:0:
268,182,38319,1,0,1:1:0:0:
268,182,38415,1,8,1:1:0:0:
268,182,38512,1,8,1:1:0:0:
286,176,38899,1,0,1:1:0:0:
286,175,39093,1,0,1:1:0:0:
286,175,39286,1,8,1:1:0:0:
286,175,39480,1,8,1:1:0:0:
286,176,39577,1,0,1:1:0:0:
286,176,39673,1,0,1:1:0:0:
286,176,39770,1,0,1:1:0:0:
286,176,39867,1,0,1:1:0:0:
286,175,40060,1,8,1:1:0:0:
256,192,40448,1,4,1:1:0:0:
