osu file format v14

[General]
AudioFilename: audio.mp3
AudioLeadIn: 0
PreviewTime: 9480
Countdown: 0
SampleSet: Normal
StackLeniency: 0.7
Mode: 1
LetterboxInBreaks: 0
WidescreenStoryboard: 1

[Editor]
Bookmarks: 16835,17222,17609,17996,21867,32319
DistanceSpacing: 1.5
BeatDivisor: 4
GridSize: 32
TimelineZoom: 1.9

[Metadata]
Title:2DF2
TitleUnicode:2DF2
Artist:fiend
ArtistUnicode:fiend
Creator:Chatter
Version:Futsuu
Source:
Tags:english fa featured artist rap drum and n bass dnb hip hop hip-hop FEVER DREAM breakcore break core Chatterzard_ Chatterzard
BeatmapID:3025812
BeatmapSetID:1433815

[Difficulty]
HPDrainRate:8
CircleSize:2
OverallDifficulty:4
ApproachRate:10
SliderMultiplier:1.4
SliderTickRate:1

[Events]
//Background and Video events
0,0,"cover.jpg",0,0
//Break Periods
//Storyboard Layer 0 (Background)
//Storyboard Layer 1 (Fail)
//Storyboard Layer 2 (Pass)
//Storyboard Layer 3 (Foreground)
//Storyboard Layer 4 (Overlay)
//Storyboard Sound Samples

[TimingPoints]
190,387.096774193548,4,1,0,5,1,0
3867,-100,4,1,0,6,0,0
4254,-100,4,1,0,7,0,0
4835,-100,4,1,0,8,0,0
4931,-100,4,1,0,10,0,0
5028,-100,4,1,0,12,0,0
5125,-100,4,1,0,14,0,0
5222,-100,4,1,0,16,0,0
5319,-100,4,1,0,18,0,0
5415,-100,4,1,0,20,0,0
5512,-100,4,1,0,22,0,0
5609,-100,4,1,0,24,0,0
5706,-100,4,1,0,26,0,0
5802,-100,4,1,0,28,0,0
5996,-100,4,1,0,30,0,0
6383,-100,4,1,0,36,0,0
6480,-100,4,1,0,38,0,0
6577,-100,4,1,0,40,0,0
6673,-100,4,1,0,42,0,0
6770,-100,4,1,0,44,0,0
6867,-100,4,1,0,46,0,0
6964,-100,4,1,0,48,0,0
7060,-100,4,1,0,50,0,0
16835,-100,4,1,0,50,0,0
17222,-100,4,1,0,50,0,0
17609,-100,4,1,0,50,0,0
17996,-100,4,1,0,50,0,0
40448,-100,4,1,0,5,0,0

[HitObjects]
256,192,6383,12,0,9093,1:1:0:0:
256,192,9480,5,4,1:1:0:0:
256,192,10254,1,8,1:1:0:0:
256,192,10448,1,8,1:1:0:0:
256,192,10641,1,0,1:1:0:0:
256,192,11028,1,0,1:1:0:0:
256,192,11222,1,0,1:1:0:0:
256,192,11415,1,8,1:1:0:0:
256,192,11802,1,0,1:1:0:0:
256,192,11996,1,8,1:1:0:0:
256,192,12189,1,0,1:1:0:0:
256,192,12577,1,8,1:1:0:0:
256,192,12770,1,8,1:1:0:0:
256,192,12964,1,8,1:1:0:0:
256,192,13157,1,0,1:1:0:0:
256,192,13351,1,8,1:1:0:0:
256,192,13738,1,8,1:1:0:0:
256,192,14125,1,0,1:1:0:0:
256,192,14319,1,0,1:1:0:0:
256,192,14512,1,8,1:1:0:0:
256,192,14899,1,8,1:1:0:0:
256,192,15093,1,0,1:1:0:0:
256,192,15286,1,8,1:1:0:0:
256,192,15673,1,12,1:1:0:0:
256,192,16448,1,8,1:1:0:0:
256,192,16835,1,0,1:1:0:0:
256,192,17028,1,0,1:1:0:0:
256,192,17222,1,0,1:1:0:0:
256,192,17609,1,8,1:1:0:0:
288,192,17802,1,8,1:1:0:0:
256,192,17996,1,8,1:1:0:0:
224,192,18383,1,0,1:1:0:0:
256,192,18770,1,8,1:1:0:0:
256,224,19157,1,8,1:1:0:0:
256,192,19544,1,0,1:1:0:0:
256,192,19738,1,8,1:1:0:0:
256,192,19931,1,8,1:1:0:0:
256,192,20319,1,0,1:1:0:0:
256,192,20512,1,0,1:1:0:0:
256,192,20706,1,0,1:1:0:0:
288,192,21093,1,8,1:1:0:0:
256,192,21480,1,0,1:1:0:0:
224,192,21867,1,12,1:1:0:0:
224,192,22641,1,8,1:1:0:0:
224,192,22835,1,0,1:1:0:0:
224,192,23028,1,0,1:1:0:0:
224,192,23415,1,12,1:1:0:0:
224,192,23802,1,0,1:1:0:0:
224,192,23996,1,0,1:1:0:0:
224,192,24189,1,8,1:1:0:0:
224,192,24383,1,8,1:1:0:0:
224,192,24577,1,0,1:1:0:0:
224,192,24964,1,12,1:1:0:0:
256,192,25351,1,0,1:1:0:0:
256,192,25544,1,0,1:1:0:0:
256,192,25738,1,8,1:1:0:0:
288,192,26125,1,8,1:1:0:0:
224,192,26512,1,12,1:1:0:0:
224,192,26899,1,0,1:1:0:0:
224,192,27093,1,0,1:1:0:0:
224,192,27286,1,8,1:1:0:0:
224,192,27480,1,0,1:1:0:0:
224,192,27673,1,8,1:1:0:0:
224,192,28060,1,8,1:1:0:0:
256,192,28835,1,8,1:1:0:0:
256,192,29028,1,0,1:1:0:0:
256,192,29222,1,8,1:1:0:0:
224,192,29609,1,8,1:1:0:0:
256,192,29996,1,8,1:1:0:0:
256,192,30383,1,8,1:1:0:0:
256,192,30577,1,0,1:1:0:0:
256,192,30770,1,8,1:1:0:0:
224,192,31157,1,8,1:1:0:0:
224,192,31544,1,0,1:1:0:0:
224,192,31931,1,8,1:1:0:0:
256,192,32125,1,0,1:1:0:0:
224,192,32319,1,8,1:1:0:0:
224,192,32706,1,8,1:1:0:0:
224,192,33093,1,8,1:1:0:0:
224,192,33286,1,0,1:1:0:0:
224,192,33480,1,8,1:1:0:0:
224,192,33867,1,0,1:1:0:0:
224,192,34254,1,8,1:1:0:0:
224,192,35028,1,0,1:1:0:0:
256,192,35222,1,0,1:1:0:0:
224,192,35415,1,8,1:1:0:0:
224,192,35802,1,8,1:1:0:0:
224,192,36189,1,0,1:1:0:0:
224,192,36383,1,0,1:1:0:0:
224,192,36577,1,8,1:1:0:0:
224,192,36964,1,0,1:1:0:0:
224,192,37351,1,8,1:1:0:0:
224,192,37738,1,0,1:1:0:0:
224,192,38125,1,8,1:1:0:0:
224,192,38319,1,0,1:1:0:0:
224,192,38512,1,8,1:1:0:0:
256,192,38899,1,8,1:1:0:0:
256,192,39286,1,0,0:0:0:0:
256,192,39673,1,8,1:1:0:0:
256,192,40448,1,4,1:1:0:0:
