osu file format v14

[General]
AudioFilename: audio.mp3
AudioLeadIn: 0
PreviewTime: 9480
Countdown: 0
SampleSet: Normal
StackLeniency: 0.7
Mode: 1
LetterboxInBreaks: 0
WidescreenStoryboard: 0

[Editor]
Bookmarks: 16835,17222,17609,17996,21867
DistanceSpacing: 1.5
BeatDivisor: 8
GridSize: 32
TimelineZoom: 1.9

[Metadata]
Title:2DF2
TitleUnicode:2DF2
Artist:fiend
ArtistUnicode:fiend
Creator:Chatter
Version:Bars
Source:
Tags:english fa featured artist rap drum and n bass dnb hip hop hip-hop FEVER DREAM breakcore break core Chatterzard_ Chatterzard
BeatmapID:2950703
BeatmapSetID:1433815

[Difficulty]
HPDrainRate:6
CircleSize:2
OverallDifficulty:6
ApproachRate:10
SliderMultiplier:1.4
SliderTickRate:1

[Events]
//Background and Video events
0,0,"cover.jpg",0,0
//Break Periods
//Storyboard Layer 0 (Background)
//Storyboard Layer 1 (Fail)
//Storyboard Layer 2 (Pass)
//Storyboard Layer 3 (Foreground)
//Storyboard Layer 4 (Overlay)
//Storyboard Sound Samples

[TimingPoints]
190,387.096774193548,4,1,0,5,1,0
3867,-100,4,1,0,6,0,0
4254,-100,4,1,0,7,0,0
4835,-100,4,1,0,8,0,0
4931,-99.009900990099,4,1,0,10,0,0
5028,-98.0392156862745,4,1,0,12,0,0
5125,-97.0873786407767,4,1,0,14,0,0
5222,-96.1538461538461,4,1,0,16,0,0
5319,-95.2380952380952,4,1,0,18,0,0
5415,-94.3396226415094,4,1,0,20,0,0
5512,-92.5925925925926,4,1,0,22,0,0
5609,-90.9090909090909,4,1,0,24,0,0
5706,-89.2857142857143,4,1,0,26,0,0
5802,-87.719298245614,4,1,0,28,0,0
5996,-86.2068965517241,4,1,0,30,0,0
6383,-100,4,1,0,36,0,0
6480,-99.009900990099,4,1,0,38,0,0
6577,-98.0392156862745,4,1,0,40,0,0
6673,-97.0873786407767,4,1,0,42,0,0
6770,-96.1538461538461,4,1,0,44,0,0
6867,-95.2380952380952,4,1,0,46,0,0
6964,-94.3396226415094,4,1,0,48,0,0
7060,-92.5925925925926,4,1,0,50,0,0
7157,-90.9090909090909,4,1,0,50,0,0
7254,-89.2857142857143,4,1,0,50,0,0
7351,-87.719298245614,4,1,0,50,0,0
7544,-86.2068965517241,4,1,0,50,0,0
7931,-100,4,1,0,50,0,0
8125,-98.0392156862745,4,1,0,50,0,0
8319,-96.1538461538461,4,1,0,50,0,0
8512,-94.3396226415094,4,1,0,50,0,0
8609,-92.5925925925926,4,1,0,50,0,0
8706,-90.9090909090909,4,1,0,50,0,0
8802,-89.2857142857143,4,1,0,50,0,0
8899,-87.719298245614,4,1,0,50,0,0
9093,-86.2068965517241,4,1,0,50,0,0
9480,-100,4,1,0,50,0,0
9867,-74.0740740740741,4,1,0,50,0,0
9964,-76.9230769230769,4,1,0,50,0,0
10060,-80,4,1,0,50,0,0
10157,-83.3333333333333,4,1,0,50,0,0
10254,-86.9565217391304,4,1,0,50,0,0
10351,-90.9090909090909,4,1,0,50,0,0
10448,-95.2380952380952,4,1,0,50,0,0
10641,-100,4,1,0,50,0,0
11028,-81.9672131147541,4,1,0,50,0,0
11125,-83.3333333333333,4,1,0,50,0,0
11222,-84.7457627118644,4,1,0,50,0,0
11319,-86.2068965517241,4,1,0,50,0,0
11415,-87.719298245614,4,1,0,50,0,0
11512,-89.2857142857143,4,1,0,50,0,0
11608,-90.9090909090909,4,1,0,50,0,0
11705,-92.5925925925926,4,1,0,50,0,0
11802,-94.3396226415094,4,1,0,50,0,0
11899,-96.1538461538461,4,1,0,50,0,0
11996,-98.0392156862745,4,1,0,50,0,0
12189,-100,4,1,0,50,0,0
12577,-81.9672131147541,4,1,0,50,0,0
12673,-83.3333333333333,4,1,0,50,0,0
12770,-84.7457627118644,4,1,0,50,0,0
12868,-86.2068965517241,4,1,0,50,0,0
12964,-87.719298245614,4,1,0,50,0,0
13061,-89.2857142857143,4,1,0,50,0,0
13157,-90.9090909090909,4,1,0,50,0,0
13254,-92.5925925925926,4,1,0,50,0,0
13351,-94.3396226415094,4,1,0,50,0,0
13448,-96.1538461538461,4,1,0,50,0,0
13544,-98.0392156862745,4,1,0,50,0,0
13738,-100,4,1,0,50,0,0
14125,-81.9672131147541,4,1,0,50,0,0
14222,-83.3333333333333,4,1,0,50,0,0
14319,-84.7457627118644,4,1,0,50,0,0
14415,-86.2068965517241,4,1,0,50,0,0
14512,-87.719298245614,4,1,0,50,0,0
14609,-89.2857142857143,4,1,0,50,0,0
14705,-90.9090909090909,4,1,0,50,0,0
14802,-92.5925925925926,4,1,0,50,0,0
14899,-94.3396226415094,4,1,0,50,0,0
14996,-96.1538461538461,4,1,0,50,0,0
15093,-98.0392156862745,4,1,0,50,0,0
15286,-100,4,1,0,50,0,0
16060,-98.0392156862745,4,1,0,50,0,0
16157,-96.1538461538461,4,1,0,50,0,0
16254,-94.3396226415094,4,1,0,50,0,0
16351,-92.5925925925926,4,1,0,50,0,0
16448,-90.9090909090909,4,1,0,50,0,0
16544,-89.2857142857143,4,1,0,50,0,0
16641,-87.719298245614,4,1,0,50,0,0
16738,-86.2068965517241,4,1,0,50,0,0
16835,-69.4444444444444,4,1,0,50,0,0
16931,-71.4285714285714,4,1,0,50,0,0
17028,-73.5294117647059,4,1,0,50,0,0
17125,-75.7575757575758,4,1,0,50,0,0
17222,-79.3650793650794,4,1,0,50,0,0
17319,-78.125,4,1,0,50,0,0
17415,-76.9230769230769,4,1,0,50,0,0
17512,-75.7575757575758,4,1,0,50,0,0
17609,-62.5,4,1,0,50,0,0
17706,-64.1025641025641,4,1,0,50,0,0
17802,-65.7894736842105,4,1,0,50,0,0
17899,-67.5675675675676,4,1,0,50,0,0
17996,-70.4225352112676,4,1,0,50,0,0
18093,-69.4444444444444,4,1,0,50,0,0
18189,-68.4931506849315,4,1,0,50,0,0
18383,-67.5675675675676,4,1,0,50,0,0
18770,-81.9672131147541,4,1,0,50,0,0
18867,-83.3333333333333,4,1,0,50,0,0
18964,-84.7457627118644,4,1,0,50,0,0
19060,-86.2068965517241,4,1,0,50,0,0
19157,-87.719298245614,4,1,0,50,0,0
19254,-89.2857142857143,4,1,0,50,0,0
19350,-90.9090909090909,4,1,0,50,0,0
19447,-92.5925925925926,4,1,0,50,0,0
19544,-94.3396226415094,4,1,0,50,0,0
19641,-96.1538461538461,4,1,0,50,0,0
19738,-98.0392156862745,4,1,0,50,0,0
19931,-100,4,1,0,50,0,0
20319,-81.9672131147541,4,1,0,50,0,0
20415,-83.3333333333333,4,1,0,50,0,0
20512,-84.7457627118644,4,1,0,50,0,0
20609,-86.2068965517241,4,1,0,50,0,0
20706,-87.719298245614,4,1,0,50,0,0
20802,-89.2857142857143,4,1,0,50,0,0
20899,-90.9090909090909,4,1,0,50,0,0
20996,-92.5925925925926,4,1,0,50,0,0
21093,-94.3396226415094,4,1,0,50,0,0
21189,-96.1538461538461,4,1,0,50,0,0
21286,-98.0392156862745,4,1,0,50,0,0
21480,-100,4,1,0,50,0,0
21867,-76.9230769230769,4,1,0,50,0,0
22254,-87.719298245614,4,1,0,50,0,0
22351,-89.2857142857143,4,1,0,50,0,0
22448,-90.9090909090909,4,1,0,50,0,0
22544,-92.5925925925926,4,1,0,50,0,0
22641,-94.3396226415094,4,1,0,50,0,0
22738,-96.1538461538461,4,1,0,50,0,0
22835,-98.0392156862745,4,1,0,50,0,0
23028,-100,4,1,0,50,0,0
23415,-76.9230769230769,4,1,0,50,0,0
23802,-87.719298245614,4,1,0,50,0,0
23899,-89.2857142857143,4,1,0,50,0,0
23996,-90.9090909090909,4,1,0,50,0,0
24092,-92.5925925925926,4,1,0,50,0,0
24189,-94.3396226415094,4,1,0,50,0,0
24286,-96.1538461538461,4,1,0,50,0,0
24383,-98.0392156862745,4,1,0,50,0,0
24576,-100,4,1,0,50,0,0
24964,-76.9230769230769,4,1,0,50,0,0
25351,-87.719298245614,4,1,0,50,0,0
25448,-89.2857142857143,4,1,0,50,0,0
25544,-90.9090909090909,4,1,0,50,0,0
25641,-92.5925925925926,4,1,0,50,0,0
25738,-94.3396226415094,4,1,0,50,0,0
25835,-96.1538461538461,4,1,0,50,0,0
25931,-98.0392156862745,4,1,0,50,0,0
26125,-100,4,1,0,50,0,0
26512,-76.9230769230769,4,1,0,50,0,0
26899,-87.719298245614,4,1,0,50,0,0
26996,-89.2857142857143,4,1,0,50,0,0
27093,-90.9090909090909,4,1,0,50,0,0
27189,-92.5925925925926,4,1,0,50,0,0
27286,-94.3396226415094,4,1,0,50,0,0
27383,-96.1538461538461,4,1,0,50,0,0
27480,-98.0392156862745,4,1,0,50,0,0
27673,-100,4,1,0,50,0,0
28060,-76.9230769230769,4,1,0,50,0,0
28448,-89.2857142857143,4,1,0,50,0,0
28544,-90.9090909090909,4,1,0,50,0,0
28641,-92.5925925925926,4,1,0,50,0,0
28835,-94.3396226415094,4,1,0,50,0,0
29028,-96.1538461538461,4,1,0,50,0,0
29222,-98.0392156862745,4,1,0,50,0,0
29609,-76.9230769230769,4,1,0,50,0,0
29996,-78.125,4,1,0,50,0,0
30060,-82.6446280991736,4,1,0,50,0,0
30125,-86.9565217391304,4,1,0,50,0,0
30189,-90.9090909090909,4,1,0,50,0,0
30254,-94.3396226415094,4,1,0,50,0,0
30319,-97.0873786407767,4,1,0,50,0,0
30383,-99.009900990099,4,1,0,50,0,0
30577,-100,4,1,0,50,0,0
31157,-76.9230769230769,4,1,0,50,0,0
31351,-86.9565217391304,4,1,0,50,0,0
31544,-90.9090909090909,4,1,0,50,0,0
32319,-84.7457627118644,4,1,0,50,0,0
32415,-86.2068965517241,4,1,0,50,0,0
32512,-87.719298245614,4,1,0,50,0,0
32609,-89.2857142857143,4,1,0,50,0,0
32706,-90.9090909090909,4,1,0,50,0,0
32899,-95.2380952380952,4,1,0,50,0,0
33093,-100,4,1,0,50,0,0
33286,-90.9090909090909,4,1,0,50,0,0
33383,-89.2857142857143,4,1,0,50,0,0
33480,-87.719298245614,4,1,0,50,0,0
33577,-86.2068965517241,4,1,0,50,0,0
33673,-84.7457627118644,4,1,0,50,0,0
33867,-78.125,4,1,0,50,0,0
33931,-82.6446280991736,4,1,0,50,0,0
33996,-86.9565217391304,4,1,0,50,0,0
34060,-90.9090909090909,4,1,0,50,0,0
34125,-94.3396226415094,4,1,0,50,0,0
34189,-97.0873786407767,4,1,0,50,0,0
34254,-99.009900990099,4,1,0,50,0,0
34835,-84.7457627118644,4,1,0,50,0,0
34931,-86.2068965517241,4,1,0,50,0,0
35028,-87.719298245614,4,1,0,50,0,0
35125,-89.2857142857143,4,1,0,50,0,0
35222,-90.9090909090909,4,1,0,50,0,0
35319,-92.5925925925926,4,1,0,50,0,0
35415,-94.3396226415094,4,1,0,50,0,0
35706,-95.2380952380952,4,1,0,50,0,0
35802,-90.9090909090909,4,1,0,50,0,0
36480,-89.2857142857143,4,1,0,50,0,0
36577,-87.719298245614,4,1,0,50,0,0
36673,-86.2068965517241,4,1,0,50,0,0
36770,-84.7457627118644,4,1,0,50,0,0
36964,-78.125,4,1,0,50,0,0
37028,-82.6446280991736,4,1,0,50,0,0
37093,-86.9565217391304,4,1,0,50,0,0
37157,-90.9090909090909,4,1,0,50,0,0
37222,-94.3396226415094,4,1,0,50,0,0
37286,-97.0873786407767,4,1,0,50,0,0
37351,-99.009900990099,4,1,0,50,0,0
37544,-100,4,1,0,50,0,0
38319,-97.0873786407767,4,1,0,50,0,0
38415,-94.3396226415094,4,1,0,50,0,0
38512,-91.743119266055,4,1,0,50,0,0
38899,-100,4,1,0,50,0,0
39480,-84.7457627118644,4,1,0,50,0,0
39577,-86.2068965517241,4,1,0,50,0,0
39673,-87.719298245614,4,1,0,50,0,0
39770,-89.2857142857143,4,1,0,50,0,0
39867,-90.9090909090909,4,1,0,50,0,0
39964,-92.5925925925926,4,1,0,50,0,0
40060,-94.3396226415094,4,1,0,50,0,0
40448,-100,4,1,0,5,0,0

[HitObjects]
256,192,3867,5,8,1:0:0:0:
256,192,4060,1,8,1:0:0:0:
256,192,4254,1,0,1:0:0:0:
256,192,4448,1,0,1:0:0:0:
256,192,4835,1,0,1:0:0:0:
256,192,4931,1,8,1:0:0:0:
256,192,5028,1,8,1:0:0:0:
256,192,5125,1,0,1:0:0:0:
256,192,5222,1,8,1:0:0:0:
256,192,5415,1,0,1:0:0:0:
256,192,5512,1,0,1:0:0:0:
256,192,5609,1,8,1:0:0:0:
256,192,5706,1,8,1:0:0:0:
256,192,5802,1,8,1:0:0:0:
256,192,5996,1,8,1:0:0:0:
256,192,6383,1,8,1:0:0:0:
256,192,6480,1,0,1:0:0:0:
256,192,6577,1,8,1:0:0:0:
256,192,6673,1,8,1:0:0:0:
256,192,6770,1,8,1:0:0:0:
256,192,6867,1,0,1:0:0:0:
256,192,6964,1,8,1:0:0:0:
256,192,7060,1,8,1:0:0:0:
256,192,7157,1,0,1:0:0:0:
256,192,7254,1,8,1:0:0:0:
256,192,7351,1,8,1:0:0:0:
256,192,7544,1,8,1:0:0:0:
256,192,7931,1,0,1:0:0:0:
256,192,8125,1,8,1:0:0:0:
256,192,8319,1,8,1:0:0:0:
256,192,8512,1,8,1:0:0:0:
256,192,8609,1,0,1:0:0:0:
256,192,8706,1,0,1:0:0:0:
256,192,8802,1,8,1:0:0:0:
256,192,8899,1,8,1:0:0:0:
256,192,9093,1,8,1:0:0:0:
256,192,9480,1,0,1:0:0:0:
256,192,9673,1,0,1:0:0:0:
256,192,9867,1,8,1:0:0:0:
256,192,9964,1,8,1:0:0:0:
256,192,10060,1,0,1:0:0:0:
256,192,10157,1,0,1:0:0:0:
256,192,10254,1,8,1:0:0:0:
256,192,10351,1,0,1:0:0:0:
256,192,10448,1,8,1:0:0:0:
256,192,10641,1,8,1:0:0:0:
256,192,11028,1,0,1:0:0:0:
256,192,11125,1,8,1:0:0:0:
256,192,11222,1,0,1:0:0:0:
256,192,11319,1,0,1:0:0:0:
256,192,11415,1,8,1:0:0:0:
256,192,11512,1,8,1:0:0:0:
256,192,11609,1,8,1:0:0:0:
256,192,11706,1,0,1:0:0:0:
256,192,11802,1,8,1:0:0:0:
256,192,11899,1,0,1:0:0:0:
256,192,11996,1,8,1:0:0:0:
256,192,12189,1,8,1:0:0:0:
256,192,12577,1,8,1:0:0:0:
256,192,12673,1,8,1:0:0:0:
256,192,12770,1,0,1:0:0:0:
256,192,12964,1,8,1:0:0:0:
256,192,13157,1,0,1:0:0:0:
256,192,13254,1,0,1:0:0:0:
256,192,13351,1,8,1:0:0:0:
256,192,13448,1,8,1:0:0:0:
256,192,13544,1,0,1:0:0:0:
256,192,13738,1,8,1:0:0:0:
256,192,14125,1,8,1:0:0:0:
256,192,14222,1,0,1:0:0:0:
256,192,14319,1,0,1:0:0:0:
256,192,14415,1,8,1:0:0:0:
256,192,14512,1,0,1:0:0:0:
256,192,14706,1,0,1:0:0:0:
256,192,14803,1,8,1:0:0:0:
256,192,14996,1,0,1:0:0:0:
256,192,15093,1,8,1:0:0:0:
256,192,15286,1,8,1:0:0:0:
256,192,15673,1,0,1:0:0:0:
256,192,15867,1,0,1:0:0:0:
256,192,16060,1,8,1:0:0:0:
256,192,16157,1,0,1:0:0:0:
256,192,16254,1,0,1:0:0:0:
256,192,16351,1,0,1:0:0:0:
256,192,16448,1,8,1:0:0:0:
256,192,16544,1,0,1:0:0:0:
256,192,16641,1,8,1:0:0:0:
256,192,16738,1,0,1:0:0:0:
256,192,16835,1,8,1:0:0:0:
256,192,16931,1,8,1:0:0:0:
256,192,17028,1,8,1:0:0:0:
256,192,17125,1,8,1:0:0:0:
256,192,17222,1,0,1:0:0:0:
256,192,17319,1,8,1:0:0:0:
256,192,17415,1,0,1:0:0:0:
256,192,17512,1,0,1:0:0:0:
256,192,17609,1,8,1:0:0:0:
256,192,17706,1,8,1:0:0:0:
256,192,17802,1,8,1:0:0:0:
256,192,17899,1,8,1:0:0:0:
256,192,17996,1,0,1:0:0:0:
256,192,18093,1,8,1:0:0:0:
256,192,18189,1,8,1:0:0:0:
256,192,18383,1,8,1:0:0:0:
256,192,18770,1,8,1:0:0:0:
256,192,18867,1,8,1:0:0:0:
256,192,18964,1,0,1:0:0:0:
256,192,19060,1,8,1:0:0:0:
256,192,19157,1,0,1:0:0:0:
256,192,19254,1,0,1:0:0:0:
256,192,19351,1,8,1:0:0:0:
256,192,19448,1,0,1:0:0:0:
256,192,19544,1,8,1:0:0:0:
256,192,19641,1,8,1:0:0:0:
256,192,19738,1,0,1:0:0:0:
256,192,19931,1,8,1:0:0:0:
256,192,20319,1,0,1:0:0:0:
256,192,20415,1,8,1:0:0:0:
256,192,20512,1,0,1:0:0:0:
256,192,20609,1,0,1:0:0:0:
256,192,20706,1,8,1:0:0:0:
256,192,20802,1,8,1:0:0:0:
256,192,20899,1,8,1:0:0:0:
256,192,20996,1,0,1:0:0:0:
256,192,21093,1,8,1:0:0:0:
256,192,21189,1,8,1:0:0:0:
256,192,21286,1,0,1:0:0:0:
256,192,21480,1,8,1:0:0:0:
256,192,21867,1,12,1:0:0:0:
256,192,22254,1,8,1:0:0:0:
256,192,22351,1,0,1:0:0:0:
256,192,22448,1,0,1:0:0:0:
256,192,22544,1,8,1:0:0:0:
256,192,22641,1,0,1:0:0:0:
256,192,22738,1,0,1:0:0:0:
256,192,22835,1,8,1:0:0:0:
256,192,23028,1,8,1:0:0:0:
256,192,23415,1,12,1:0:0:0:
256,192,23802,1,8,1:0:0:0:
256,192,23899,1,8,1:0:0:0:
256,192,23996,1,0,1:0:0:0:
256,192,24093,1,8,1:0:0:0:
256,192,24189,1,8,1:0:0:0:
256,192,24286,1,0,1:0:0:0:
256,192,24383,1,0,1:0:0:0:
256,192,24577,1,8,1:0:0:0:
256,192,24964,1,12,1:0:0:0:
256,192,25351,1,0,1:0:0:0:
256,192,25448,1,0,1:0:0:0:
256,192,25544,1,8,1:0:0:0:
256,192,25641,1,0,1:0:0:0:
256,192,25738,1,8,1:0:0:0:
256,192,25835,1,8,1:0:0:0:
256,192,25931,1,0,1:0:0:0:
256,192,26125,1,8,1:0:0:0:
256,192,26512,1,12,1:0:0:0:
256,192,26899,1,8,1:0:0:0:
256,192,26996,1,8,1:0:0:0:
256,192,27093,1,8,1:0:0:0:
256,192,27189,1,0,1:0:0:0:
256,192,27286,1,8,1:0:0:0:
256,192,27383,1,8,1:0:0:0:
256,192,27480,1,8,1:0:0:0:
256,192,27673,1,8,1:0:0:0:
256,192,28060,1,4,1:0:0:0:
256,192,28448,1,8,1:0:0:0:
256,192,28544,1,8,1:0:0:0:
256,192,28641,1,0,1:0:0:0:
256,192,28835,1,0,1:0:0:0:
256,192,29028,1,8,1:0:0:0:
256,192,29222,1,8,1:0:0:0:
256,192,29609,1,12,1:0:0:0:
256,192,29996,1,8,1:0:0:0:
256,192,30060,1,8,1:0:0:0:
256,192,30125,1,8,1:0:0:0:
256,192,30189,1,8,1:0:0:0:
256,192,30254,1,8,1:0:0:0:
256,192,30319,1,8,1:0:0:0:
256,192,30383,1,0,1:0:0:0:
256,192,30577,1,0,1:0:0:0:
256,192,30770,1,8,1:0:0:0:
256,192,31157,1,12,1:0:0:0:
256,192,31351,1,8,0:0:0:0:
256,192,31544,1,0,1:0:0:0:
256,192,31738,1,8,1:0:0:0:
256,192,31931,1,8,1:0:0:0:
256,192,32125,1,0,1:0:0:0:
256,192,32319,1,8,1:0:0:0:
256,192,32415,1,8,1:0:0:0:
256,192,32512,1,0,1:0:0:0:
256,192,32609,1,0,1:0:0:0:
256,192,32706,1,8,1:0:0:0:
256,192,32899,1,0,0:0:0:0:
256,192,33093,1,8,1:0:0:0:
256,192,33286,1,0,1:0:0:0:
256,192,33383,1,0,1:0:0:0:
256,192,33480,1,8,1:0:0:0:
256,192,33577,1,0,1:0:0:0:
256,192,33673,1,8,1:0:0:0:
256,192,33867,1,0,1:0:0:0:
256,192,33931,1,0,1:0:0:0:
256,192,33996,1,0,1:0:0:0:
256,192,34060,1,0,1:0:0:0:
256,192,34125,1,0,1:0:0:0:
256,192,34189,1,0,1:0:0:0:
256,192,34254,1,8,1:0:0:0:
256,192,34448,1,0,1:0:0:0:
256,192,34641,1,8,1:0:0:0:
256,192,34835,1,8,1:0:0:0:
256,192,34931,1,8,1:0:0:0:
256,192,35028,1,8,1:0:0:0:
256,192,35125,1,8,1:0:0:0:
256,192,35222,1,0,0:0:0:0:
256,192,35319,1,0,0:0:0:0:
256,192,35415,1,8,1:0:0:0:
256,192,35706,1,8,1:0:0:0:
256,192,35802,1,8,1:0:0:0:
256,192,35996,1,0,1:0:0:0:
256,192,36189,1,8,1:0:0:0:
256,192,36383,1,0,1:0:0:0:
256,192,36480,1,8,1:0:0:0:
256,192,36577,1,8,1:0:0:0:
256,192,36673,1,0,1:0:0:0:
256,192,36770,1,0,1:0:0:0:
256,192,36964,1,0,1:0:0:0:
256,192,37028,1,0,1:0:0:0:
256,192,37093,1,0,1:0:0:0:
256,192,37157,1,0,1:0:0:0:
256,192,37222,1,0,1:0:0:0:
256,192,37286,1,0,1:0:0:0:
256,192,37351,1,8,1:0:0:0:
256,192,37544,1,0,1:0:0:0:
256,192,37738,1,0,1:0:0:0:
256,192,37931,1,8,1:0:0:0:
256,192,38125,1,0,1:0:0:0:
256,192,38319,1,0,1:0:0:0:
256,192,38415,1,8,1:0:0:0:
256,192,38512,1,8,1:0:0:0:
224,160,38899,1,0,1:0:0:0:
224,160,39093,1,0,1:0:0:0:
224,160,39286,1,8,1:0:0:0:
224,160,39480,1,0,1:0:0:0:
224,160,39577,1,0,1:0:0:0:
224,160,39674,1,0,1:0:0:0:
224,160,39771,1,8,1:0:0:0:
224,160,39867,1,0,1:0:0:0:
256,160,39964,1,0,0:0:0:0:
224,160,40061,1,8,1:0:0:0:
254,189,40448,1,4,0:0:0:0:
