osu file format v14

[General]
AudioFilename: audio.mp3
AudioLeadIn: 0
PreviewTime: 9286
Countdown: 0
SampleSet: Normal
StackLeniency: 0.7
Mode: 1
LetterboxInBreaks: 0
WidescreenStoryboard: 1

[Editor]
DistanceSpacing: 1.5
BeatDivisor: 1
GridSize: 32
TimelineZoom: 1.8

[Metadata]
Title:2DF2
TitleUnicode:2DF2
Artist:fiend
ArtistUnicode:fiend
Creator:Axer
Version:Futsuu
Source:
Tags:feind 2d2f 2f2d 2fd2 n' & bonus track breakcore experimental jungle youngster jiji kamiyada+ fever dream drum and bass dnb hip-hop hip hop english featured artist fa heavenly moon ginjani
BeatmapID:2948898
BeatmapSetID:1432454

[Difficulty]
HPDrainRate:9
CircleSize:7
OverallDifficulty:4
ApproachRate:10
SliderMultiplier:1.4
SliderTickRate:1

[Events]
//Background and Video events
0,0,"feverdream.jpg",0,0
//Break Periods
//Storyboard Layer 0 (Background)
//Storyboard Layer 1 (Fail)
//Storyboard Layer 2 (Pass)
//Storyboard Layer 3 (Foreground)
//Storyboard Layer 4 (Overlay)
//Storyboard Sound Samples

[TimingPoints]
190,387.096774193548,4,1,0,5,1,0
190,-117.647058823529,4,1,0,5,0,0
9283,-117.647058823529,4,1,3,50,0,0
15477,-117.647058823529,4,1,3,40,0,0
21673,-117.647058823529,4,1,3,50,0,0
22254,-117.647058823529,4,1,3,50,0,0
22351,-117.647058823529,4,1,3,50,0,0
22448,-117.647058823529,4,1,3,50,0,0
22544,-117.647058823529,4,1,3,50,0,0
22641,-117.647058823529,4,1,3,50,0,0
22738,-117.647058823529,4,1,3,50,0,0
22835,-117.647058823529,4,1,3,50,0,0
22931,-117.647058823529,4,1,3,50,0,0
23028,-117.647058823529,4,1,3,50,0,0
23222,-117.647058823529,4,1,3,50,0,0
25351,-117.647058823529,4,1,3,50,0,0
25448,-117.647058823529,4,1,3,50,0,0
25544,-117.647058823529,4,1,3,50,0,0
25641,-117.647058823529,4,1,3,50,0,0
25738,-117.647058823529,4,1,3,50,0,0
25835,-117.647058823529,4,1,3,50,0,0
25931,-117.647058823529,4,1,3,50,0,0
26028,-117.647058823529,4,1,3,50,0,0
26125,-117.647058823529,4,1,3,50,0,0
26319,-117.647058823529,4,1,3,50,0,0
27867,-117.647058823529,4,1,3,40,0,0
29996,-117.647058823529,4,1,3,40,0,0
30060,-117.647058823529,4,1,3,40,0,0
30125,-117.647058823529,4,1,3,40,0,0
30189,-117.647058823529,4,1,3,40,0,0
30254,-117.647058823529,4,1,3,40,0,0
30319,-117.647058823529,4,1,3,40,0,0
30383,-117.647058823529,4,1,3,40,0,0
30480,-117.647058823529,4,1,3,40,0,0
30577,-117.647058823529,4,1,3,40,0,0
30673,-117.647058823529,4,1,3,40,0,0
30770,-117.647058823529,4,1,3,40,0,0
33867,-117.647058823529,4,1,3,40,0,0
33931,-117.647058823529,4,1,3,40,0,0
33996,-117.647058823529,4,1,3,40,0,0
34060,-117.647058823529,4,1,3,40,0,0
34125,-117.647058823529,4,1,3,40,0,0
34189,-117.647058823529,4,1,3,40,0,0
34254,-117.647058823529,4,1,3,40,0,0
40348,-117.647058823529,4,1,0,5,0,0
40448,387.096774193548,16,1,0,5,1,8
40448,-117.647058823529,4,1,0,5,0,0

[HitObjects]
256,192,9480,5,12,0:0:0:0:
256,192,9867,1,8,0:0:0:0:
256,192,10060,1,0,0:0:0:0:
256,192,10448,1,0,0:0:0:0:
256,192,10641,1,8,0:0:0:0:
256,192,11028,1,0,0:0:0:0:
256,192,11222,1,0,0:0:0:0:
256,192,11415,1,8,0:0:0:0:
256,192,11609,1,8,0:0:0:0:
256,192,12189,1,8,0:0:0:0:
256,192,12577,1,0,0:0:0:0:
256,192,12770,1,0,0:0:0:0:
256,192,12964,1,8,0:0:0:0:
256,192,13544,1,0,0:0:0:0:
256,192,13738,1,8,0:0:0:0:
256,192,14125,1,0,0:0:0:0:
256,192,14319,1,0,0:0:0:0:
256,192,14512,1,8,0:0:0:0:
256,192,14706,1,8,0:0:0:0:
256,192,15286,1,8,0:0:0:0:
256,192,15673,1,4,0:0:0:0:
256,192,16060,1,8,0:0:0:0:
256,192,16448,1,0,0:0:0:0:
256,192,16835,1,8,0:0:0:0:
256,192,17028,1,8,0:0:0:0:
256,192,17222,1,0,0:0:0:0:
256,192,17609,1,8,0:0:0:0:
256,192,17802,1,8,0:0:0:0:
256,192,18189,1,0,0:0:0:0:
256,192,18383,1,8,0:0:0:0:
256,192,18770,1,0,0:0:0:0:
256,192,19157,1,8,0:0:0:0:
256,192,19544,1,0,0:0:0:0:
256,192,19931,1,8,0:0:0:0:
256,192,20319,1,0,0:0:0:0:
256,192,20512,1,0,0:0:0:0:
256,192,20706,1,8,0:0:0:0:
256,192,20899,1,8,0:0:0:0:
256,192,21480,1,8,0:0:0:0:
256,192,21867,1,4,0:0:0:0:
256,192,22254,1,8,0:0:0:0:
256,192,22641,1,8,0:0:0:0:
256,192,22835,1,8,0:0:0:0:
256,192,23028,1,8,0:0:0:0:
256,192,23415,1,4,0:0:0:0:
256,192,23802,1,8,0:0:0:0:
256,192,24189,1,8,0:0:0:0:
256,192,24383,1,0,0:0:0:0:
256,192,24577,1,8,0:0:0:0:
256,192,24964,1,4,0:0:0:0:
256,192,25351,1,8,0:0:0:0:
256,192,25738,1,8,0:0:0:0:
256,192,25931,1,8,0:0:0:0:
256,192,26125,1,8,0:0:0:0:
256,192,26512,1,4,0:0:0:0:
256,192,26899,1,8,0:0:0:0:
256,192,27286,1,8,0:0:0:0:
256,192,28060,1,4,0:0:0:0:
256,192,28448,1,8,0:0:0:0:
256,192,28835,1,8,0:0:0:0:
256,192,29028,1,0,0:0:0:0:
256,192,29222,1,8,0:0:0:0:
256,192,29609,1,0,0:0:0:0:
256,192,29802,1,0,0:0:0:0:
256,192,29996,1,8,0:0:0:0:
256,192,30189,1,8,0:0:0:0:
256,192,30770,1,8,0:0:0:0:
256,192,31157,1,0,0:0:0:0:
256,192,31544,1,8,0:0:0:0:
256,192,31931,1,8,0:0:0:0:
256,192,32125,1,0,0:0:0:0:
256,192,32319,1,8,0:0:0:0:
256,192,32706,1,0,0:0:0:0:
256,192,33093,1,8,0:0:0:0:
256,192,33480,1,8,0:0:0:0:
256,192,33673,1,8,0:0:0:0:
256,192,33867,1,0,0:0:0:0:
256,192,34060,1,0,0:0:0:0:
256,192,34641,1,8,0:0:0:0:
256,192,35028,1,8,0:0:0:0:
256,192,35222,1,0,0:0:0:0:
256,192,35415,1,8,0:0:0:0:
256,192,35802,1,0,0:0:0:0:
256,192,36189,1,8,0:0:0:0:
256,192,36577,1,8,0:0:0:0:
256,192,36770,1,8,0:0:0:0:
256,192,36964,1,0,0:0:0:0:
256,192,37157,1,0,0:0:0:0:
256,192,37738,1,8,0:0:0:0:
256,192,38125,1,8,0:0:0:0:
256,192,38319,1,0,0:0:0:0:
256,192,38512,1,8,0:0:0:0:
256,192,38899,1,0,0:0:0:0:
256,192,39286,1,8,0:0:0:0:
256,192,39673,1,8,0:0:0:0:
256,192,39867,1,0,0:0:0:0:
256,192,40060,1,8,0:0:0:0:
256,192,40254,1,0,0:0:0:0:
256,192,40448,12,0,41802,0:0:0:0:
256,192,41996,12,0,43351,0:0:0:0:
256,192,43544,12,0,44899,0:0:0:0:
256,192,45093,12,0,46448,0:0:0:0:
