osu file format v14

[General]
AudioFilename: audio.mp3
AudioLeadIn: 0
PreviewTime: 18548
Countdown: 0
SampleSet: Soft
StackLeniency: 0.7
Mode: 0
LetterboxInBreaks: 0
WidescreenStoryboard: 1

[Editor]
Bookmarks: 9258,21645,34032,40272
DistanceSpacing: 1.2
BeatDivisor: 4
GridSize: 8
TimelineZoom: 1.8

[Metadata]
Title:2DF2
TitleUnicode:2DF2
Artist:fiend
ArtistUnicode:fiend
Creator:0ppInOsu
Version:hard
Source:
Tags:oppinosu q1x feind 2d2f 2f2d 2fd2 bonus track breakcore experimental jungle youngster jiji kamiyada+ timevid fever dream drum and bass dnb hip-hop hip hop english
BeatmapID:2679767
BeatmapSetID:1288865

[Difficulty]
HPDrainRate:4
CircleSize:4
OverallDifficulty:6
ApproachRate:7.9
SliderMultiplier:0.999999999999999
SliderTickRate:1

[Events]
//Background and Video events
0,0,"84179562_p12_master1200.jpg",0,0
//Break Periods
//Storyboard Layer 0 (Background)
//Storyboard Layer 1 (Fail)
//Storyboard Layer 2 (Pass)
//Storyboard Layer 3 (Foreground)
//Storyboard Layer 4 (Overlay)
//Storyboard Sound Samples

[TimingPoints]
24,387.096774193548,4,2,1,70,1,0
9217,-66.6666666666667,4,2,1,70,0,0
9314,-66.6666666666667,4,2,1,70,0,0
15894,-66.6666666666667,4,2,1,100,0,0
16669,-66.6666666666667,4,2,1,100,0,0
17056,-66.6666666666667,4,2,1,70,0,0
22088,-66.6666666666667,4,2,1,80,0,0
22959,-66.6666666666667,4,2,1,70,0,0
27894,-66.6666666666667,4,2,1,72,0,0
29927,-66.6666666666667,4,2,1,74,0,0
30023,-66.6666666666667,4,2,1,78,0,0
30120,-66.6666666666667,4,2,1,80,0,0
30217,-66.6666666666667,4,2,1,72,0,0
34088,-71.4285714285714,4,2,1,58,0,0
40427,-66.6666666666667,4,2,1,58,0,0
40475,-66.6666666666667,4,3,1,12,0,0

[Colours]
Combo1 : 204,202,157
Combo2 : 78,156,156
Combo3 : 75,103,46
Combo4 : 226,180,180

[HitObjects]
256,192,6217,12,0,8540,0:0:0:0:
93,287,9314,5,6,3:2:0:0:
169,333,9507,1,0,3:0:0:0:
235,272,9701,2,0,B|302:267|286:310|347:306,1,112.500004291534,10|8,0:0|3:1,0:0:0:0:
371,274,10088,2,0,L|415:261,2,37.5000014305115,2|8|2,0:3|0:1|3:2,0:0:0:0:
316,202,10475,1,10,0:0:0:0:
397,41,10862,2,0,P|408:89|381:140,1,75.000002861023,2|2,3:2|3:0,0:0:0:0:
321,70,11249,2,0,P|294:111|241:122,1,75.000002861023,10|2,0:0|0:3,0:0:0:0:
232,109,11540,1,8,0:1:0:0:
232,109,11636,2,0,L|171:96,2,37.5000014305115,2|8|2,0:3|0:1|3:2,0:0:0:0:
170,174,12023,2,0,L|62:197,1,75.000002861023,10|2,0:0|0:3,0:0:0:0:
34,123,12411,6,0,L|41:86,2,37.5000014305115,2|2|2,3:2|3:2|3:2,0:0:0:0:
0,206,12798,2,0,P|8:251|63:277,1,75.000002861023,10|2,0:0|0:3,0:0:0:0:
57,304,13088,1,8,3:1:0:0:
57,304,13185,2,0,L|161:280,1,75.000002861023,2|2,0:3|3:2,0:0:0:0:
219,300,13572,1,10,0:0:0:0:
390,355,13959,2,0,L|413:266,1,75.000002861023,2|2,3:2|3:0,0:0:0:0:
323,311,14346,2,0,L|346:222,1,75.000002861023,10|2,0:2|0:3,0:0:0:0:
325,201,14636,1,8,0:1:0:0:
325,201,14733,2,0,P|293:165|295:115,1,75.000002861023,2|2,0:3|3:2,0:0:0:0:
378,131,15120,2,0,P|411:105|422:66,1,75.000002861023,10|2,0:0|0:3,0:0:0:0:
350,14,15507,5,2,3:2:0:0:
185,76,15894,1,8,0:0:0:0:
185,76,15991,1,2,0:0:0:0:
185,76,16088,1,2,0:0:0:0:
109,26,16282,2,0,P|62:57|59:88,1,75.000002861023,2|2,0:0|0:0,0:0:0:0:
100,150,16669,2,0,L|85:202,1,37.5000014305115,8|8,0:1|0:1,0:0:0:0:
55,215,16862,2,0,L|64:253,1,37.5000014305115,8|8,0:1|0:1,0:0:0:0:
86,290,17056,2,0,L|185:309,1,75.000002861023,2|0,3:2|3:0,0:0:0:0:
245,278,17443,2,0,P|269:278|301:257,1,37.5000014305115,10|8,0:0|0:0,0:0:0:0:
325,264,17636,2,0,P|341:247|351:215,1,37.5000014305115,8|8,0:0|0:0,0:0:0:0:
377,201,17830,2,0,L|356:133,2,37.5000014305115,2|8|2,0:3|0:1|3:2,0:0:0:0:
463,233,18217,6,0,P|468:287|411:331,1,112.500004291534,10|0,0:0|0:0,0:0:0:0:
403,362,18604,2,0,L|300:344,1,75.000002861023,2|0,3:2|3:1,0:0:0:0:
257,294,18991,2,0,B|219:280|219:280|181:317,1,75.000002861023,10|2,0:2|0:3,0:0:0:0:
154,320,19281,1,8,3:1:0:0:
154,320,19378,2,0,L|136:227,1,75.000002861023,2|2,0:3|3:2,0:0:0:0:
120,158,19765,1,10,0:0:0:0:
241,24,20152,2,0,P|255:78|297:94,1,75.000002861023,2|0,3:2|3:1,0:0:0:0:
209,156,20540,2,0,P|257:184|301:169,1,75.000002861023,10|2,0:0|0:3,0:0:0:0:
322,193,20830,1,8,0:1:0:0:
322,193,20926,2,0,L|342:289,1,75.000002861023,2|2,0:3|3:2,0:0:0:0:
318,352,21314,1,10,0:0:0:0:
143,307,21701,6,0,L|84:325,2,37.5000014305115,2|0|0,3:2|3:2|3:0,0:0:0:0:
187,228,22088,2,0,L|199:173,1,37.5000014305115,10|2,0:0|0:0,0:0:0:0:
165,156,22282,2,0,L|152:89,1,37.5000014305115,2|8,0:3|3:1,0:0:0:0:
180,79,22475,1,2,0:3:0:0:
256,31,22669,1,2,3:2:0:0:
333,75,22862,2,0,B|403:88|377:122|445:139,1,112.500004291534,10|0,0:2|0:0,0:0:0:0:
471,136,23249,2,0,B|490:172|490:172|462:219,1,75.000002861023,2|2,3:2|3:0,0:0:0:0:
467,291,23636,2,0,L|371:308,1,75.000002861023,10|2,0:0|0:3,0:0:0:0:
349,289,23927,1,8,0:2:0:0:
349,289,24023,2,0,L|363:241,2,37.5000014305115,2|8|2,0:3|0:2|3:2,0:0:0:0:
286,354,24410,2,0,P|239:357|209:330,1,75.000002861023,10|2,0:0|0:0,0:0:0:0:
165,268,24798,5,2,3:2:0:0:
76,281,24991,1,0,3:1:0:0:
21,210,25185,2,0,P|32:188|73:174,1,37.5000014305115,8|0,0:0|0:0,0:0:0:0:
86,179,25378,2,0,L|190:157,1,75.000002861023,2|2,0:3|0:3,0:0:0:0:
200,140,25669,1,8,0:1:0:0:
200,140,25765,2,0,L|217:82,1,37.5000014305115,2|0,3:2|3:1,0:0:0:0:
198,60,25959,1,10,0:0:0:0:
374,94,26346,2,0,P|389:132|373:173,1,75.000002861023,2|0,3:2|3:1,0:0:0:0:
320,222,26733,2,0,L|231:241,1,75.000002861023,10|2,0:0|0:3,0:0:0:0:
226,277,27023,1,8,0:1:0:0:
226,277,27120,2,0,L|162:258,1,37.5000014305115,2|8,0:3|0:1,0:0:0:0:
150,243,27314,1,2,3:2:0:0:
66,276,27507,1,10,0:0:0:0:
17,107,27894,5,0,3:1:0:0:
17,107,28088,1,0,3:1:0:0:
101,67,28281,2,0,L|192:89,1,75.000002861023,10|2,0:0|0:3,0:0:0:0:
111,150,28669,2,0,L|202:173,1,75.000002861023,2|2,0:3|3:2,0:0:0:0:
262,212,29056,2,0,P|331:170|385:182,1,112.500004291534,10|0,0:0|0:0,0:0:0:0:
393,200,29443,1,2,3:2:0:0:
481,182,29636,1,2,3:0:0:0:
479,274,29830,2,0,L|432:284,1,37.5000014305115,8|8,0:1|0:1,0:0:0:0:
407,309,30023,2,0,L|359:300,1,37.5000014305115,8|8,0:1|0:1,0:0:0:0:
324,304,30217,2,0,B|292:330|292:330|239:313,1,75.000002861023,2|2,0:3|3:2,0:0:0:0:
173,288,30604,2,0,P|186:215|240:195,1,112.500004291534,10|0,0:0|0:0,0:0:0:0:
257,183,30991,6,0,L|240:93,1,75.000002861023,2|0,3:2|3:1,0:0:0:0:
329,135,31378,2,0,L|313:44,1,75.000002861023,10|2,0:0|0:3,0:0:0:0:
238,15,31765,2,0,L|188:1,1,37.5000014305115,2|8,0:3|0:1,0:0:0:0:
160,24,31959,1,2,3:2:0:0:
92,83,32153,2,0,B|133:117|133:117|113:205,1,112.500004291534,10|0,0:0|0:0,0:0:0:0:
93,210,32539,2,0,L|8:222,1,75.000002861023,2|0,3:2|3:1,0:0:0:0:
14,311,32927,2,0,L|100:298,1,75.000002861023,10|2,0:0|0:3,0:0:0:0:
175,277,33314,2,0,P|182:301|206:318,1,37.5000014305115,2|8,0:3|0:1,0:0:0:0:
233,323,33507,1,2,3:2:0:0:
319,296,33701,2,0,L|331:242,1,37.5000014305115,10|2,0:0|0:3,0:0:0:0:
363,232,33894,2,0,L|349:178,1,37.5000014305115,2|2,1:3|1:3,0:0:0:0:
349,150,34088,6,0,L|257:132,1,69.9999978637695,6|0,3:2|3:0,0:0:0:0:
218,79,34475,1,10,0:0:0:0:
146,123,34669,1,2,0:3:0:0:
72,82,34862,2,0,L|84:35,2,34.9999989318848,2|8|2,0:3|0:1|3:2,0:0:0:0:
9,138,35249,2,0,P|-11:185|40:241,1,104.999996795654,10|2,0:0|0:0,0:0:0:0:
33,266,35636,2,0,L|114:247,1,69.9999978637695,0|2,3:0|3:0,0:0:0:0:
170,297,36023,1,10,0:0:0:0:
249,270,36217,1,2,0:3:0:0:
320,314,36411,2,0,L|307:355,2,34.9999989318848,2|8|2,0:3|0:1|3:2,0:0:0:0:
391,269,36798,2,0,P|382:244|355:227,1,34.9999989318848,10|0,0:0|0:0,0:0:0:0:
374,197,36991,2,0,P|349:185|323:192,1,34.9999989318848,2|0,1:3|0:0,0:0:0:0:
310,158,37185,6,0,L|225:181,1,69.9999978637695,2|0,3:2|0:0,0:0:0:0:
169,215,37572,1,10,0:0:0:0:
119,149,37765,1,2,0:3:0:0:
54,203,37959,2,0,L|62:240,2,34.9999989318848,2|0|0,0:3|0:0|0:0,0:0:0:0:
1,145,38346,2,0,B|11:126|33:121|33:121|62:36|62:36,1,104.999996795654,10|0,0:0|0:0,0:0:0:0:
67,22,38733,1,2,3:2:0:0:
149,4,38927,1,0,3:1:0:0:
197,72,39120,2,0,L|328:97,1,104.999996795654,10|0,0:0|0:0,0:0:0:0:
340,92,39507,2,0,L|328:49,2,34.9999989318848,2|0|0,0:3|0:0|0:0,0:0:0:0:
369,164,39894,2,0,B|341:191|341:191|355:242,1,69.9999978637695,10|0,0:0|0:0,0:0:0:0:
428,218,40282,1,0,0:0:0:0:
