osu file format v14

[General]
AudioFilename: audio.mp3
AudioLeadIn: 0
PreviewTime: 221474
Countdown: 0
SampleSet: Soft
StackLeniency: 0.7
Mode: 0
LetterboxInBreaks: 0
WidescreenStoryboard: 0

[Editor]
Bookmarks: 1240,15933,25729,35525,50219,60015,69811,79607,89389,99185,113879,123674,133470,148164,157960,167756,177552,187348,202042,221634,231430,241225,251021,260817,270613,280409,290205
DistanceSpacing: 1.4
BeatDivisor: 6
GridSize: 8
TimelineZoom: 2.3

[Metadata]
Title:where you are
TitleUnicode:where you are
Artist:fhana
ArtistUnicode:fhána
Creator:Sotarks
Version:Melancholy
Source:
Tags:iljaaz kowari reform kujinn collaboration japanese female vocalist Junichi Sato yuxuki waga kevin mitsunaga towana lantis vocals
BeatmapID:2218803
BeatmapSetID:1059558

[Difficulty]
HPDrainRate:5.2
CircleSize:4.2
OverallDifficulty:8.2
ApproachRate:9.2
SliderMultiplier:2.02
SliderTickRate:1

[Events]
//Background and Video events
0,0,"bg.jpg",0,0
//Break Periods
//Storyboard Layer 0 (Background)
//Storyboard Layer 1 (Fail)
//Storyboard Layer 2 (Pass)
//Storyboard Layer 3 (Foreground)
//Storyboard Layer 4 (Overlay)
//Storyboard Sound Samples

[TimingPoints]
-1230,612.244897959184,4,2,22,42,1,0
1218,-192.307692307692,4,2,22,42,0,0
15912,-161.290322580645,4,2,22,52,0,0
35198,-312.5,4,2,22,52,0,0
35504,-161.290322580645,4,2,22,62,0,0
49586,-161.290322580645,4,2,22,72,0,0
50198,-81.9672131147541,4,2,22,82,0,0
86933,-138.888888888889,4,2,22,82,0,0
87009,-138.888888888889,4,2,22,52,0,0
88463,-138.888888888889,4,2,22,62,0,0
89382,-89.2857142857144,4,2,22,72,0,0
112800,-89.2857142857144,4,2,22,22,0,0
113872,-161.290322580645,4,2,22,52,0,0
133463,-161.290322580645,4,2,22,62,0,0
147545,-161.290322580645,4,2,22,72,0,0
148157,-81.9672131147541,4,2,22,82,0,0
189790,-70.4225352112676,4,2,22,82,0,0
199586,-70.4225352112676,4,2,22,92,0,0
200504,-61.7283950617284,4,2,22,92,0,0
202035,-81.9672131147541,4,2,22,82,0,0
221014,-81.9672131147541,4,2,22,92,0,0
221627,-81.9672131147541,4,2,22,72,0,0
222239,-61.7283950617284,4,2,22,92,0,0
222851,-81.9672131147541,4,2,22,92,0,0
231423,-81.9672131147541,4,2,22,82,0,0
258361,-138.888888888889,4,2,22,82,0,0
258438,-138.888888888889,4,2,22,52,0,0
259891,-138.888888888889,4,2,22,62,0,0
259892,-138.888888888889,4,2,22,62,0,0
260734,-138.888888888889,4,2,22,5,0,0
260810,-81.9672131147541,4,2,22,82,0,0
289586,-81.9672131147541,4,2,22,92,0,0

[Colours]
Combo1 : 255,43,43
Combo2 : 95,124,146
Combo3 : 146,187,194
Combo4 : 116,101,139
Combo5 : 159,175,217
Combo6 : 157,240,255
Combo7 : 124,174,250

[HitObjects]
156,88,1218,6,0,P|190:96|221:100,1,52.5199996794434,2|0,0:0|0:0,0:0:0:0:
228,71,1831,2,0,P|202:77|176:81,1,52.5199996794434,2|0,0:0|0:0,0:0:0:0:
292,180,2443,6,0,P|326:188|357:192,1,52.5199996794434,2|0,0:0|0:0,0:0:0:0:
364,163,3055,2,0,P|338:169|312:173,1,52.5199996794434,2|0,0:0|0:0,0:0:0:0:
88,164,3667,85,2,0:0:0:0:
111,229,3974,1,0,0:0:0:0:
111,190,4280,5,2,0:0:0:0:
60,292,4586,1,0,0:0:0:0:
86,256,4892,85,2,0:0:0:0:
172,303,5198,1,0,0:0:0:0:
233,236,5504,5,2,0:0:0:0:
292,356,5810,1,0,0:0:0:0:
365,257,5963,85,0,0:0:0:0:
365,257,6040,1,0,0:0:0:0:
365,257,6116,2,0,P|334:254|309:250,1,52.5199996794434,2|0,0:0|0:0,0:0:0:0:
278,230,6729,2,0,P|309:227|334:223,1,52.5199996794434,2|0,0:0|0:0,0:0:0:0:
404,113,7341,2,0,P|435:110|460:106,1,52.5199996794434,2|0,0:0|0:0,0:0:0:0:
491,86,7954,2,0,P|460:83|435:79,1,52.5199996794434,2|0,0:0|0:0,0:0:0:0:
265,68,8412,6,0,L|270:84,1,13.1299999198608
274,106,8565,86,0,P|270:157|268:166,2,35.0133331196289,2|0|0,0:0|0:0|0:0,0:0:0:0:
246,214,9178,2,0,P|250:265|252:274,2,35.0133331196289,2|0|0,0:0|0:0|0:0,0:0:0:0:
274,306,9790,2,0,P|270:357|268:366,2,35.0133331196289,2|0|0,0:0|0:0|0:0,0:0:0:0:
245,346,10402,2,0,P|249:397|251:406,2,35.0133331196289,2|0|0,0:0|0:0|0:0,0:0:0:0:
230,320,10938,5,0,0:0:0:0:
230,320,11014,86,0,P|197:328|191:328,1,35.0133331196289,2|0,0:0|0:0,0:0:0:0:
113,265,11423,1,0,0:0:0:0:
220,243,11627,2,0,P|191:225|186:221,1,35.0133331196289,2|0,0:0|0:0,0:0:0:0:
174,148,12036,1,0,0:0:0:0:
260,178,12239,2,0,P|252:145|251:139,1,35.0133331196289,2|0,0:0|0:0,0:0:0:0:
275,102,12648,1,0,0:0:0:0:
340,163,12851,2,0,P|357:134|361:129,2,35.0133331196289,2|0|0,0:0|0:0|0:0,0:0:0:0:
352,192,13387,1,0,0:0:0:0:
352,192,13463,5,2,0:0:0:0:
287,250,13667,1,0,0:0:0:0:
182,187,13872,1,0,0:0:0:0:
60,289,14076,85,2,0:0:0:0:
133,246,14280,1,0,0:0:0:0:
260,353,14484,1,0,0:0:0:0:
406,197,14688,5,2,0:0:0:0:
497,384,15912,85,2,0:0:0:0:
367,262,16218,1,0,0:0:0:0:
329,324,16372,1,0,0:0:0:0:
496,255,16525,2,0,P|485:224|475:183,1,62.6199975156861,0|0,3:0|0:0,0:0:0:0:
417,151,16984,1,0,0:0:0:0:
320,81,17137,6,0,P|327:54|333:1,1,62.6199975156861,2|0,3:0|0:0,0:0:0:0:
485,123,17749,1,2,0:0:0:0:
351,237,18055,1,0,0:0:0:0:
235,133,18361,86,0,P|261:148|297:161,1,62.6199975156861,2|0,0:0|0:0,0:0:0:0:
257,225,18821,1,0,0:0:0:0:
165,341,18974,2,0,P|193:331|230:324,1,62.6199975156861,0|0,3:0|0:0,0:0:0:0:
186,258,19433,1,0,0:0:0:0:
72,160,19586,2,0,P|63:207|51:246,1,62.6199975156861,2|0,3:0|0:0,0:0:0:0:
223,104,20198,1,2,0:0:0:0:
95,22,20504,1,0,0:0:0:0:
278,198,20810,6,0,B|341:189|321:147|402:135,1,125.239995031372,2|0,0:0|3:0,0:0:0:0:
245,15,21729,1,0,0:0:0:0:
216,80,21882,1,0,0:0:0:0:
382,23,22035,2,0,P|352:12|313:-6,1,62.6199975156861,2|0,3:0|0:0,0:0:0:0:
381,183,22647,2,0,P|409:169|443:161,1,62.6199975156861,2|0,0:0|0:0,0:0:0:0:
279,124,23259,86,0,P|268:191|255:260,1,125.239995031372,2|0,0:0|3:0,0:0:0:0:
377,363,24178,1,0,0:0:0:0:
465,229,24484,2,0,P|469:263|480:309,1,62.6199975156861,2|0,3:0|0:0,0:0:0:0:
359,175,25096,1,2,0:0:0:0:
244,357,25402,1,0,0:0:0:0:
310,325,25555,1,0,0:0:0:0:
172,245,25708,6,0,P|159:291|156:315,1,62.6199975156861,2|0,0:0|0:0,0:0:0:0:
253,176,26167,1,0,0:0:0:0:
154,93,26321,2,0,P|163:122|169:153,1,62.6199975156861,0|0,3:0|0:0,0:0:0:0:
230,18,26780,1,0,0:0:0:0:
58,90,26933,2,0,P|63:59|73:29,1,62.6199975156861,2|0,3:0|0:0,0:0:0:0:
173,167,27545,1,2,0:0:0:0:
89,313,27851,1,0,0:0:0:0:
357,190,28157,85,2,0:0:0:0:
419,359,28463,1,0,0:0:0:0:
343,302,28616,1,0,0:0:0:0:
437,231,28770,2,0,P|451:184|451:153,1,62.6199975156861,0|0,3:0|0:0,0:0:0:0:
376,97,29229,1,0,0:0:0:0:
231,94,29382,2,0,P|217:47|217:16,1,62.6199975156861,2|0,3:0|0:0,0:0:0:0:
282,202,29994,1,2,0:0:0:0:
221,312,30300,1,0,0:0:0:0:
137,257,30606,6,0,B|222:252|174:291|279:287,1,125.239995031372,2|0,0:0|3:0,0:0:0:0:
442,217,31525,1,0,0:0:0:0:
368,254,31678,1,0,0:0:0:0:
451,353,31831,2,0,P|466:306|469:286,1,62.6199975156861,2|0,3:0|0:0,0:0:0:0:
369,173,32290,1,0,0:0:0:0:
448,121,32443,2,0,P|457:86|457:72,1,31.3099987578431,2|0,0:0|0:0,0:0:0:0:
323,70,32749,2,0,P|314:35|314:21,1,31.3099987578431
324,22,32979,1,0,0:0:0:0:
324,22,33055,86,0,B|244:48|272:5|195:35,1,125.239995031372,2|0,0:0|3:0,0:0:0:0:
350,38,33974,1,0,0:0:0:0:
157,98,34280,2,0,P|112:86|81:81,1,62.6199975156861,2|0,3:0|0:0,0:0:0:0:
248,202,34892,1,2,0:0:0:0:
159,240,35045,1,2,0:0:0:0:
275,321,35198,2,0,P|272:303|269:291,1,24.24,0|0,3:0|0:0,0:0:0:0:
278,285,35504,22,0,B|341:301|320:328|387:350,1,125.239995031372,6|0,1:2|3:0,0:0:0:0:
410,163,36729,2,0,P|393:173|370:180,1,31.3099987578431,8|0,0:0|0:0,0:0:0:0:
444,290,37035,1,0,0:0:0:0:
494,235,37188,2,0,P|479:227|459:221,1,31.3099987578431
374,338,37494,2,0,P|362:307|363:266,1,62.6199975156861,0|0,1:0|0:0,0:0:0:0:
374,256,37953,5,2,1:2:0:0:
181,163,38259,1,0,0:0:0:0:
140,225,38412,2,0,P|123:230|104:239,1,31.3099987578431,0|0,0:0|3:0,0:0:0:0:
260,162,38718,1,0,0:0:0:0:
162,80,38872,2,0,P|138:76|108:65,1,46.9649981367646
105,80,39178,86,0,B|170:71|142:40|220:27,1,125.239995031372,8|0,0:0|3:0,0:0:0:0:
373,217,40096,1,2,3:0:0:0:
455,73,40402,6,0,P|403:65|346:113,1,125.239995031372,2|0,1:2|0:0,0:0:0:0:
489,245,41321,1,0,0:0:0:0:
342,318,41627,2,0,P|351:291|358:253,1,62.6199975156861,8|0,0:0|0:0,0:0:0:0:
487,362,42239,1,0,3:0:0:0:
487,362,42392,2,0,P|451:368|418:384,1,62.6199975156861,0|0,1:0|0:0,0:0:0:0:
326,331,42851,86,0,P|280:346|227:294,1,125.239995031372,2|0,1:2|0:0,0:0:0:0:
157,208,43770,1,0,0:0:0:0:
53,345,44076,2,0,P|78:331|118:322,1,62.6199975156861,8|0,0:0|0:0,0:0:0:0:
0,180,44688,1,0,3:0:0:0:
88,86,44841,2,0,P|76:117|66:156,1,62.6199975156861,0|0,1:0|0:0,0:0:0:0:
294,252,45300,6,0,P|299:190|257:145,1,125.239995031372,2|0,1:2|3:0,0:0:0:0:
219,81,46218,1,0,0:0:0:0:
407,1,46525,2,0,P|348:21|285:27,1,125.239995031372,8|0,0:0|0:0,0:0:0:0:
459,164,47443,1,2,3:0:0:0:
257,384,47749,85,2,0:0:0:0:
256,371,48667,5,2,0:0:0:0:
257,355,49280,85,4,0:3:0:0:
147,229,49433,1,8,0:3:0:0:
142,240,49509,1,8,0:3:0:0:
140,253,49586,85,8,0:0:0:0:
298,171,49739,1,8,0:0:0:0:
177,142,49892,1,8,0:3:0:0:
273,244,50045,1,4,0:3:0:0:
249,76,50198,54,0,P|285:70|332:52,1,61.6099974617463,2|0,1:2|0:2,0:2:0:0:
202,304,50504,2,0,P|173:295|143:291,1,61.6099974617463,0|0,1:2|0:2,0:2:0:0:
374,187,50810,2,0,P|435:161|505:152,1,123.219994923493,8|2,0:2|1:2,0:2:0:0:
171,193,51270,2,0,P|159:120|154:104,1,61.6099974617463,10|0,0:2|1:2,0:2:0:0:
271,232,51576,1,8,0:2:0:0:
52,268,51729,2,0,P|64:195|69:179,1,61.6099974617463,0|0,1:2|0:2,0:2:0:0:
137,360,52035,1,8,0:2:0:0:
137,360,52341,1,2,1:2:0:0:
268,303,52494,1,10,0:2:0:0:
363,358,52647,86,0,P|309:367|256:391,1,61.6099974617463,0|0,1:2|0:2,0:2:0:0:
445,178,52953,2,0,P|391:169|338:145,1,61.6099974617463,2|0,1:2|0:2,0:2:0:0:
466,302,53259,1,10,0:2:0:0:
317,261,53412,2,0,P|346:253|377:249,1,61.6099974617463,2|0,0:2|1:2,0:2:0:0:
190,320,53718,2,0,P|108:304|62:283,1,123.219994923493,10|8,0:2|0:2,0:2:0:0:
71,288,54178,1,2,1:2:0:0:
302,181,54484,1,10,0:2:0:0:
302,181,54790,1,2,1:2:0:0:
154,125,54943,1,8,0:2:0:0:
211,251,55096,6,0,P|200:183|196:172,1,61.6099974617463,6|0,1:2|0:2,0:2:0:0:
362,50,55402,2,0,P|355:80|353:110,1,61.6099974617463,0|0,1:2|0:2,0:2:0:0:
185,55,55708,2,0,P|112:44|68:87,1,123.219994923493,8|2,0:2|1:2,0:2:0:0:
267,164,56167,2,0,P|340:153|384:196,1,123.219994923493,8|8,0:2|0:2,0:2:0:0:
132,237,56627,2,0,P|108:302|109:317,1,61.6099974617463,0|0,1:2|0:2,0:2:0:0:
272,366,56933,1,8,0:2:0:0:
272,366,57239,1,2,1:2:0:0:
240,255,57392,1,8,0:2:0:0:
204,322,57545,85,2,1:2:0:0:
326,267,57698,1,8,0:2:0:0:
392,327,57851,1,0,1:2:0:0:
460,293,58004,1,2,1:2:0:0:
403,174,58157,2,0,P|393:254|389:269,1,61.6099974617463,8|0,0:2|0:2,0:2:0:0:
336,46,58463,5,2,1:2:0:0:
397,95,58616,1,8,0:2:0:0:
449,36,58770,1,0,1:2:0:0:
257,142,58923,1,8,0:2:0:0:
188,91,59076,1,0,1:2:0:0:
273,243,59229,1,0,1:2:0:0:
163,340,59382,85,8,0:2:0:0:
257,142,59535,1,8,0:2:0:0:
421,274,59688,1,0,0:0:0:0:
420,316,59790,1,0,0:0:0:0:
422,346,59892,1,0,0:0:0:0:
422,346,59994,6,0,P|413:318|408:277,1,61.6099974617463,6|0,1:2|0:2,0:2:0:0:
257,142,60300,2,0,P|285:155|337:168,1,61.6099974617463,0|0,1:2|0:2,0:2:0:0:
182,330,60606,2,0,P|143:285|65:287,1,123.219994923493,8|2,0:2|1:2,0:2:0:0:
30,222,61065,1,10,0:2:0:0:
158,111,61218,1,0,1:2:0:0:
185,181,61372,1,8,0:2:0:0:
32,93,61525,2,0,P|41:69|55:25,1,61.6099974617463,0|0,1:2|0:2,0:2:0:0:
125,232,61831,2,0,P|67:249|-11:283,1,123.219994923493,8|2,0:2|1:2,0:0:0:0:
158,111,62290,1,10,0:2:0:0:
269,168,62443,86,0,P|327:180|397:214,1,123.219994923493,0|2,1:2|1:2,0:2:0:0:
475,133,62902,1,0,1:2:0:0:
512,257,63055,1,10,0:2:0:0:
381,111,63208,2,0,P|391:84|406:27,1,61.6099974617463,2|0,0:2|1:2,0:2:0:0:
498,148,63514,1,10,0:2:0:0:
305,254,63667,1,0,0:0:0:0:
412,349,63821,1,8,0:2:0:0:
452,211,63974,2,0,P|422:222|385:252,1,61.6099974617463,2|0,1:2|0:0,0:0:0:0:
219,357,64280,2,0,P|249:368|286:398,1,61.6099974617463,10|0,0:2|0:0,0:0:0:0:
203,153,64586,1,2,1:2:0:0:
142,236,64739,1,8,0:2:0:0:
339,156,64892,6,0,P|322:104|309:29,1,123.219994923493,6|0,1:2|1:2,0:2:0:0:
245,0,65351,1,0,0:2:0:0:
72,127,65504,2,0,P|126:142|207:180,1,123.219994923493,8|2,0:2|1:2,0:2:0:0:
102,20,65963,1,8,0:2:0:0:
203,87,66116,2,0,P|168:96|133:113,1,61.6099974617463,0|8,1:0|0:2,0:0:0:0:
238,326,66423,2,0,P|268:283|265:198,1,123.219994923493,0|8,1:2|0:2,0:2:0:0:
212,166,66882,1,0,0:0:0:0:
61,310,67035,2,0,P|90:320|125:341,1,61.6099974617463,2|8,1:2|0:2,0:0:0:0:
292,194,67341,86,0,P|323:187|368:170,1,61.6099974617463,2|8,1:2|0:2,0:0:0:0:
456,325,67647,1,0,1:2:0:0:
360,271,67800,1,2,1:2:0:0:
480,138,67953,2,0,P|490:165|497:209,1,61.6099974617463,8|0,0:2|0:2,0:2:0:0:
357,353,68259,2,0,P|367:326|374:282,1,61.6099974617463,2|8,1:2|0:2,0:0:0:0:
261,93,68565,1,0,1:2:0:0:
283,169,68718,1,8,0:2:0:0:
414,87,68872,1,0,1:2:0:0:
360,35,69025,1,0,1:2:0:0:
346,39,69101,1,0,1:0:0:0:
333,42,69178,5,8,0:2:0:0:
197,155,69331,1,8,0:2:0:0:
186,31,69484,1,8,0:2:0:0:
363,151,69637,1,8,0:2:0:0:
230,320,69790,86,0,P|225:275|215:237,1,61.6099974617463,2|0,1:2|0:2,0:2:0:0:
452,196,70096,2,0,P|446:226|443:256,1,61.6099974617463,0|0,1:2|0:2,0:2:0:0:
197,155,70402,2,0,P|130:205|48:184,1,123.219994923493,8|2,0:2|1:2,0:2:0:0:
226,41,70861,2,0,P|294:65|309:64,1,61.6099974617463,10|0,0:2|1:2,0:2:0:0:
409,14,71167,1,8,0:2:0:0:
197,155,71321,2,0,P|265:131|280:132,1,61.6099974617463,0|0,1:2|0:2,0:2:0:0:
468,216,71627,1,8,0:2:0:0:
468,216,71933,1,2,1:2:0:0:
389,147,72086,1,10,0:2:0:0:
366,299,72239,6,0,P|394:235|397:221,1,61.6099974617463,0|0,1:2|0:2,0:2:0:0:
197,155,72545,2,0,P|207:183|222:210,1,61.6099974617463,2|0,1:2|0:2,0:2:0:0:
294,44,72851,1,10,0:2:0:0:
129,79,73004,2,0,P|114:105|103:134,1,61.6099974617463,2|0,0:2|1:2,0:2:0:0:
263,288,73310,1,10,0:2:0:0:
299,186,73463,1,0,0:0:0:0:
197,155,73616,1,8,0:2:0:0:
170,258,73769,1,2,1:2:0:0:
170,258,74076,2,0,P|97:281|83:292,1,61.6099974617463,10|0,0:2|0:0,0:0:0:0:
216,59,74382,2,0,P|246:62|275:73,1,61.6099974617463,2|8,1:2|0:2,0:0:0:0:
446,216,74688,86,0,P|351:239|300:283,1,123.219994923493,6|0,1:2|1:2,0:2:0:0:
392,147,75147,1,2,0:2:0:0:
361,313,75300,2,0,P|295:286|246:289,1,61.6099974617463,8|0,0:2|0:0,0:2:0:0:
277,125,75606,2,0,P|306:115|332:99,1,61.6099974617463,2|8,1:2|0:2,0:0:0:0:
204,261,75912,1,0,0:0:0:0:
136,175,76065,1,8,0:2:0:0:
81,307,76218,2,0,P|123:243|125:233,1,61.6099974617463,2|0,1:2|0:2,0:2:0:0:
12,72,76525,2,0,P|28:153|54:210,1,123.219994923493,8|2,0:2|1:2,0:0:0:0:
79,22,76984,1,8,0:2:0:0:
86,24,77060,1,0,1:0:0:0:
93,26,77137,5,2,1:2:0:0:
170,126,77290,1,8,0:2:0:0:
254,67,77443,1,0,1:2:0:0:
186,30,77596,1,2,1:2:0:0:
218,227,77749,2,0,P|239:169|237:147,1,61.6099974617463,8|0,0:2|0:2,0:2:0:0:
300,295,78055,1,2,1:2:0:0:
133,238,78208,1,8,0:2:0:0:
236,363,78361,2,0,P|215:305|217:283,1,61.6099974617463,2|8,1:2|0:2,0:0:0:0:
340,169,78667,1,2,1:2:0:0:
256,202,78821,1,2,1:2:0:0:
451,313,78974,85,8,0:2:0:0:
387,266,79127,1,10,0:2:0:0:
447,161,79280,1,8,0:3:0:0:
423,91,79433,1,4,0:3:0:0:
335,26,79586,6,0,P|303:18|260:5,1,61.6099974617463,6|0,1:2|0:2,0:2:0:0:
146,168,79892,2,0,P|173:157|222:146,1,61.6099974617463,0|0,1:2|0:2,0:2:0:0:
69,14,80198,1,8,0:2:0:0:
69,14,80504,1,2,1:2:0:0:
33,82,80657,1,10,0:2:0:0:
162,138,80810,1,0,1:2:0:0:
132,68,80963,1,8,0:2:0:0:
7,193,81116,2,0,P|39:204|75:225,1,61.6099974617463,0|0,1:2|0:2,0:2:0:0:
201,312,81423,2,0,P|136:324|78:352,1,123.219994923493,8|2,0:2|1:2,0:2:0:0:
161,228,81882,1,0,1:2:0:0:
294,338,82035,85,2,1:2:0:0:
388,384,82188,1,8,0:2:0:0:
426,232,82341,1,0,1:2:0:0:
356,270,82494,1,0,1:2:0:0:
512,353,82647,2,0,P|497:323|487:281,1,61.6099974617463,8|0,0:2|0:2,0:2:0:0:
402,364,82953,1,2,1:2:0:0:
292,178,83106,1,10,0:2:0:0:
292,178,83259,2,0,P|286:208|273:241,1,61.6099974617463,0|8,1:2|0:2,0:2:0:0:
488,150,83565,2,0,B|426:130|454:98|370:76,1,123.219994923493,0|8,1:2|0:2,0:2:0:0:
385,89,84178,2,0,P|413:82|451:76,1,61.6099974617463,2|0,1:2|0:2,0:2:0:0:
253,30,84484,6,0,P|192:16|103:9,1,123.219994923493,6|2,1:2|0:2,0:2:0:0:
237,135,84943,1,0,1:2:0:0:
112,204,85096,2,0,P|147:197|187:182,1,61.6099974617463,10|0,0:2|0:2,0:2:0:0:
57,90,85402,1,2,1:2:0:0:
36,160,85555,1,8,0:2:0:0:
197,61,85708,1,0,1:2:0:0:
129,42,85861,1,8,0:2:0:0:
249,161,86014,1,4,1:2:0:0:
249,161,86321,85,8,0:2:0:0:
171,188,86474,1,8,0:2:0:0:
123,293,86627,1,8,0:3:0:0:
201,384,86780,1,4,0:3:0:0:
291,361,86933,70,0,P|284:212|258:-5,1,363.600008876953,4|8,1:2|0:0,0:0:0:0:
388,100,88616,5,0,1:0:0:0:
377,107,88693,1,0,1:0:0:0:
366,111,88770,1,10,0:0:0:0:
423,13,88923,1,8,0:0:0:0:
483,137,89076,1,8,0:3:0:0:
473,101,89382,6,0,P|415:115|390:116,1,56.5600006904297,6|0,1:2|0:2,0:2:0:0:
188,49,89688,1,0,1:2:0:0:
263,161,89841,1,0,1:2:0:0:
325,83,89994,2,0,P|298:74|270:69,1,56.5600006904297,8|0,0:2|0:2,0:2:0:0:
331,274,90300,1,0,1:2:0:0:
187,257,90453,2,0,P|214:251|241:243,1,56.5600006904297,8|0,0:2|1:2,0:2:0:0:
297,357,90759,1,8,0:2:0:0:
239,293,90912,2,0,P|165:272|93:273,1,113.120001380859,0|8,1:2|0:2,0:2:0:0:
129,269,91525,1,0,1:2:0:0:
90,144,91678,1,8,0:2:0:0:
42,215,91831,6,0,B|116:210|76:249|177:237,1,113.120001380859,2|0,1:2|1:2,0:2:0:0:
279,155,92290,1,0,1:2:0:0:
174,108,92443,2,0,P|190:166|203:188,1,56.5600006904297,8|0,0:2|0:2,0:2:0:0:
317,272,92749,1,0,1:2:0:0:
279,155,92902,2,0,P|274:182|264:209,1,56.5600006904297,8|0,0:2|1:2,0:2:0:0:
372,104,93208,1,8,0:2:0:0:
188,162,93361,2,0,P|110:146|33:145,1,113.120001380859,0|8,1:2|0:2,0:2:0:0:
76,143,93974,1,0,1:2:0:0:
238,93,94127,1,8,0:2:0:0:
345,217,94280,86,0,P|356:273|352:309,1,56.5600006904297,6|0,1:2|0:2,0:2:0:0:
177,217,94586,2,0,P|179:188|187:161,1,56.5600006904297,0|0,1:2|0:2,0:2:0:0:
253,319,94892,2,0,P|171:353|139:381,1,113.120001380859,8|0,0:2|1:2,0:2:0:0:
155,372,95300,2,0,P|197:388|203:387,1,37.7066671269531,0|0,0:2|0:2,0:2:0:0:
263,235,95504,1,2,1:2:0:0:
342,293,95657,1,8,0:2:0:0:
360,208,95810,2,0,P|406:217|429:235,1,56.5600006904297,0|0,1:2|0:2,0:2:0:0:
210,92,96116,2,0,P|184:103|156:105,1,56.5600006904297,8|0,0:2|0:2,0:2:0:0:
371,89,96423,2,0,B|367:85|384:48|389:-11,1,84.8400010356445,0|0,1:2|0:2,0:2:0:0:
394,8,96729,6,0,P|339:29|325:44,1,56.5600006904297,2|0,1:2|0:2,0:2:0:0:
256,220,97035,1,0,1:2:0:0:
331,165,97188,1,0,1:2:0:0:
210,92,97341,2,0,P|221:142|230:164,1,56.5600006904297,10|0,0:2|0:2,0:2:0:0:
356,250,97647,1,0,1:2:0:0:
258,336,97800,1,8,0:2:0:0:
329,319,97953,1,2,1:2:0:0:
198,288,98106,1,8,0:2:0:0:
281,198,98259,2,0,P|276:225|268:252,1,56.5600006904297,0|0,1:2|0:2,0:2:0:0:
148,96,98565,85,10,1:2:0:0:
315,36,98718,1,8,0:2:0:0:
369,195,98872,1,8,0:2:0:0:
202,255,99025,1,8,0:2:0:0:
377,105,99178,6,0,P|403:118|451:131,1,56.5600006904297,6|0,1:2|0:2,0:2:0:0:
286,289,99484,2,0,P|310:278|345:268,1,56.5600006904297,0|0,1:2|0:2,0:2:0:0:
196,83,99790,2,0,P|159:126|169:194,1,113.120001380859,8|0,0:2|1:2,0:2:0:0:
218,226,100249,1,8,0:2:0:0:
62,314,100402,2,0,P|70:285|77:243,1,56.5600006904297,0|8,1:2|0:2,0:2:0:0:
186,372,100708,1,0,1:2:0:0:
186,372,101014,1,10,0:2:0:0:
298,196,101167,2,0,P|303:225|314:262,1,56.5600006904297,2|0,0:2|1:2,0:2:0:0:
188,137,101474,1,10,0:2:0:0:
345,307,101627,86,0,P|308:273|226:269,1,113.120001380859,2|0,1:2|1:2,0:2:0:0:
381,160,102086,1,0,1:2:0:0:
280,61,102239,2,0,P|273:94|258:130,1,56.5600006904297,8|0,0:2|0:2,0:2:0:0:
397,29,102545,1,0,1:2:0:0:
512,207,102698,2,0,P|457:221|390:253,1,113.120001380859,8|8,0:2|0:2,0:2:0:0:
461,94,103157,2,0,P|486:108|522:118,1,56.5600006904297,2|0,1:2|0:2,0:2:0:0:
397,276,103463,2,0,P|419:264|453:257,1,56.5600006904297,10|0,0:2|0:2,0:2:0:0:
310,180,103770,1,2,1:2:0:0:
310,180,104076,6,0,P|283:193|246:202,1,56.5600006904297,2|0,1:2|0:2,0:2:0:0:
128,352,104382,2,0,P|136:324|144:285,1,56.5600006904297,0|0,1:2|0:2,0:2:0:0:
39,117,104688,2,0,P|80:153|140:181,1,113.120001380859,8|0,0:2|1:2,0:2:0:0:
81,239,105147,1,0,1:2:0:0:
267,321,105300,2,0,P|235:326|208:342,1,56.5600006904297,2|0,1:2|0:2,0:2:0:0:
284,163,105606,2,0,P|289:191|303:226,1,56.5600006904297,0|0,1:2|0:2,0:2:0:0:
95,117,105912,2,0,P|147:107|216:74,1,113.120001380859,8|0,0:2|1:2,0:2:0:0:
253,142,106372,1,8,0:2:0:0:
424,53,106525,86,0,P|387:15|308:23,1,113.120001380859,2|0,1:2|1:2,0:2:0:0:
442,135,106984,1,0,1:2:0:0:
313,263,107137,2,0,P|363:244|441:234,1,113.120001380859,10|0,0:2|1:2,0:2:0:0:
253,142,107596,1,8,0:2:0:0:
351,86,107749,1,2,1:2:0:0:
374,157,107902,1,8,0:2:0:0:
217,65,108055,2,0,P|247:62|277:49,1,56.5600006904297,0|0,1:2|0:2,0:2:0:0:
157,211,108361,5,10,0:2:0:0:
265,265,108514,1,8,0:2:0:0:
124,284,108667,1,8,0:3:0:0:
255,182,108821,1,4,0:3:0:0:
81,54,108974,86,0,P|47:104|51:176,1,113.120001380859,6|0,1:2|1:2,0:2:0:0:
223,384,109586,2,0,P|195:366|153:355,1,56.5600006904297,8|0,0:2|0:2,0:2:0:0:
332,236,109892,1,0,1:2:0:0:
265,265,110045,1,8,0:2:0:0:
381,365,110198,1,0,1:2:0:0:
312,337,110351,1,8,0:2:0:0:
453,224,110504,2,0,P|465:252|466:291,1,56.5600006904297,0|0,1:2|0:2,0:2:0:0:
271,187,110810,2,0,P|277:130|320:67,1,113.120001380859,8|0,0:2|1:2,0:2:0:0:
512,77,111423,6,0,P|470:112|399:123,1,113.120001380859,6|8,1:2|0:3,0:2:0:0:
200,13,112035,1,8,0:2:0:0:
106,120,112188,1,8,0:2:0:0:
232,85,112341,1,8,0:3:0:0:
121,22,112494,1,4,0:3:0:0:
187,297,112647,86,0,P|193:270|204:240,1,56.5600006904297,6|0,1:2|0:2,0:2:0:0:
221,217,113872,37,2,0:0:0:0:
77,56,114178,1,0,0:0:0:0:
135,116,114331,1,0,0:0:0:0:
254,0,114484,2,0,P|194:16|172:31,1,62.6199975156861,0|0,3:0|0:0,0:0:0:0:
148,78,114943,1,0,0:0:0:0:
355,209,115096,2,0,P|324:204|295:193,1,62.6199975156861,2|0,3:0|0:0,0:0:0:0:
244,123,115555,1,0,0:0:0:0:
325,283,115708,1,2,0:0:0:0:
443,61,116014,1,0,0:0:0:0:
366,128,116167,1,0,0:0:0:0:
501,153,116321,6,0,P|435:171|421:179,1,62.6199975156861,2|0,0:0|0:0,0:0:0:0:
392,232,116780,1,0,0:0:0:0:
257,84,116933,2,0,P|191:66|177:58,1,62.6199975156861,0|0,3:0|0:0,0:0:0:0:
118,98,117392,1,0,0:0:0:0:
248,249,117545,1,2,3:0:0:0:
212,181,117698,1,0,0:0:0:0:
152,229,117851,1,0,0:0:0:0:
325,129,118157,1,2,0:0:0:0:
171,334,118463,1,0,0:0:0:0:
248,249,118616,1,0,0:0:0:0:
355,328,118770,86,0,P|292:342|256:364,1,93.9299962735292,2|0,0:0|0:0,0:0:0:0:
266,356,119382,2,0,P|231:342|196:338,1,62.6199975156861,0|0,3:0|0:0,0:0:0:0:
264,269,119841,1,0,0:0:0:0:
123,352,119994,1,2,3:0:0:0:
130,332,120300,2,0,P|124:301|121:269,1,62.6199975156861,0|2,0:0|0:0,0:0:0:0:
148,277,120912,1,0,0:0:0:0:
179,138,121065,1,0,0:0:0:0:
210,17,121218,6,0,B|138:17|168:58|77:61,1,125.239995031372,2|0,0:0|3:0,0:0:0:0:
76,66,122137,1,0,0:0:0:0:
188,114,122290,1,0,0:0:0:0:
299,37,122443,2,0,P|249:54|220:73,1,62.6199975156861,2|0,3:0|0:0,0:0:0:0:
403,202,123055,2,0,P|374:188|344:180,1,62.6199975156861,2|0,0:0|0:0,0:0:0:0:
406,125,123514,1,0,0:0:0:0:
260,290,123667,86,0,P|304:273|356:264,1,93.9299962735292,2|0,0:0|0:0,0:0:0:0:
457,347,124280,2,0,P|427:332|394:326,1,62.6199975156861,0|0,3:0|0:0,0:0:0:0:
482,241,124739,1,0,0:0:0:0:
329,145,124892,2,0,P|296:161|247:174,1,62.6199975156861,2|0,3:0|0:0,0:0:0:0:
144,341,125504,2,0,P|154:306|164:253,1,62.6199975156861,2|0,0:0|0:0,0:0:0:0:
249,370,125963,1,0,0:0:0:0:
172,184,126116,6,0,P|142:200|90:215,1,62.6199975156861,2|0,0:0|0:0,0:0:0:0:
27,330,126729,2,0,P|75:343|124:374,1,93.9299962735292,0|0,3:0|0:0,0:0:0:0:
16,231,127341,1,2,3:0:0:0:
166,53,127647,2,0,P|156:83|150:125,1,62.6199975156861,0|2,0:0|0:0,0:0:0:0:
35,39,128259,1,0,0:0:0:0:
96,0,128412,1,0,0:0:0:0:
264,137,128565,86,0,P|218:124|185:90,1,93.9299962735292,2|0,0:0|0:0,0:0:0:0:
308,2,129178,2,0,L|323:73,1,62.6199975156861,0|0,3:0|0:0,0:0:0:0:
379,113,129637,1,0,0:0:0:0:
245,232,129790,2,0,L|264:155,1,62.6199975156861,2|0,3:0|0:0,0:0:0:0:
388,325,130402,1,2,0:0:0:0:
467,212,130708,1,0,0:0:0:0:
402,179,130861,1,0,0:0:0:0:
507,327,131014,6,0,P|458:339|411:362,1,93.9299962735292,2|0,0:0|0:0,0:0:0:0:
369,301,131627,2,0,P|340:295|308:281,1,62.6199975156861,0|0,3:0|0:0,0:0:0:0:
253,330,132086,1,0,0:0:0:0:
138,186,132239,2,0,P|167:177|197:161,1,62.6199975156861,2|0,3:0|0:0,0:0:0:0:
41,280,132851,1,2,0:0:0:0:
134,352,133157,1,0,3:0:0:0:
72,384,133310,1,0,0:0:0:0:
154,200,133463,6,0,P|210:225|288:239,1,125.239995031372,6|0,1:2|3:0,0:0:0:0:
272,201,134688,2,0,P|312:189|327:188,1,31.3099987578431,8|0,0:0|0:0,0:0:0:0:
367,114,134994,2,0,P|352:110|338:104,1,31.3099987578431
410,260,135300,1,0,3:0:0:0:
472,194,135453,2,0,P|483:243|495:282,1,62.6199975156861,0|0,1:0|0:0,0:0:0:0:
377,335,135912,6,0,P|339:321|329:321,1,31.3099987578431,2|0,1:2|0:0,0:0:0:0:
278,332,136218,1,0,0:0:0:0:
176,220,136372,1,0,0:0:0:0:
245,245,136525,1,0,3:0:0:0:
112,261,136678,2,0,P|61:281|40:303,1,62.6199975156861
306,184,137137,2,0,P|360:206|429:218,1,125.239995031372,8|0,0:0|3:0,0:0:0:0:
488,182,137902,1,0,0:0:0:0:
417,138,138055,1,2,3:0:0:0:
430,61,138361,86,0,B|357:56|386:97|300:90,1,125.239995031372,2|0,1:2|0:0,0:0:0:0:
52,59,139280,2,0,P|89:75|101:86,1,31.3099987578431
250,174,139586,2,0,P|196:194|182:206,1,62.6199975156861,8|0,0:0|0:0,0:0:0:0:
452,277,140198,1,0,3:0:0:0:
381,223,140351,2,0,P|365:269|351:302,1,62.6199975156861,0|0,1:0|0:0,0:0:0:0:
366,309,140734,1,0,0:0:0:0:
366,309,140810,6,0,P|231:243|130:261,1,250.479990062745,2|8,1:2|0:0,0:0:0:0:
124,251,142341,2,0,P|132:222|132:218,1,31.3099987578431
108,151,142647,1,0,3:0:0:0:
231,193,142800,2,0,P|273:179|308:176,1,62.6199975156861,0|0,1:0|0:0,0:0:0:0:
316,183,143183,1,0,0:0:0:0:
316,183,143259,86,0,P|291:83|173:126,1,250.479990062745,2|8,1:2|0:0,0:0:0:0:
202,130,145096,2,0,P|209:173|211:200,1,62.6199975156861,0|2,0:0|3:0,0:0:0:0:
176,356,145555,1,0,0:0:0:0:
174,346,145632,1,0,0:0:0:0:
172,336,145708,5,2,0:0:0:0:
181,308,146627,85,2,0:0:0:0:
118,54,147239,5,4,0:3:0:0:
219,141,147392,1,8,0:3:0:0:
236,135,147468,1,8,0:3:0:0:
253,129,147545,85,8,0:0:0:0:
133,197,147698,1,8,0:0:0:0:
316,69,147851,1,8,0:3:0:0:
228,11,148004,1,4,0:3:0:0:
366,202,148157,38,0,P|397:211|435:228,1,61.6099974617463,2|0,1:2|0:2,0:2:0:0:
359,44,148463,2,0,P|347:74|339:112,1,61.6099974617463,0|0,1:2|0:2,0:2:0:0:
483,311,148770,2,0,P|501:256|514:173,1,123.219994923493,8|2,0:2|1:2,0:2:0:0:
295,325,149229,1,10,0:2:0:0:
366,202,149382,1,0,1:2:0:0:
398,267,149535,1,8,0:2:0:0:
175,364,149688,2,0,P|180:333|193:295,1,61.6099974617463,0|0,1:2|0:2,0:2:0:0:
135,122,149994,2,0,P|189:150|262:175,1,123.219994923493,8|2,0:2|1:2,0:0:0:0:
95,244,150453,1,10,0:2:0:0:
171,15,150606,86,0,P|207:67|192:140,1,123.219994923493,0|2,1:2|1:2,0:2:0:0:
145,170,151065,1,0,0:2:0:0:
46,2,151218,1,10,0:2:0:0:
11,67,151372,2,0,P|41:76|92:99,1,61.6099974617463,2|0,0:2|1:2,0:2:0:0:
171,15,151678,1,10,0:2:0:0:
280,149,151831,1,0,0:0:0:0:
220,200,151984,1,8,0:2:0:0:
286,33,152137,2,0,P|316:48|348:58,1,61.6099974617463,2|0,1:2|0:0,0:0:0:0:
470,229,152443,2,0,P|451:168|437:92,1,123.219994923493,10|2,0:2|1:2,0:0:0:0:
235,358,153055,6,0,B|298:343|268:312|348:291,1,123.219994923493,6|0,1:2|1:2,0:2:0:0:
220,200,153514,1,0,0:2:0:0:
375,155,153667,2,0,P|342:150|302:135,1,61.6099974617463,8|0,0:2|0:0,0:2:0:0:
403,238,153974,1,2,1:2:0:0:
235,358,154127,2,0,P|292:342|370:331,1,123.219994923493,8|8,0:2|0:2,0:2:0:0:
203,207,154586,2,0,P|193:239|180:274,1,61.6099974617463,0|0,1:2|0:2,0:2:0:0:
346,164,154892,2,0,P|337:102|311:26,1,123.219994923493,8|2,0:2|1:2,0:0:0:0:
257,3,155351,1,8,0:2:0:0:
80,132,155504,86,0,P|109:140|139:153,1,61.6099974617463,2|8,1:2|0:2,0:0:0:0:
30,37,155810,1,0,1:2:0:0:
99,1,155963,1,2,1:2:0:0:
245,171,156116,2,0,P|235:142|227:94,1,61.6099974617463,8|0,0:2|0:2,0:2:0:0:
69,301,156423,1,2,1:2:0:0:
137,152,156576,1,8,0:2:0:0:
225,263,156729,1,0,1:2:0:0:
152,232,156882,1,8,0:2:0:0:
303,62,157035,2,0,P|331:74|373:85,1,61.6099974617463,0|0,1:2|1:2,0:0:0:0:
468,203,157341,5,8,0:2:0:0:
345,251,157494,1,8,0:2:0:0:
361,83,157647,1,0,0:3:0:0:
356,130,157749,1,0,0:3:0:0:
357,165,157851,1,0,0:3:0:0:
357,165,157953,86,0,P|298:183|288:185,1,61.6099974617463,6|0,1:2|0:2,0:2:0:0:
138,306,158259,2,0,P|167:313|196:323,1,61.6099974617463,0|0,1:2|0:2,0:2:0:0:
117,135,158565,2,0,P|41:158|-10:198,1,123.219994923493,8|2,0:2|1:2,0:2:0:0:
230,188,159025,2,0,P|242:128|250:97,1,61.6099974617463,10|0,0:2|1:2,0:2:0:0:
148,26,159331,1,8,0:2:0:0:
355,130,159484,2,0,P|331:49|325:-8,1,123.219994923493,0|8,1:2|0:2,0:2:0:0:
326,10,160096,1,2,1:2:0:0:
266,159,160249,1,10,0:2:0:0:
386,301,160402,6,0,P|357:239|349:231,1,61.6099974617463,0|0,1:2|0:2,0:2:0:0:
112,213,160708,1,2,1:2:0:0:
160,272,160861,1,0,1:2:0:0:
225,74,161014,1,10,0:2:0:0:
184,145,161167,2,0,P|112:121|100:121,1,61.6099974617463,2|0,0:2|1:2,0:2:0:0:
367,226,161474,2,0,P|396:218|424:204,1,61.6099974617463,10|0,0:2|0:0,0:2:0:0:
305,176,161780,1,8,0:2:0:0:
389,360,161933,2,0,P|359:351|332:337,1,61.6099974617463,2|0,1:2|0:0,0:0:0:0:
377,138,162239,1,10,0:2:0:0:
436,187,162392,1,0,0:0:0:0:
304,272,162545,1,2,1:2:0:0:
245,223,162698,1,8,0:2:0:0:
364,215,162851,86,0,P|436:235|492:280,1,123.219994923493,6|0,1:2|1:2,0:2:0:0:
301,158,163310,1,0,0:2:0:0:
153,271,163463,2,0,P|69:313|7:320,1,123.219994923493,8|2,0:2|1:2,0:2:0:0:
197,178,163923,2,0,P|208:105|217:80,1,61.6099974617463,8|0,0:2|1:0,0:2:0:0:
115,202,164229,1,8,0:2:0:0:
297,346,164382,2,0,P|281:262|266:217,1,123.219994923493,0|8,1:2|0:2,0:2:0:0:
269,226,164994,1,2,1:2:0:0:
216,374,165147,1,8,0:2:0:0:
377,242,165300,5,2,1:2:0:0:
413,342,165453,1,8,0:2:0:0:
337,310,165606,1,0,1:2:0:0:
452,271,165759,1,2,1:2:0:0:
281,365,165912,2,0,P|205:347|190:337,1,61.6099974617463,8|0,0:2|0:2,0:2:0:0:
296,183,166218,1,2,1:2:0:0:
169,249,166372,1,8,0:2:0:0:
209,183,166525,1,0,1:2:0:0:
331,255,166678,1,8,0:2:0:0:
296,183,166831,1,0,1:2:0:0:
253,259,166984,1,0,1:2:0:0:
305,357,167137,85,8,0:2:0:0:
288,279,167290,1,8,0:2:0:0:
115,364,167443,1,8,0:2:0:0:
135,286,167596,1,8,0:2:0:0:
213,384,167749,6,0,B|175:281|256:306|207:183,1,184.829992385239,2|0,1:2|0:2,0:2:0:0:
120,71,168361,2,0,P|148:82|189:96,1,61.6099974617463,8|0,0:2|0:0,0:2:0:0:
313,185,168667,1,2,1:2:0:0:
239,213,168821,1,10,0:2:0:0:
355,74,168974,1,0,1:2:0:0:
256,26,169127,1,8,0:2:0:0:
408,147,169280,2,0,P|433:134|469:126,1,61.6099974617463,0|0,1:2|0:2,0:2:0:0:
287,278,169586,2,0,P|206:249|130:243,1,123.219994923493,8|2,0:2|1:2,0:0:0:0:
252,137,170045,1,10,0:2:0:0:
383,259,170198,86,0,P|372:289|368:323,1,61.6099974617463,0|0,1:2|0:2,0:2:0:0:
213,135,170504,2,0,P|239:121|268:97,1,61.6099974617463,2|0,1:2|0:2,0:2:0:0:
150,229,170810,1,10,0:2:0:0:
234,334,170963,2,0,P|264:343|293:357,1,61.6099974617463,2|0,0:2|1:2,0:2:0:0:
99,158,171270,2,0,P|57:209|83:271,1,123.219994923493,10|8,0:2|0:2,0:2:0:0:
224,104,171729,2,0,P|215:76|208:33,1,61.6099974617463,2|0,1:2|0:0,0:0:0:0:
99,158,172035,2,0,P|128:168|161:184,1,61.6099974617463,10|0,0:2|0:0,0:0:0:0:
104,19,172341,2,0,P|89:45|66:72,1,61.6099974617463,2|8,1:2|0:2,0:0:0:0:
257,242,172647,6,0,B|356:261|313:166|444:192,1,184.829992385239,6|2,1:2|0:2,0:2:0:0:
317,66,173259,2,0,P|309:96|298:132,1,61.6099974617463,8|0,0:2|0:0,0:2:0:0:
404,47,173565,1,2,1:2:0:0:
480,247,173718,2,0,P|465:197|455:110,1,123.219994923493,8|8,0:2|0:2,0:2:0:0:
326,276,174178,1,2,1:2:0:0:
395,310,174331,1,0,0:2:0:0:
300,125,174484,2,0,P|270:139|232:146,1,61.6099974617463,8|0,0:2|0:0,0:0:0:0:
153,279,174790,2,0,P|181:289|212:309,1,61.6099974617463,2|8,1:2|0:2,0:0:0:0:
113,133,175096,85,2,1:2:0:0:
78,195,175249,1,8,0:2:0:0:
194,89,175402,1,0,1:2:0:0:
233,216,175555,1,2,1:2:0:0:
82,38,175708,2,0,P|50:30|16:17,1,61.6099974617463,8|0,0:2|0:2,0:2:0:0:
144,151,176014,1,2,1:2:0:0:
5,213,176167,1,8,0:2:0:0:
134,349,176321,2,0,P|135:315|115:278,1,61.6099974617463,2|8,1:2|0:2,0:0:0:0:
33,128,176627,1,2,1:2:0:0:
9,195,176780,1,2,1:2:0:0:
275,83,176933,5,8,0:2:0:0:
157,17,177086,1,10,0:2:0:0:
319,170,177239,1,8,0:3:0:0:
171,229,177392,1,4,0:3:0:0:
63,114,177545,86,0,P|46:47|59:20,1,61.6099974617463,6|0,1:2|0:2,0:2:0:0:
262,232,177851,2,0,P|258:262|243:288,1,61.6099974617463,0|0,1:2|0:2,0:2:0:0:
15,276,178157,2,0,P|86:318|137:377,1,123.219994923493,8|2,0:2|1:2,0:0:0:0:
93,229,178616,2,0,P|82:196|88:147,1,61.6099974617463,10|0,0:2|1:2,0:0:0:0:
115,106,178923,1,8,0:2:0:0:
269,119,179076,2,0,P|190:153|129:199,1,123.219994923493,0|8,1:2|0:2,0:2:0:0:
159,173,179688,1,2,1:2:0:0:
257,216,179841,1,0,1:2:0:0:
372,115,179994,5,2,1:2:0:0:
244,298,180147,1,8,0:2:0:0:
328,336,180300,1,0,1:2:0:0:
339,251,180453,1,0,1:2:0:0:
223,374,180606,2,0,P|151:350|83:343,1,123.219994923493,8|2,0:2|1:2,0:2:0:0:
18,246,181065,2,0,P|88:220|104:209,1,61.6099974617463,10|0,0:2|1:2,0:0:0:0:
23,333,181372,1,8,0:2:0:0:
133,157,181525,2,0,P|206:182|256:222,1,123.219994923493,0|8,1:2|0:2,0:2:0:0:
40,22,182137,1,2,1:2:0:0:
315,227,182443,86,0,P|383:207|396:200,1,61.6099974617463,6|0,1:2|0:0,0:2:0:0:
225,344,182749,2,0,P|195:333|165:328,1,61.6099974617463,2|0,0:2|1:2,0:0:0:0:
393,318,183055,2,0,P|468:351|502:383,1,123.219994923493,10|2,0:2|1:2,0:2:0:0:
440,255,183514,1,8,0:2:0:0:
315,307,183667,1,0,1:2:0:0:
188,209,183821,1,8,0:2:0:0:
119,252,183974,1,4,1:2:0:0:
342,188,184280,5,8,0:2:0:0:
134,121,184433,1,8,0:2:0:0:
253,61,184586,1,8,0:3:0:0:
14,112,184739,1,4,0:3:0:0:
339,13,184892,1,6,1:2:0:0:
349,26,185198,86,0,P|364:93|373:116,1,61.6099974617463,2|0,1:2|0:0,0:0:0:0:
206,250,185504,1,10,0:2:0:0:
288,137,185657,2,0,P|283:167|275:197,1,61.6099974617463,2|8,0:0|0:2,0:0:0:0:
433,306,185963,2,0,P|428:275|420:245,1,61.6099974617463,2|0,1:2|0:0,0:0:0:0:
219,363,186270,1,8,0:0:0:0:
290,313,186423,1,2,1:2:0:0:
290,313,186729,5,10,0:0:0:0:
135,365,186882,1,8,0:0:0:0:
92,235,187035,1,10,0:3:0:0:
247,183,187188,1,8,0:3:0:0:
326,379,187341,86,0,B|267:357|293:316|207:286,1,123.219994923493,6|2,1:2|1:2,0:0:0:0:
133,134,187800,1,2,1:0:0:0:
27,286,187953,2,0,P|55:269|115:256,1,61.6099974617463,8|0,0:0|0:0,0:0:0:0:
250,164,188259,1,8,0:0:0:0:
94,27,188412,2,0,P|151:51|225:70,1,123.219994923493,0|8,1:2|0:0,0:0:0:0:
345,204,188872,1,0,1:0:0:0:
226,261,189025,1,0,0:0:0:0:
392,51,189178,2,0,P|376:111|370:212,1,123.219994923493,12|0,0:0|1:0,0:0:0:0:
281,15,189637,1,8,0:0:0:0:
101,194,189790,6,0,P|133:177|193:169,1,71.7099963891146,2|8,1:2|0:0,0:0:0:0:
225,88,190096,1,0,1:0:0:0:
159,51,190249,1,2,1:2:0:0:
306,273,190402,2,0,P|234:289|170:329,1,143.419992778229,8|10,0:0|0:2,0:0:0:0:
353,187,190861,2,0,P|385:201|460:218,1,71.7099963891146,4|0,1:2|0:0,0:0:0:0:
226,251,191167,1,8,0:0:0:0:
402,355,191321,2,0,P|391:323|382:272,1,71.7099963891146,2|0,1:2|0:0,0:0:0:0:
189,36,191627,5,8,0:0:0:0:
363,116,191780,1,8,0:0:0:0:
173,193,191933,1,8,0:3:0:0:
414,60,192086,1,4,0:3:0:0:
116,0,192239,70,0,P|111:36|99:77,1,71.7099963891146,6|0,1:2|0:0,0:0:0:0:
156,124,192545,1,2,1:0:0:0:
42,264,192698,1,10,0:0:0:0:
164,211,192851,1,8,0:3:0:0:
184,282,193004,1,10,0:3:0:0:
54,141,193157,6,0,P|72:251|82:368,1,215.129989167344,6|0,1:2|1:0,0:0:0:0:
265,177,193770,2,0,P|298:160|345:153,1,71.7099963891146,0|0,1:0|0:0,0:0:0:0:
323,384,194076,2,0,P|281:283|301:237,1,143.419992778229,8|10,0:0|0:3,0:0:0:0:
463,367,194535,1,6,0:3:0:0:
512,244,194688,86,0,P|484:264|437:275,1,71.7099963891146,6|0,1:2|0:0,0:0:0:0:
393,223,194994,1,2,1:2:0:0:
382,13,195147,1,10,0:0:0:0:
486,92,195300,1,8,0:3:0:0:
331,153,195453,1,6,0:3:0:0:
475,174,195606,6,0,P|379:124|247:97,1,215.129989167344,6|8,1:2|0:0,0:0:0:0:
132,47,196218,2,0,P|165:31|221:22,1,71.7099963891146,0|0,1:0|0:0,0:0:0:0:
49,214,196525,2,0,P|119:220|203:261,1,143.419992778229,8|6,0:0|0:3,0:0:0:0:
85,124,196984,1,6,0:3:0:0:
239,0,197137,86,0,P|228:33|223:80,1,71.7099963891146,6|0,1:2|0:0,0:0:0:0:
179,130,197443,1,2,0:0:0:0:
348,338,197596,1,10,0:2:0:0:
241,192,197749,1,4,0:3:0:0:
155,270,197902,1,6,0:3:0:0:
423,267,198055,6,0,B|302:250|349:354|222:328,1,215.129989167344,6|0,1:2|0:0,0:0:0:0:
441,127,198667,2,0,P|461:162|460:211,1,71.7099963891146,0|0,1:0|0:0,0:0:0:0:
332,95,198974,1,8,0:0:0:0:
210,198,199127,85,10,0:0:0:0:
357,96,199280,1,6,0:3:0:0:
147,15,199433,1,6,0:3:0:0:
305,235,199586,6,0,P|294:199|287:145,1,71.7099963891146,14|0,0:0|1:0,0:0:0:0:
115,87,199892,1,0,1:0:0:0:
53,319,200045,86,0,P|64:285|68:239,1,71.7099963891146,14|0,0:0|1:0,0:0:0:0:
225,120,200351,1,0,1:0:0:0:
374,326,200504,6,0,B|302:241|140:205|133:345|192:373|246:328,1,327.240007989258,14|0,0:0|1:0,0:0:0:0:
305,235,201270,1,0,1:0:0:0:
379,345,201423,5,8,0:0:0:0:
204,222,201576,1,8,0:0:0:0:
393,151,201729,1,8,0:0:0:0:
244,366,201882,1,8,0:0:0:0:
100,134,202035,70,0,P|28:163|-37:232,1,123.219994923493,6|0,1:2|1:2,0:2:0:0:
181,149,202494,1,0,1:2:0:0:
323,120,202647,2,0,P|237:74|169:67,1,123.219994923493,10|0,0:2|1:2,0:2:0:0:
328,266,203106,2,0,P|307:194|297:179,1,61.6099974617463,8|0,0:2|1:2,0:2:0:0:
297,346,203412,1,8,0:2:0:0:
395,218,203565,1,0,1:2:0:0:
323,120,203718,1,0,1:2:0:0:
321,105,203795,1,0,1:2:0:0:
319,90,203872,2,0,P|308:132|306:161,1,61.6099974617463,10|0,0:2|0:2,0:2:0:0:
263,35,204178,1,2,1:2:0:0:
326,6,204331,1,2,1:2:0:0:
211,118,204484,5,2,1:2:0:0:
96,60,204637,1,8,0:2:0:0:
183,25,204790,1,0,1:2:0:0:
123,149,204943,1,2,1:2:0:0:
241,244,205096,2,0,P|275:316|283:370,1,123.219994923493,8|0,0:2|1:2,0:2:0:0:
273,178,205555,1,10,0:2:0:0:
184,289,205708,1,0,1:2:0:0:
357,247,205861,1,8,0:2:0:0:
417,332,206014,2,0,P|460:318|514:256,1,123.219994923493,0|8,1:2|0:2,0:2:0:0:
504,247,206627,1,0,1:2:0:0:
412,160,206780,1,0,1:2:0:0:
415,175,206856,1,0,1:2:0:0:
418,190,206933,85,2,1:2:0:0:
508,158,207086,1,0,1:2:0:0:
464,55,207239,1,0,1:2:0:0:
374,87,207392,1,0,1:2:0:0:
322,246,207545,2,0,P|272:233|247:214,1,61.6099974617463,10|0,0:2|0:2,0:2:0:0:
377,195,207851,1,0,1:2:0:0:
176,79,208004,2,0,P|145:84|117:97,1,61.6099974617463,8|0,0:2|1:2,0:2:0:0:
242,118,208310,1,8,0:2:0:0:
48,205,208463,1,0,1:2:0:0:
67,207,208770,5,10,0:2:0:0:
172,163,208923,1,2,0:2:0:0:
314,258,209076,1,2,1:2:0:0:
357,197,209229,1,10,0:2:0:0:
243,295,209382,85,2,1:2:0:0:
398,333,209535,1,8,0:2:0:0:
357,197,209688,1,0,1:2:0:0:
201,154,209841,1,2,1:2:0:0:
411,254,209994,2,0,P|460:238|478:229,1,61.6099974617463,8|0,0:2|1:2,0:2:0:0:
361,121,210300,1,10,0:2:0:0:
243,295,210453,2,0,P|194:279|176:270,1,61.6099974617463,4|0,1:2|0:2,0:2:0:0:
294,235,210759,1,8,0:2:0:0:
72,330,210912,1,6,0:3:0:0:
72,330,211218,5,8,0:2:0:0:
143,115,211372,1,10,0:2:0:0:
213,193,211525,1,8,0:3:0:0:
116,207,211678,1,4,0:3:0:0:
239,96,211831,86,0,B|317:82|284:136|383:111,1,123.219994923493,0|0,1:2|1:2,0:2:0:0:
471,43,212290,1,0,1:2:0:0:
465,61,212366,1,0,1:2:0:0:
471,79,212443,1,8,0:2:0:0:
394,47,212596,1,0,0:2:0:0:
266,76,212749,1,0,1:2:0:0:
70,21,212902,2,0,P|82:60|86:94,1,61.6099974617463,8|0,0:2|1:2,0:2:0:0:
66,154,213208,1,8,0:2:0:0:
105,358,213361,2,0,P|93:297|92:222,1,123.219994923493,0|8,1:2|0:2,0:2:0:0:
380,364,213974,1,0,1:2:0:0:
364,347,214280,5,0,1:2:0:0:
442,177,214433,1,8,0:2:0:0:
361,105,214586,1,0,1:2:0:0:
404,46,214739,1,0,1:2:0:0:
317,204,214892,2,0,B|234:214|274:174|184:185,1,123.219994923493,8|0,0:2|1:2,0:2:0:0:
13,187,215351,2,0,P|72:175|89:166,1,61.6099974617463,8|0,0:2|1:2,0:2:0:0:
3,262,215657,1,8,0:2:0:0:
179,73,215810,2,0,P|264:92|316:120,1,123.219994923493,0|8,1:2|0:2,0:2:0:0:
291,134,216423,1,0,1:2:0:0:
265,266,216576,1,0,1:2:0:0:
262,252,216652,1,0,1:2:0:0:
259,238,216729,86,0,P|300:217|394:209,1,123.219994923493,4|0,1:2|1:2,0:2:0:0:
192,206,217188,1,0,1:2:0:0:
57,289,217341,2,0,P|6:278|-9:267,1,61.6099974617463,8|0,0:2|0:2,0:2:0:0:
102,222,217647,1,0,1:2:0:0:
226,332,217800,1,8,0:2:0:0:
320,264,217953,1,0,1:2:0:0:
160,379,218106,1,8,0:2:0:0:
376,330,218259,2,0,P|457:352|497:383,1,123.219994923493,0|8,1:2|0:2,0:2:0:0:
494,363,218872,5,0,1:2:0:0:
454,241,219025,1,8,0:2:0:0:
498,71,219178,85,4,1:3:0:0:
459,127,219331,1,4,0:3:0:0:
392,74,219484,1,4,0:3:0:0:
319,174,219637,1,8,0:3:0:0:
178,39,219790,5,12,0:2:0:0:
281,65,219943,1,0,1:2:0:0:
140,220,220096,1,8,0:3:0:0:
190,123,220249,1,8,0:2:0:0:
294,173,220402,1,0,1:2:0:0:
244,270,220555,1,8,0:2:0:0:
217,195,220708,1,0,1:2:0:0:
326,248,220861,1,0,1:2:0:0:
190,123,221014,5,8,1:2:0:0:
130,312,221167,1,8,1:2:0:0:
330,363,221321,1,8,1:2:0:0:
390,174,221474,1,8,1:2:0:0:
245,249,221627,37,8,0:3:0:0:
318,226,221780,1,8,0:3:0:0:
245,224,221933,1,8,0:3:0:0:
319,248,222086,2,0,P|322:274|329:298,1,30.8049987308732,4|4,0:3|0:3,0:2:0:0:
325,290,222239,54,0,B|240:260|299:203|185:166,1,163.620003994629,12|2,0:0|1:2,0:0:0:0:
134,353,222698,69,10,0:0:0:0:
207,321,222851,1,0,1:0:0:0:
124,219,223004,1,8,0:0:0:0:
265,99,223157,2,0,P|296:90|342:66,1,61.6099974617463,0|0,1:0|0:0,0:0:0:0:
492,238,223463,2,0,P|446:201|369:186,1,123.219994923493,8|2,0:0|1:2,0:0:0:0:
505,66,223923,1,10,0:2:0:0:
391,0,224076,6,0,P|402:30|407:73,1,61.6099974617463,0|0,1:2|0:2,0:2:0:0:
285,230,224382,2,0,P|295:203|303:156,1,61.6099974617463,2|0,1:2|0:2,0:2:0:0:
442,352,224688,1,10,0:2:0:0:
465,282,224841,2,0,P|409:274|350:334,1,123.219994923493,2|10,0:2|0:2,0:2:0:0:
192,190,225300,1,0,0:0:0:0:
285,230,225453,1,8,0:2:0:0:
145,366,225606,2,0,P|174:355|212:347,1,61.6099974617463,2|0,1:2|0:0,0:0:0:0:
66,187,225912,2,0,P|26:232|36:314,1,123.219994923493,10|2,0:2|1:2,0:0:0:0:
187,160,226372,1,8,0:2:0:0:
335,289,226525,86,0,P|322:232|311:140,1,123.219994923493,6|0,1:2|1:2,0:2:0:0:
145,366,227137,2,0,P|154:336|158:288,1,61.6099974617463,8|0,0:2|0:0,0:2:0:0:
22,181,227443,1,2,1:2:0:0:
72,238,227596,1,8,0:2:0:0:
142,61,227749,2,0,P|114:75|59:85,1,61.6099974617463,0|8,0:0|0:2,0:0:0:0:
213,179,228055,2,0,P|269:190|336:230,1,123.219994923493,0|8,1:2|0:2,0:2:0:0:
468,12,228667,1,2,1:2:0:0:
400,53,228821,1,8,0:2:0:0:
468,12,228974,6,0,P|479:43|482:88,1,61.6099974617463,2|8,1:2|0:2,0:0:0:0:
446,133,229280,1,0,1:2:0:0:
278,35,229433,2,0,P|265:63|259:103,1,61.6099974617463,2|8,1:2|0:2,0:0:0:0:
287,162,229739,1,0,0:2:0:0:
468,302,229892,1,2,1:2:0:0:
421,243,230045,2,0,P|362:264|280:286,1,123.219994923493,8|8,0:2|0:2,0:0:0:0:
178,356,230504,2,0,P|206:366|238:390,1,61.6099974617463,0|0,1:2|1:2,0:0:0:0:
182,198,230810,85,8,0:2:0:0:
72,303,230963,1,8,0:2:0:0:
25,138,231116,1,0,0:0:0:0:
69,137,231218,1,0,0:0:0:0:
99,160,231321,1,0,0:0:0:0:
99,160,231423,6,0,P|47:176|28:187,1,61.6099974617463,6|0,1:2|0:2,0:2:0:0:
271,69,231729,2,0,P|219:53|200:42,1,61.6099974617463,0|0,1:2|0:2,0:2:0:0:
373,210,232035,2,0,P|306:232|248:276,1,123.219994923493,8|2,0:2|1:2,0:2:0:0:
323,144,232494,1,10,0:2:0:0:
456,185,232647,1,0,1:2:0:0:
399,324,232800,1,8,0:2:0:0:
265,279,232953,2,0,B|189:277|224:326|102:325,1,123.219994923493,0|8,1:2|0:2,0:2:0:0:
152,321,233565,1,2,1:2:0:0:
100,219,233718,1,10,0:2:0:0:
164,79,233872,86,0,P|153:151|143:167,1,61.6099974617463,0|0,1:2|0:2,0:2:0:0:
82,61,234178,1,2,1:2:0:0:
219,19,234331,1,0,1:2:0:0:
313,106,234484,1,10,0:2:0:0:
383,65,234637,2,0,P|314:33|294:36,1,61.6099974617463,2|0,0:2|1:2,0:2:0:0:
280,174,234943,1,10,0:2:0:0:
417,141,235096,1,0,0:0:0:0:
249,252,235249,1,8,0:2:0:0:
418,317,235402,1,2,1:2:0:0:
418,317,235708,5,10,0:2:0:0:
338,236,235861,1,0,0:0:0:0:
198,334,236014,1,2,1:2:0:0:
138,278,236167,1,8,0:2:0:0:
278,332,236321,86,0,P|168:364|136:389,1,123.219994923493,6|0,1:2|1:2,0:2:0:0:
312,259,236780,1,0,0:2:0:0:
152,153,236933,2,0,P|212:162|268:189,1,123.219994923493,8|2,0:2|1:2,0:2:0:0:
154,72,237392,1,8,0:2:0:0:
72,156,237545,1,0,1:0:0:0:
154,263,237698,1,8,0:2:0:0:
97,355,237851,2,0,P|67:272|71:226,1,123.219994923493,0|8,1:2|0:2,0:2:0:0:
389,361,238463,1,2,1:2:0:0:
226,24,238770,5,2,1:2:0:0:
192,123,238923,1,8,0:2:0:0:
356,86,239076,1,0,1:2:0:0:
390,185,239229,1,2,1:2:0:0:
277,268,239382,2,0,B|266:197|304:231|284:124,1,123.219994923493,8|2,0:2|1:2,0:2:0:0:
356,303,239841,1,8,0:2:0:0:
242,375,239994,2,0,P|179:359|164:345,1,61.6099974617463,0|8,1:2|0:2,0:0:0:0:
262,278,240300,1,0,1:2:0:0:
199,230,240453,1,0,1:2:0:0:
199,230,240530,1,0,1:0:0:0:
199,230,240606,85,8,0:2:0:0:
242,375,240759,1,8,0:2:0:0:
280,184,240912,1,8,0:2:0:0:
178,314,241065,1,8,0:2:0:0:
393,223,241218,6,0,P|400:257|412:296,1,61.6099974617463,2|0,1:2|0:2,0:2:0:0:
243,110,241525,2,0,P|212:123|173:136,1,61.6099974617463,0|0,1:2|0:2,0:2:0:0:
375,15,241831,2,0,P|386:75|341:141,1,123.219994923493,8|2,0:2|1:2,0:2:0:0:
238,23,242290,1,10,0:2:0:0:
105,180,242443,1,0,1:2:0:0:
226,222,242596,1,8,0:2:0:0:
96,38,242749,2,0,P|102:64|109:109,1,61.6099974617463,0|0,1:2|0:2,0:2:0:0:
258,295,243055,2,0,P|269:223|294:156,1,123.219994923493,8|2,0:2|1:2,0:0:0:0:
117,325,243514,1,10,0:2:0:0:
45,280,243667,86,0,P|41:246|33:213,1,61.6099974617463,0|0,1:2|0:2,0:2:0:0:
144,105,243974,2,0,P|116:119|73:132,1,61.6099974617463,2|0,1:2|0:2,0:2:0:0:
189,227,244280,1,10,0:2:0:0:
289,95,244433,2,0,P|296:125|309:166,1,61.6099974617463,2|0,0:2|1:2,0:2:0:0:
400,328,244739,2,0,P|350:301|283:306,1,123.219994923493,10|8,0:2|0:2,0:2:0:0:
449,198,245198,1,2,1:2:0:0:
449,198,245504,2,0,P|419:210|385:218,1,61.6099974617463,10|0,0:2|0:0,0:0:0:0:
476,360,245810,2,0,P|484:330|505:291,1,61.6099974617463,2|8,1:2|0:2,0:0:0:0:
230,256,246116,6,0,P|250:312|265:400,1,123.219994923493,6|0,1:2|1:2,0:2:0:0:
308,200,246576,1,2,0:2:0:0:
204,97,246729,2,0,P|173:91|142:76,1,61.6099974617463,8|0,0:2|0:0,0:2:0:0:
71,237,247035,1,2,1:2:0:0:
140,197,247188,1,8,0:2:0:0:
45,80,247341,1,0,0:0:0:0:
10,151,247494,1,8,0:2:0:0:
189,61,247647,1,2,1:2:0:0:
189,61,247953,2,0,P|193:92|205:132,1,61.6099974617463,8|0,0:2|0:0,0:0:0:0:
54,296,248259,2,0,P|64:267|71:227,1,61.6099974617463,2|8,1:2|0:2,0:0:0:0:
290,331,248565,86,0,P|235:332|179:385,1,123.219994923493,2|0,1:2|1:2,0:0:0:0:
314,211,249025,1,2,1:2:0:0:
421,316,249178,2,0,P|393:296|357:285,1,61.6099974617463,8|0,0:2|0:2,0:2:0:0:
204,110,249484,1,2,1:2:0:0:
370,62,249637,1,8,0:2:0:0:
216,245,249790,2,0,P|224:219|231:171,1,61.6099974617463,2|8,1:2|0:2,0:0:0:0:
279,37,250096,1,2,1:2:0:0:
373,140,250249,1,2,1:2:0:0:
185,108,250402,5,8,0:2:0:0:
377,40,250555,1,10,0:2:0:0:
162,120,250708,1,8,0:3:0:0:
326,214,250861,1,4,0:3:0:0:
137,135,251014,86,0,P|82:121|52:106,1,61.6099974617463,6|0,1:2|0:2,0:2:0:0:
298,230,251321,2,0,P|267:235|238:245,1,61.6099974617463,0|0,1:2|0:2,0:2:0:0:
480,170,251627,2,0,P|386:141|350:118,1,123.219994923493,8|2,0:2|1:2,0:0:0:0:
245,29,252086,2,0,P|251:78|261:112,1,61.6099974617463,10|0,0:2|1:2,0:0:0:0:
311,199,252392,1,8,0:2:0:0:
166,108,252545,2,0,P|162:163|151:238,1,123.219994923493,0|8,1:2|0:2,0:2:0:0:
236,172,253004,1,0,0:0:0:0:
267,263,253157,1,2,1:2:0:0:
186,233,253310,1,0,1:2:0:0:
384,256,253463,5,2,1:2:0:0:
300,342,253616,2,0,P|260:361|229:366,1,61.6099974617463,8|0,0:2|1:2,0:0:0:0:
368,378,253923,1,0,1:2:0:0:
174,252,254076,2,0,P|86:278|37:309,1,123.219994923493,8|2,0:2|1:2,0:2:0:0:
183,159,254535,2,0,P|236:175|259:177,1,61.6099974617463,10|0,0:2|1:2,0:0:0:0:
138,31,254841,1,8,0:2:0:0:
82,82,254994,2,0,B|69:167|117:121|100:213,1,123.219994923493,0|8,1:2|0:2,0:2:0:0:
171,128,255453,1,0,0:0:0:0:
153,258,255606,1,2,1:2:0:0:
247,221,255759,1,0,0:2:0:0:
133,359,255912,86,0,P|188:366|202:373,1,61.6099974617463,6|0,1:2|0:0,0:2:0:0:
77,185,256218,2,0,P|106:176|137:175,1,61.6099974617463,2|0,0:2|1:2,0:0:0:0:
0,251,256525,2,0,P|91:282|135:286,1,123.219994923493,10|2,0:2|1:2,0:2:0:0:
197,231,256984,1,8,0:2:0:0:
281,194,257137,1,0,1:2:0:0:
416,254,257290,1,8,0:2:0:0:
504,211,257443,1,4,1:2:0:0:
431,171,257596,1,0,0:0:0:0:
296,305,257749,5,8,0:2:0:0:
423,215,257902,1,8,0:2:0:0:
333,101,258055,1,8,0:3:0:0:
207,192,258208,1,4,0:3:0:0:
207,192,258285,1,0,0:0:0:0:
207,192,258361,54,0,P|293:149|156:141,1,363.600008876953,4|8,1:2|0:0,0:0:0:0:
300,51,260045,5,0,0:0:0:0:
300,51,260122,1,0,0:0:0:0:
300,51,260198,1,10,0:0:0:0:
225,123,260351,86,0,P|173:108|126:111,1,90.9000022192383,8|0,0:0|0:0,0:0:0:0:
113,133,260810,22,0,P|143:123|187:124,1,61.6099974617463,6|0,1:2|0:2,0:2:0:0:
327,225,261116,2,0,P|297:211|256:199,1,61.6099974617463,0|0,1:2|1:2,0:0:0:0:
88,315,261423,2,0,P|131:362|211:344,1,123.219994923493,8|0,0:2|1:2,0:2:0:0:
56,214,261882,1,8,0:2:0:0:
189,87,262035,2,0,P|193:116|205:153,1,61.6099974617463,0|8,1:2|0:2,0:0:0:0:
74,33,262341,2,0,P|43:46|10:55,1,61.6099974617463,0|0,1:2|0:0,0:2:0:0:
131,171,262647,2,0,P|188:186|262:217,1,123.219994923493,8|0,0:2|1:2,0:0:0:0:
302,156,263106,1,8,0:2:0:0:
436,62,263259,6,0,P|427:32|423:-16,1,61.6099974617463,2|0,1:2|0:0,0:2:0:0:
288,77,263565,2,0,P|297:49|303:13,1,61.6099974617463,0|0,1:2|1:2,0:0:0:0:
422,183,263872,2,0,P|403:242|393:314,1,123.219994923493,8|0,0:2|1:2,0:2:0:0:
226,137,264331,1,8,0:2:0:0:
175,289,264484,1,0,1:2:0:0:
268,230,264637,1,8,0:2:0:0:
126,105,264790,2,0,P|94:97|51:78,1,61.6099974617463,0|0,1:2|0:0,0:2:0:0:
193,267,265096,2,0,P|128:286|63:320,1,123.219994923493,8|0,0:2|1:2,0:0:0:0:
82,230,265555,1,8,0:2:0:0:
300,375,265708,86,0,P|311:347|307:304,1,61.6099974617463,6|0,1:2|0:2,0:2:0:0:
217,106,266014,2,0,P|206:134|210:177,1,61.6099974617463,0|0,1:2|0:2,0:2:0:0:
463,105,266321,2,0,B|395:87|421:55|344:33,1,123.219994923493,8|0,0:2|1:2,0:2:0:0:
361,38,266729,2,0,P|345:92|347:102,1,41.0733316411642,0|0,0:2|0:2,0:2:0:0:
331,260,266933,1,2,1:2:0:0:
403,235,267086,1,8,0:2:0:0:
292,145,267239,2,0,P|321:159|363:172,1,61.6099974617463,0|0,1:2|0:2,0:2:0:0:
226,253,267545,2,0,P|161:274|106:324,1,123.219994923493,8|0,0:2|1:2,0:2:0:0:
90,377,268004,1,0,0:0:0:0:
10,242,268157,6,0,P|23:200|35:130,1,92.4149961926195,2|0,1:2|0:0,0:2:0:0:
50,139,268463,1,0,1:2:0:0:
179,30,268616,1,0,1:2:0:0:
266,282,268770,2,0,P|252:240|241:170,1,92.4149961926195,10|0,0:2|0:0,0:2:0:0:
226,179,269076,1,8,0:2:0:0:
97,70,269229,1,8,0:2:0:0:
331,0,269382,2,0,P|336:65|292:107,1,123.219994923493,2|0,1:2|1:2,0:0:0:0:
435,225,269841,1,0,0:2:0:0:
219,357,269994,85,10,1:2:0:0:
358,302,270147,1,8,0:2:0:0:
260,285,270300,1,8,0:2:0:0:
329,325,270453,1,8,0:2:0:0:
209,220,270606,6,0,P|155:237|139:252,1,61.6099974617463,6|0,1:2|0:2,0:2:0:0:
285,66,270912,2,0,P|315:70|342:85,1,61.6099974617463,0|0,1:2|0:2,0:2:0:0:
104,118,271218,2,0,P|80:62|80:-8,1,123.219994923493,8|0,0:2|1:2,0:2:0:0:
193,121,271678,2,0,P|177:159|157:180,1,61.6099974617463,8|0,0:2|1:2,0:0:0:0:
154,53,271984,1,8,0:2:0:0:
268,175,272137,2,0,P|285:244|288:313,1,123.219994923493,0|10,1:2|0:2,0:0:0:0:
354,169,272596,2,0,P|361:130|361:101,1,61.6099974617463,2|0,0:2|1:2,0:2:0:0:
315,44,272902,1,10,0:2:0:0:
463,227,273055,86,0,P|440:158|436:89,1,123.219994923493,2|0,1:2|1:2,0:2:0:0:
470,36,273514,1,0,1:2:0:0:
372,242,273667,2,0,P|291:223|277:177,1,123.219994923493,8|0,0:2|1:2,0:2:0:0:
287,106,274127,1,8,0:2:0:0:
287,106,274203,1,0,0:0:0:0:
287,106,274280,1,2,1:2:0:0:
174,179,274433,1,8,0:2:0:0:
116,116,274586,2,0,B|44:117|74:162|-16:159,2,123.219994923493,2|10|2,1:2|0:2|1:2,0:2:0:0:
87,245,275351,2,0,L|81:287,1,30.8049987308732
77,360,275504,6,0,P|145:335|209:329,1,123.219994923493,2|0,1:2|1:2,0:2:0:0:
441,94,276116,2,0,P|401:81|374:68,1,61.6099974617463,8|0,0:2|0:0,0:2:0:0:
323,19,276423,1,0,1:2:0:0:
388,189,276576,1,0,1:2:0:0:
314,130,276729,1,2,1:2:0:0:
224,246,276882,1,0,0:2:0:0:
295,311,277035,2,0,P|350:297|428:263,1,123.219994923493,0|8,1:2|0:2,0:2:0:0:
74,165,277647,1,0,1:2:0:0:
420,34,277953,85,6,1:2:0:0:
271,96,278106,1,8,0:0:0:0:
384,144,278259,1,0,1:2:0:0:
325,38,278412,1,0,1:2:0:0:
326,205,278565,1,10,0:0:0:0:
326,205,278872,5,0,1:2:0:0:
461,148,279026,1,8,0:2:0:0:
512,269,279178,1,2,1:2:0:0:
377,326,279332,1,8,0:2:0:0:
418,238,279484,1,0,1:2:0:0:
418,238,279790,5,10,0:2:0:0:
217,341,279943,1,8,0:2:0:0:
124,169,280096,1,8,0:2:0:0:
325,66,280249,1,8,0:2:0:0:
325,66,280326,1,0,0:0:0:0:
325,66,280402,86,0,P|333:112|339:137,1,61.6099974617463,6|0,1:2|0:0,0:0:0:0:
173,236,280708,1,0,1:2:0:0:
208,148,280861,1,0,0:0:0:0:
332,306,281014,2,0,P|392:324|465:357,1,123.219994923493,8|0,0:2|1:2,0:0:0:0:
274,212,281474,1,8,0:2:0:0:
360,229,281627,1,0,1:2:0:0:
231,317,281780,1,8,0:2:0:0:
359,384,281933,2,0,P|350:357|341:309,1,61.6099974617463,0|0,1:2|0:0,0:0:0:0:
208,148,282239,2,0,P|217:90|240:10,1,123.219994923493,8|0,0:2|1:2,0:0:0:0:
296,65,282698,1,0,0:0:0:0:
155,215,282851,86,0,P|121:222|85:239,1,61.6099974617463,2|8,1:2|0:2,0:0:0:0:
300,144,283157,2,0,P|328:154|364:173,1,61.6099974617463,0|0,1:2|1:2,0:0:0:0:
217,18,283463,2,0,B|148:16|166:58|84:46,1,123.219994923493,8|8,0:0|0:0,0:0:0:0:
219,160,283923,1,0,1:2:0:0:
57,262,284076,2,0,P|67:231|75:183,1,61.6099974617463,0|8,0:0|0:0,0:0:0:0:
226,328,284382,2,0,P|191:340|151:362,1,61.6099974617463,0|0,1:2|0:0,0:0:0:0:
238,192,284688,1,8,0:0:0:0:
359,274,284841,1,0,1:2:0:0:
344,197,284994,1,0,0:0:0:0:
246,308,285147,1,8,0:0:0:0:
479,378,285300,6,0,L|453:235,1,123.219994923493,6|0,1:2|1:2,0:0:0:0:
283,19,285912,2,0,P|307:36|359:59,1,61.6099974617463,8|0,0:0|0:0,0:0:0:0:
192,210,286218,1,0,1:2:0:0:
324,127,286372,1,8,0:0:0:0:
169,37,286525,1,0,1:2:0:0:
133,107,286678,1,8,0:0:0:0:
303,276,286831,2,0,P|298:244|282:195,1,61.6099974617463,0|0,1:2|0:0,0:0:0:0:
93,354,287137,1,8,0:0:0:0:
192,310,287290,1,0,0:0:0:0:
208,383,287443,1,0,1:2:0:0:
105,272,287596,1,0,0:0:0:0:
271,182,287749,86,0,P|299:191|346:213,1,61.6099974617463,2|8,1:2|0:0,0:0:0:0:
160,77,288055,2,0,P|127:81|95:96,1,61.6099974617463,0|0,1:2|1:2,0:0:0:0:
214,233,288361,2,0,P|230:180|245:88,1,123.219994923493,8|8,0:0|0:0,0:0:0:0:
82,276,288821,1,4,1:2:0:0:
237,313,288974,5,0,0:0:0:0:
135,174,289127,1,8,0:0:0:0:
242,113,289280,85,0,1:2:0:0:
143,355,289433,1,8,0:0:0:0:
139,345,289509,1,8,0:0:0:0:
134,335,289586,21,8,0:0:0:0:
267,230,289739,1,8,0:0:0:0:
93,111,289892,1,10,0:0:0:0:
307,0,290045,1,8,0:0:0:0:
