osu file format v14

[General]
AudioFilename: audio.mp3
AudioLeadIn: 0
PreviewTime: 236717
Countdown: 0
SampleSet: Soft
StackLeniency: 0.7
Mode: 0
LetterboxInBreaks: 0
WidescreenStoryboard: 0

[Editor]
Bookmarks: 45949,83491,300698
DistanceSpacing: 1.3
BeatDivisor: 4
GridSize: 4
TimelineZoom: 1

[Metadata]
Title:tiny lamp
TitleUnicode:tiny lamp
Artist:fhana
ArtistUnicode:fhána
Creator:lapp
Version:hope
Source:ぎんぎつね
Tags:gingitsune opening anime j-rock jrock rock pop jpop j-pop japanese female vocal Outside of Melancholy album
BeatmapID:3626786
BeatmapSetID:1771618

[Difficulty]
HPDrainRate:5.6
CircleSize:4
OverallDifficulty:9
ApproachRate:9.3
SliderMultiplier:1.86
SliderTickRate:1

[Events]
//Background and Video events
0,0,"70854385_p0 (1).jpg",0,0
//Break Periods
//Storyboard Layer 0 (Background)
//Storyboard Layer 1 (Fail)
//Storyboard Layer 2 (Pass)
//Storyboard Layer 3 (Foreground)
//Storyboard Layer 4 (Overlay)
//Storyboard Sound Samples

[TimingPoints]
-810,335.195530726257,4,2,6,42,1,0
363,-131.578947368421,4,2,6,40,0,0
2541,-94.3396226415094,4,2,6,65,0,0
3044,-104.166666666667,4,2,6,60,0,0
13771,-131.578947368421,4,2,6,40,0,0
19134,-104.166666666667,4,2,6,55,0,0
24497,-116.279069767442,4,2,6,50,0,0
29860,-104.166666666667,4,2,6,55,0,0
35223,-116.279069767442,4,2,6,50,0,0
43435,-86.2068965517244,4,2,6,65,0,0
45949,-94.3396226415094,4,2,6,70,0,1
72933,-116.279069767442,4,2,6,65,0,0
78296,-94.3396226415094,4,2,6,75,0,1
83491,-104.166666666667,4,2,6,60,0,0
94217,-131.578947368422,4,2,6,45,0,0
99581,-104.166666666667,4,2,6,55,0,0
104944,-116.279069767442,4,2,6,50,0,0
110307,-104.166666666667,4,2,6,55,0,0
115670,-116.279069767442,4,2,6,50,0,0
123882,-86.2068965517244,4,2,6,65,0,0
126396,-94.3396226415097,4,2,6,70,0,1
153379,-116.279069767442,4,2,6,65,0,0
158743,-94.3396226415097,4,2,6,75,0,1
164106,-151.515151515152,4,2,6,40,0,0
177514,-131.578947368422,4,2,6,45,0,0
180195,-131.578947368422,4,2,6,50,0,0
182877,-86.2068965517246,4,2,6,60,0,0
185558,-94.3396226415097,4,2,6,70,0,1
209525,-178.571428571429,4,2,6,40,0,0
220419,-131.578947368422,4,2,6,45,0,0
225782,-131.578947368422,4,2,6,50,0,0
231145,-384.615384615389,4,2,6,60,0,0
233826,-384.615384615389,4,2,6,60,0,0
236340,-384.615384615389,4,2,6,70,0,0
236843,-131.578947368422,4,2,6,35,0,0
238519,-131.578947368422,4,2,6,75,0,0
239022,-94.3396226415097,4,2,6,70,0,1
263324,-116.279069767442,4,2,6,65,0,0
268687,-94.3396226415097,4,2,6,75,0,1
273882,-104.166666666667,4,2,6,65,0,0
298016,-104.166666666667,4,2,6,70,0,0
298687,-104.166666666667,4,2,6,75,0,0
299357,-104.166666666667,4,2,6,80,0,0
300027,-104.166666666667,4,2,6,85,0,0

[Colours]
Combo1 : 176,255,255
Combo2 : 0,128,192
Combo3 : 255,255,176
Combo4 : 72,72,255

[HitObjects]
205,36,363,6,0,P|215:87|248:183,1,141.359998274414,2|0,0:0|0:0,0:0:0:0:
334,223,865,2,0,P|297:239|269:259,1,70.679999137207,2|0,0:0|0:0,0:0:0:0:
187,306,1201,2,0,P|219:319|248:339,2,70.679999137207,2|2|2,0:0|0:0|0:0,0:0:0:0:
97,223,1703,2,0,P|158:220|189:149,1,141.359998274414,2|0,0:0|0:0,0:0:0:0:
156,50,2206,2,0,P|205:60|274:96,1,106.019998705811,2|0,0:0|0:0,0:0:0:0:
293,112,2541,5,0,1:0:0:0:
235,301,2709,1,8,0:0:0:0:
47,170,2877,1,8,0:0:0:0:
286,213,3044,6,0,B|313:205|350:200|350:200|379:156|379:156|410:152|442:140,1,178.560004359375,6|0,1:2|1:0,0:0:0:0:
227,14,3547,2,0,P|217:67|199:121,1,89.2800021796876,10|0,0:2|1:0,0:0:0:0:
112,276,3882,1,2,1:2:0:0:
4,97,4050,1,8,0:0:0:0:
141,162,4217,1,2,1:2:0:0:
41,356,4385,6,0,P|0:279|31:199,1,178.560004359375,6|0,1:2|1:0,0:0:0:0:
275,269,4888,2,0,P|231:285|180:312,1,89.2800021796876,10|0,0:2|1:0,0:0:0:0:
264,92,5223,1,2,1:2:0:0:
386,269,5391,1,8,0:0:0:0:
284,187,5558,1,2,1:2:0:0:
509,35,5726,6,0,P|485:93|453:244,1,178.560004359375,6|0,1:2|1:0,0:0:0:0:
264,92,6229,2,0,P|311:81|355:63,1,89.2800021796876,10|0,0:2|1:0,0:0:0:0:
187,213,6564,1,2,1:2:0:0:
61,35,6731,1,8,0:0:0:0:
168,104,6899,1,2,1:2:0:0:
29,265,7067,6,0,P|18:222|-2:166,1,89.2800021796876,6|0,1:2|1:2,0:0:0:0:
204,290,7402,1,10,0:2:0:0:
201,301,7486,1,8,0:0:0:0:
196,315,7569,1,0,1:0:0:0:
375,187,7737,1,10,0:2:0:0:
371,176,7821,1,8,0:0:0:0:
366,162,7904,1,0,1:0:0:0:
207,22,8072,1,10,0:2:0:0:
165,10,8155,1,8,0:0:0:0:
121,17,8239,1,8,0:0:0:0:
84,41,8323,1,8,0:0:0:0:
61,79,8407,6,0,B|105:94|142:105|142:105|174:155|124:197,1,178.560004359375,6|0,1:2|1:0,0:0:0:0:
30,337,8910,2,0,P|70:318|112:304,1,89.2800021796876,10|0,0:2|1:0,0:0:0:0:
343,189,9245,1,2,1:2:0:0:
236,372,9413,1,8,0:0:0:0:
366,309,9581,1,2,1:2:0:0:
220,167,9748,6,0,B|165:149|131:184|144:193|98:236|29:200,1,178.560004359375,6|0,1:2|1:0,0:0:0:0:
229,0,10251,2,0,P|242:46|265:91,1,89.2800021796876,10|0,0:2|1:0,0:0:0:0:
287,101,10502,1,8,0:0:0:0:
287,101,10586,1,2,1:2:0:0:
456,165,10754,2,0,P|422:182|396:203,1,44.6400010898438,8|8,0:0|0:0,0:0:0:0:
303,332,10921,1,10,0:2:0:0:
259,340,11004,1,8,0:0:0:0:
218,326,11088,1,8,0:0:0:0:
189,292,11172,1,8,0:0:0:0:
181,249,11256,5,4,1:0:0:0:
375,105,11424,1,0,1:0:0:0:
465,299,11592,1,8,0:0:0:0:
245,150,11759,6,0,B|202:118|158:134|158:134|127:187|61:169,1,178.560004359375,4|0,1:0|1:0,0:0:0:0:
269,256,12262,1,8,0:0:0:0:
61,82,12430,6,0,P|4:112|32:243,1,178.560004359375,4|0,1:0|1:0,0:0:0:0:
220,50,12933,1,8,0:0:0:0:
157,332,13100,6,0,P|141:284|119:241,1,89.2800021796876,4|0,1:0|0:0,0:0:0:0:
390,114,13435,1,8,0:0:0:0:
289,353,13603,1,8,0:0:0:0:
424,199,13771,1,0,1:0:0:0:
424,199,14106,5,2,0:0:0:0:
424,199,14273,2,0,P|415:237|405:268,1,70.679999137207,2|0,0:0|0:0,0:0:0:0:
323,137,14608,1,2,0:0:0:0:
323,137,14776,2,0,P|368:123|399:108,1,70.679999137207,2|0,0:0|0:0,0:0:0:0:
308,241,15111,6,0,P|274:201|177:205,1,141.359998274414,2|0,0:0|0:0,0:0:0:0:
70,263,15614,2,0,P|112:273|153:295,1,70.679999137207,2|0,0:0|0:0,0:0:0:0:
214,364,15949,1,2,0:0:0:0:
214,364,16117,2,0,P|179:371|147:385,1,70.679999137207,2|0,0:0|0:0,0:0:0:0:
228,277,16452,6,0,P|269:287|365:337,1,141.359998274414,2|0,0:0|0:0,0:0:0:0:
420,111,17122,5,2,0:0:0:0:
420,111,17290,1,2,0:0:0:0:
468,184,17458,2,0,P|456:231|445:258,1,70.679999137207,2|0,0:0|0:0,0:0:0:0:
313,262,17793,2,0,P|325:309|336:336,1,70.679999137207,2|0,0:0|0:0,0:0:0:0:
377,187,18128,5,2,0:0:0:0:
290,124,18296,2,0,P|253:137|212:143,1,70.679999137207,2|0,0:0|0:0,0:0:0:0:
68,65,18631,1,2,3:2:0:0:
150,14,18798,1,0,3:0:0:0:
148,21,18882,1,0,3:0:0:0:
146,28,18966,1,2,3:2:0:0:
117,249,19134,6,0,P|96:183|45:83,1,178.560004359375,6|0,1:2|1:0,0:0:0:0:
259,219,19636,2,0,P|242:258|226:320,1,89.2800021796876,8|0,0:0|1:0,0:0:0:0:
192,111,19972,1,8,0:0:0:0:
376,216,20139,1,0,1:0:0:0:
171,99,20307,1,8,0:0:0:0:
357,0,20474,6,0,P|415:35|416:146,1,178.560004359375,4|0,1:0|1:0,0:0:0:0:
367,322,20977,2,0,P|410:301|462:287,1,89.2800021796876,8|0,0:0|1:0,0:0:0:0:
322,93,21312,1,10,0:2:0:0:
203,282,21480,2,0,P|160:261|108:247,1,89.2800021796876,2|10,1:2|0:2,0:0:0:0:
421,137,21815,1,6,1:2:0:0:
255,24,21983,6,0,B|211:39|174:50|174:50|142:100|192:142,1,178.560004359375,0|8,0:0|0:0,0:0:0:0:
306,284,22486,1,2,1:2:0:0:
310,92,22653,5,8,0:0:0:0:
202,281,22821,1,0,1:0:0:0:
255,24,22988,5,8,0:0:0:0:
370,214,23156,1,0,1:0:0:0:
63,175,23324,6,0,P|110:166|166:145,1,89.2800021796876,8|0,0:0|1:0,0:0:0:0:
357,40,23659,2,0,P|313:31|270:17,1,89.2800021796876,8|0,0:0|1:0,0:0:0:0:
401,263,23994,1,10,0:2:0:0:
471,15,24162,1,10,0:2:0:0:
401,263,24329,1,10,0:2:0:0:
291,118,24497,6,0,B|258:94|213:114|213:114|185:158|130:152,1,159.960002440796,6|0,1:2|1:0,0:0:0:0:
24,260,25000,1,10,0:0:0:0:
144,319,25167,2,0,P|130:281|123:242,1,79.980001220398,2|0,0:0|1:0,0:0:0:0:
312,298,25502,2,0,P|271:319|237:345,1,79.980001220398,2|8,1:2|0:0,0:0:0:0:
293,205,25838,6,0,B|338:187|374:221|365:227|410:269|474:222,1,159.960002440796,2|2,1:2|1:2,0:0:0:0:
361,103,26340,1,8,0:0:0:0:
478,57,26508,2,0,P|464:94|452:147,1,79.980001220398,2|0,1:2|1:0,0:0:0:0:
275,99,26843,1,2,1:2:0:0:
441,238,27011,1,10,0:2:0:0:
215,162,27178,6,0,B|181:171|155:174|155:174|128:208|128:208|94:211|59:223,1,159.960002440796,6|0,1:2|1:0,0:0:0:0:
207,261,27681,1,10,0:0:0:0:
73,124,27849,2,0,P|79:84|93:47,1,79.980001220398,2|0,0:0|1:0,0:0:0:0:
286,126,28184,2,0,P|249:141|214:161,1,79.980001220398,2|8,1:2|0:0,0:0:0:0:
332,15,28519,6,0,P|383:51|394:145,1,159.960002440796,2|0,1:2|1:0,0:0:0:0:
326,276,29022,2,0,P|364:259|425:244,1,79.980001220398,10|0,0:2|0:0,0:0:0:0:
244,362,29357,2,0,P|207:345|169:334,1,79.980001220398,2|0,1:2|1:0,0:0:0:0:
319,167,29692,1,10,0:2:0:0:
97,253,29860,6,0,P|47:217|54:85,1,178.560004359375,6|0,1:2|1:0,0:0:0:0:
308,254,30363,2,0,P|265:270|220:297,1,89.2800021796876,8|0,0:0|1:0,0:0:0:0:
328,74,30698,1,8,0:0:0:0:
417,287,30865,1,0,1:0:0:0:
211,164,31033,1,8,0:0:0:0:
449,20,31201,6,0,P|438:78|393:201,1,178.560004359375,4|0,1:0|1:0,0:0:0:0:
192,67,31703,2,0,P|246:55|299:30,1,89.2800021796876,8|0,0:0|1:0,0:0:0:0:
202,250,32039,1,8,0:0:0:0:
78,70,32206,1,2,1:2:0:0:
278,175,32374,1,10,0:2:0:0:
75,278,32541,1,6,1:2:0:0:
263,79,32709,6,0,B|312:70|363:60|363:60|393:97|356:151,1,178.560004359375,2|8,0:0|0:0,0:0:0:0:
302,252,33212,1,0,1:0:0:0:
464,150,33379,1,8,0:0:0:0:
395,369,33547,1,2,1:2:0:0:
252,153,33715,1,10,0:2:0:0:
512,238,33882,6,0,P|469:249|414:272,1,89.2800021796876,6|0,1:2|0:0,0:0:0:0:
270,360,34217,1,8,0:0:0:0:
146,260,34385,1,8,0:0:0:0:
305,190,34553,1,8,0:0:0:0:
174,346,34720,1,8,0:0:0:0:
32,138,34888,1,8,0:0:0:0:
266,273,35055,1,0,3:0:0:0:
332,19,35223,1,6,0:0:0:0:
332,19,35726,6,0,P|322:65|307:98,1,79.980001220398,2|0,3:2|0:0,0:0:0:0:
411,72,35977,1,0,3:0:0:0:
411,72,36061,2,0,P|418:111|434:147,1,79.980001220398,2|0,1:2|3:0,0:0:0:0:
494,221,36396,1,2,1:2:0:0:
415,323,36564,6,0,P|389:285|269:286,1,159.960002440796,6|0,1:2|0:0,0:0:0:0:
173,353,37067,2,0,P|211:362|248:378,1,79.980001220398,2|0,3:2|0:0,0:0:0:0:
179,267,37318,1,0,3:0:0:0:
179,267,37402,2,0,P|140:276|103:292,1,79.980001220398,2|0,1:2|3:0,0:0:0:0:
28,222,37737,1,2,1:2:0:0:
123,101,37905,6,0,B|168:83|204:117|195:123|240:165|304:118,1,159.960002440796,6|0,1:2|0:0,0:0:0:0:
382,63,38407,2,0,P|373:106|352:156,1,79.980001220398,0|0,3:0|0:0,0:0:0:0:
316,211,38659,1,0,3:0:0:0:
316,211,38743,2,0,P|329:248|337:287,1,79.980001220398,0|0,1:0|0:0,0:0:0:0:
415,215,39078,1,2,3:2:0:0:
415,215,39245,1,2,3:2:0:0:
257,334,39413,6,0,P|213:312|155:303,1,79.980001220398,2|0,1:2|0:0,0:0:0:0:
261,140,39748,1,2,3:2:0:0:
114,240,39916,2,0,P|75:250|40:269,1,79.980001220398,2|0,1:2|0:0,0:0:0:0:
133,72,40251,2,0,P|142:120|156:159,1,79.980001220398,2|0,1:2|3:0,0:0:0:0:
315,244,40586,6,0,B|346:236|371:232|371:232|398:191|398:191|430:184|462:175,1,159.960002440796,6|0,1:2|1:0,0:0:0:0:
353,92,41089,2,0,P|314:80|275:74,1,79.980001220398,2|0,3:2|1:0,0:0:0:0:
275,163,41340,1,0,3:0:0:0:
275,163,41424,2,0,P|235:168|197:180,1,79.980001220398,2|0,1:2|3:0,0:0:0:0:
42,270,41759,1,0,1:0:0:0:
85,87,41927,6,0,P|94:144|139:256,1,159.960002440796,6|0,1:2|1:0,0:0:0:0:
227,343,42430,2,0,P|240:302|255:267,1,79.980001220398,2|0,0:2|0:0,0:0:0:0:
329,203,42681,1,0,3:0:0:0:
329,203,42765,2,0,P|344:239|356:277,1,79.980001220398,2|0,1:2|1:0,0:0:0:0:
435,357,43100,1,2,3:2:0:0:
435,357,43435,6,0,P|453:280|506:147,1,215.760006584473,6|8,1:2|0:0,0:0:0:0:
291,338,43938,2,0,P|273:267|245:205,1,107.880003292236,6|0,1:2|0:0,0:0:0:0:
111,58,44273,1,8,3:0:0:0:
381,171,44441,1,8,3:0:0:0:
249,29,44608,1,4,3:0:0:0:
85,228,44776,6,0,P|127:149|265:149,1,215.760006584473,6|8,1:2|0:0,0:0:0:0:
215,375,45279,1,6,1:2:0:0:
372,199,45446,1,0,0:0:0:0:
132,325,45614,1,8,0:0:0:0:
78,325,45697,1,8,0:0:0:0:
35,294,45781,1,8,0:0:0:0:
17,244,45865,1,8,0:0:0:0:
32,193,45949,6,0,B|95:172|130:218|120:224|170:276|240:225,1,197.160000300842,4|0,1:0|1:0,0:0:0:0:
416,128,46452,2,0,P|425:176|442:222,1,98.5800001504211,10|0,0:2|0:0,0:0:0:0:
188,150,46787,2,0,P|204:103|214:55,1,98.5800001504211,2|0,1:2|1:0,0:0:0:0:
308,219,47122,1,10,0:2:0:0:
106,62,47290,6,0,P|37:82|35:196,1,197.160000300842,2|2,1:2|1:2,0:0:0:0:
205,297,47793,1,8,0:0:0:0:
149,153,47960,1,2,1:2:0:0:
141,173,48044,1,0,1:0:0:0:
134,195,48128,1,8,0:0:0:0:
75,357,48296,1,0,1:0:0:0:
157,132,48463,1,8,0:0:0:0:
330,310,48631,6,0,B|380:321|432:334|432:334|479:294|432:224,1,197.160000300842,4|0,1:0|1:0,0:0:0:0:
252,108,49134,2,0,P|194:125|144:133,1,98.5800001504211,10|0,0:2|0:0,0:0:0:0:
121,114,49385,1,8,0:0:0:0:
121,114,49469,1,2,1:2:0:0:
336,220,49636,1,2,1:2:0:0:
205,343,49804,1,8,0:0:0:0:
338,97,49972,6,0,P|348:145|366:198,1,98.5800001504211,2|0,1:2|1:0,0:0:0:0:
121,114,50307,2,0,P|157:81|194:39,1,98.5800001504211,2|8,1:2|0:0,0:0:0:0:
259,277,50642,2,0,P|212:261|157:250,1,98.5800001504211,2|8,1:2|0:0,0:0:0:0:
246,155,50977,1,2,1:2:0:0:
376,325,51145,1,8,0:0:0:0:
272,59,51312,6,0,B|209:38|174:84|184:90|134:142|64:91,1,197.160000300842,6|0,1:2|1:0,0:0:0:0:
342,172,51815,2,0,P|395:156|458:150,1,98.5800001504211,8|0,0:0|0:0,0:0:0:0:
343,264,52150,1,0,1:0:0:0:
234,195,52318,1,0,1:0:0:0:
374,55,52486,1,10,0:2:0:0:
247,301,52653,6,0,P|177:288|141:150,1,197.160000300842,6|0,1:2|1:0,0:0:0:0:
353,278,53156,2,0,P|331:334|323:376,1,98.5800001504211,8|0,0:0|0:0,0:0:0:0:
234,195,53491,2,0,P|290:182|340:161,1,98.5800001504211,0|0,1:0|1:0,0:0:0:0:
132,67,53826,1,10,0:2:0:0:
65,223,53994,1,2,1:2:0:0:
243,96,54162,6,0,P|221:40|213:-2,1,98.5800001504211,2|0,0:2|1:0,0:0:0:0:
159,225,54497,1,10,0:2:0:0:
328,166,54664,2,0,P|350:110|358:68,1,98.5800001504211,2|0,1:2|1:0,0:0:0:0:
467,229,55000,1,2,1:2:0:0:
387,289,55167,1,10,0:2:0:0:
231,186,55335,6,0,P|283:179|347:157,1,98.5800001504211,2|0,1:2|0:0,0:0:0:0:
96,126,55670,1,2,1:2:0:0:
260,307,55838,1,8,0:0:0:0:
178,63,56005,1,2,1:2:0:0:
15,231,56173,1,0,1:0:0:0:
270,96,56340,1,10,0:2:0:0:
314,76,56423,1,8,0:0:0:0:
362,84,56507,1,0,1:0:0:0:
398,116,56591,1,0,1:0:0:0:
411,163,56676,6,0,B|367:130|320:147|320:147|288:202|219:183,1,197.160000300842,4|0,1:0|1:0,0:0:0:0:
121,35,57178,2,0,P|113:83|96:129,1,98.5800001504211,10|0,0:2|0:0,0:0:0:0:
0,268,57514,1,2,1:2:0:0:
133,209,57681,1,2,1:2:0:0:
319,323,57849,1,8,0:0:0:0:
225,132,58016,6,0,P|181:175|196:318,1,197.160000300842,2|2,1:2|1:2,0:0:0:0:
412,176,58519,1,8,0:0:0:0:
349,48,58687,1,2,0:2:0:0:
339,68,58771,1,0,0:0:0:0:
331,89,58854,1,0,1:0:0:0:
271,236,59022,1,2,1:2:0:0:
358,21,59190,1,8,0:0:0:0:
164,195,59357,6,0,B|132:187|92:180|92:180|63:130|63:130|26:122|-18:107,1,197.160000300842,4|0,1:0|1:0,0:0:0:0:
224,4,59860,2,0,P|235:60|252:104,1,98.5800001504211,10|0,0:2|0:0,0:0:0:0:
272,140,60111,1,8,0:0:0:0:
272,140,60195,1,2,1:2:0:0:
423,240,60363,1,2,1:2:0:0:
512,86,60530,1,8,0:0:0:0:
327,259,60698,6,0,P|264:234|226:228,1,98.5800001504211,2|0,1:2|0:0,0:0:0:0:
414,57,61033,2,0,P|423:124|437:159,1,98.5800001504211,2|8,1:2|0:0,0:0:0:0:
194,83,61368,1,2,1:2:0:0:
194,83,61452,1,8,0:0:0:0:
194,83,61536,2,0,P|247:40|271:11,1,98.5800001504211,0|2,1:0|1:2,0:0:0:0:
327,259,61871,1,8,0:0:0:0:
113,127,62039,6,0,P|57:144|45:288,1,197.160000300842,6|0,1:2|1:0,0:0:0:0:
229,329,62541,2,0,P|180:337|134:354,1,98.5800001504211,8|0,0:0|1:0,0:0:0:0:
109,369,62793,1,0,0:0:0:0:
109,369,62877,1,0,1:0:0:0:
206,207,63044,1,0,1:0:0:0:
394,308,63212,1,10,0:2:0:0:
292,96,63379,6,0,P|267:154|237:289,1,197.160000300842,6|0,1:2|1:0,0:0:0:0:
56,144,63882,2,0,P|119:131|170:109,1,98.5800001504211,8|0,0:0|1:0,0:0:0:0:
170,96,64134,1,8,0:0:0:0:
170,96,64217,1,0,1:0:0:0:
363,185,64385,1,0,1:0:0:0:
258,283,64553,1,10,0:2:0:0:
378,72,64720,1,2,1:2:0:0:
164,256,64888,6,0,P|116:241|68:233,1,98.5800001504211,2|0,0:2|1:0,0:0:0:0:
211,65,65223,1,10,0:2:0:0:
351,285,65391,2,0,P|398:270|446:262,1,98.5800001504211,2|0,0:2|1:0,0:0:0:0:
255,144,65726,1,2,1:2:0:0:
163,336,65893,1,8,0:0:0:0:
392,175,66061,6,0,P|375:117|367:69,1,98.5800001504211,2|0,1:2|0:0,0:0:0:0:
159,17,66396,2,0,P|149:65|135:112,1,98.5800001504211,2|8,1:2|0:0,0:0:0:0:
242,280,66731,1,2,1:2:0:0:
26,144,66899,1,0,1:2:0:0:
256,20,67067,1,10,0:2:0:0:
298,44,67150,1,8,0:0:0:0:
327,83,67234,1,8,0:0:0:0:
338,131,67318,1,8,0:0:0:0:
328,179,67402,6,0,B|278:190|226:203|226:203|179:163|226:93,1,197.160000300842,4|0,1:0|1:0,0:0:0:0:
232,328,67905,5,10,0:2:0:0:
327,83,68072,1,0,1:0:0:0:
147,282,68240,5,10,0:2:0:0:
52,37,68407,1,2,1:2:0:0:
21,329,68575,5,8,0:0:0:0:
144,81,68743,2,0,P|133:132|120:178,1,98.5800001504211,6|0,1:2|0:0,0:0:0:0:
231,305,69078,1,2,1:2:0:0:
386,132,69245,1,8,0:0:0:0:
234,31,69413,2,0,P|245:82|258:128,1,98.5800001504211,2|0,1:2|1:0,0:0:0:0:
345,236,69748,1,2,1:2:0:0:
495,21,69916,2,0,P|484:72|471:118,1,98.5800001504211,10|0,0:2|1:0,0:0:0:0:
342,317,70251,6,0,P|313:259|183:264,1,197.160000300842,6|8,1:2|0:0,0:0:0:0:
345,147,70754,1,2,1:2:0:0:
189,355,70921,2,0,P|144:333|78:323,1,98.5800001504211,2|0,1:2|1:0,0:0:0:0:
247,136,71257,1,10,0:2:0:0:
119,56,71424,2,0,P|132:103|142:151,1,98.5800001504211,6|0,1:2|0:0,0:0:0:0:
285,268,71759,1,2,1:2:0:0:
42,175,71927,1,8,0:0:0:0:
258,18,72095,2,0,P|244:65|234:113,1,98.5800001504211,2|0,1:2|0:0,0:0:0:0:
376,295,72430,5,10,0:2:0:0:
334,269,72513,1,8,0:0:0:0:
285,268,72597,1,8,0:0:0:0:
242,292,72681,1,8,0:0:0:0:
217,333,72765,1,4,3:0:0:0:
220,340,72849,1,4,3:0:0:0:
223,346,72933,6,0,P|235:289|267:172,1,159.960002440796,6|2,1:2|1:2,0:0:0:0:
172,124,73435,1,2,1:2:0:0:
299,40,73603,2,0,P|337:48|374:64,1,79.980001220398,8|0,0:0|0:0,0:0:0:0:
494,156,73938,1,0,1:0:0:0:
494,156,74106,6,0,P|444:167|339:226,1,159.960002440796,0|0,1:0|1:0,0:0:0:0:
234,280,74608,1,0,3:0:0:0:
342,342,74776,1,0,3:0:0:0:
240,171,74944,2,0,P|229:217|216:255,1,79.980001220398,8|0,0:0|0:0,0:0:0:0:
139,329,75279,1,2,1:2:0:0:
139,329,75446,1,0,1:2:0:0:
28,172,75614,5,2,1:2:0:0:
162,86,75782,1,8,0:0:0:0:
128,181,75949,1,0,1:2:0:0:
47,20,76117,1,2,1:2:0:0:
251,121,76284,2,0,B|290:106|331:91|331:91|368:114|348:169,1,159.960002440796,8|2,0:0|1:2,0:0:0:0:
249,242,76787,6,0,P|210:225|149:218,1,79.980001220398,0|0,1:0|0:0,0:0:0:0:
329,317,77122,2,0,P|368:300|429:293,1,79.980001220398,0|0,1:0|0:0,0:0:0:0:
230,368,77458,1,0,1:0:0:0:
347,208,77625,1,8,0:0:0:0:
251,121,77793,1,8,0:0:0:0:
307,47,77960,1,8,3:0:0:0:
389,104,78128,1,2,3:2:0:0:
389,104,78212,1,0,0:0:0:0:
389,104,78296,5,4,1:2:0:0:
224,210,78463,1,2,0:2:0:0:
372,302,78631,2,0,P|355:255|346:207,1,98.5800001504211,10|0,0:2|0:0,0:0:0:0:
201,296,78966,1,2,1:2:0:0:
293,134,79134,1,0,1:0:0:0:
183,327,79301,1,10,0:2:0:0:
34,217,79469,6,0,P|90:203|148:179,1,98.5800001504211,2|0,1:2|0:0,0:0:0:0:
224,74,79804,1,2,1:2:0:0:
399,193,79972,1,10,0:2:0:0:
275,299,80139,1,2,1:2:0:0:
285,271,80223,1,8,0:0:0:0:
295,243,80307,1,0,1:0:0:0:
348,86,80474,1,0,1:0:0:0:
492,234,80642,1,8,0:0:0:0:
410,25,80810,5,6,1:2:0:0:
268,174,80977,1,2,1:2:0:0:
472,102,81145,1,2,1:2:0:0:
269,5,81312,2,0,P|223:24|164:36,1,98.5800001504211,10|2,0:2|1:2,0:0:0:0:
143,17,81564,1,8,0:0:0:0:
143,17,81648,1,2,1:2:0:0:
330,103,81815,1,0,1:0:0:0:
134,275,81983,1,10,0:2:0:0:
253,364,82150,6,0,P|236:317|227:269,1,98.5800001504211,6|0,1:2|1:0,0:0:0:0:
299,111,82486,1,10,0:2:0:0:
424,272,82653,1,8,0:0:0:0:
171,171,82821,1,10,0:2:0:0:
395,51,82988,1,8,0:0:0:0:
267,314,83156,1,10,0:2:0:0:
48,117,83324,1,8,0:0:0:0:
262,0,83491,6,0,B|254:27|249:64|249:64|205:93|205:93|201:124|189:156,1,178.560004359375,6|0,1:2|1:0,0:0:0:0:
392,240,83994,2,0,P|375:192|366:135,1,89.2800021796876,10|0,0:2|1:0,0:0:0:0:
156,263,84329,1,2,1:2:0:0:
348,341,84497,1,8,0:0:0:0:
287,235,84664,1,2,1:2:0:0:
131,363,84832,6,0,P|80:339|78:210,1,178.560004359375,6|0,1:2|1:0,0:0:0:0:
236,69,85335,2,0,P|189:88|144:96,1,89.2800021796876,10|0,0:2|1:0,0:0:0:0:
287,235,85670,1,2,1:2:0:0:
360,41,85838,1,8,0:0:0:0:
293,135,86005,1,2,1:2:0:0:
499,47,86173,6,0,P|475:105|443:256,1,178.560004359375,6|0,1:2|1:0,0:0:0:0:
208,161,86676,2,0,P|251:151|292:134,1,89.2800021796876,10|0,0:2|1:0,0:0:0:0:
155,260,87011,1,2,1:2:0:0:
53,45,87178,1,8,0:0:0:0:
159,80,87346,1,2,1:2:0:0:
46,281,87514,6,0,P|34:237|17:196,1,89.2800021796876,6|0,1:2|0:0,0:0:0:0:
220,324,87849,1,10,0:2:0:0:
208,328,87933,1,8,0:0:0:0:
196,334,88016,1,0,1:0:0:0:
112,158,88184,1,10,0:2:0:0:
124,164,88267,1,8,0:0:0:0:
136,168,88351,1,0,1:0:0:0:
363,337,88519,1,10,0:2:0:0:
398,310,88602,1,8,0:0:0:0:
419,271,88686,1,8,0:0:0:0:
421,227,88770,1,8,0:0:0:0:
404,186,88854,6,0,B|349:168|315:203|328:212|282:255|213:219,1,178.560004359375,6|0,1:2|1:0,0:0:0:0:
297,10,89357,2,0,P|305:53|321:95,1,89.2800021796876,10|0,0:2|1:0,0:0:0:0:
383,270,89692,1,2,1:2:0:0:
507,118,89860,1,8,0:0:0:0:
484,229,90027,1,2,1:2:0:0:
259,143,90195,6,0,B|215:158|178:169|178:169|146:219|196:261,1,178.560004359375,6|0,1:2|1:0,0:0:0:0:
364,330,90698,2,0,P|323:339|272:362,1,89.2800021796876,10|0,0:2|1:0,0:0:0:0:
252,384,90949,1,8,0:0:0:0:
252,384,91033,1,2,1:2:0:0:
371,211,91201,2,0,P|358:254|346:278,1,44.6400010898438,8|0,0:0|0:0,0:0:0:0:
134,134,91368,1,8,0:0:0:0:
146,91,91451,1,8,0:0:0:0:
178,61,91535,1,8,0:0:0:0:
221,49,91619,1,8,0:0:0:0:
264,60,91703,5,4,1:0:0:0:
192,283,91871,1,0,1:2:0:0:
0,201,92039,1,8,0:0:0:0:
271,155,92206,6,0,B|298:147|335:142|335:142|364:98|364:98|395:94|427:82,1,178.560004359375,4|0,1:0|1:0,0:0:0:0:
358,253,92709,1,8,0:0:0:0:
221,49,92877,6,0,B|178:17|134:33|134:33|103:86|37:68,1,178.560004359375,4|0,1:0|1:0,0:0:0:0:
325,0,93379,1,8,0:0:0:0:
154,241,93547,6,0,P|144:191|124:148,1,89.2800021796876,4|0,1:0|0:0,0:0:0:0:
384,231,93882,1,8,0:0:0:0:
99,345,94050,1,8,0:0:0:0:
291,211,94217,1,4,1:0:0:0:
291,211,94720,6,0,P|297:251|313:304,1,70.679999137207,10|0,0:2|1:0,0:0:0:0:
366,135,95055,1,2,1:2:0:0:
199,226,95223,2,0,P|205:186|221:133,1,70.679999137207,2|8,1:2|0:0,0:0:0:0:
315,67,95558,6,0,P|281:75|170:21,1,141.359998274414,2|0,1:2|1:0,0:0:0:0:
76,161,96061,2,0,P|108:146|142:138,1,70.679999137207,10|0,0:2|1:0,0:0:0:0:
0,110,96396,1,2,1:2:0:0:
58,0,96564,2,0,P|71:32|87:64,1,70.679999137207,2|8,1:2|0:0,0:0:0:0:
268,174,96899,6,0,B|296:165|321:163|321:163|345:132|345:132|372:129|400:121,1,141.359998274414,6|0,1:2|1:0,0:0:0:0:
499,274,97402,1,8,0:0:0:0:
402,210,97569,1,2,1:2:0:0:
494,145,97737,1,2,1:2:0:0:
397,300,97905,2,0,P|385:251|370:223,1,70.679999137207,2|8,1:2|0:0,0:0:0:0:
259,156,98240,6,0,B|229:148|187:139|187:139|150:169|181:227,1,141.359998274414,2|0,1:2|1:0,0:0:0:0:
247,300,98743,2,0,P|206:311|172:328,1,70.679999137207,10|0,0:2|1:0,0:0:0:0:
10,263,99078,1,2,1:2:0:0:
67,355,99245,2,0,P|80:338|92:311,1,35.3399995686035,0|8,1:0|0:0,0:0:0:0:
37,155,99413,1,10,0:2:0:0:
52,173,99497,1,8,0:0:0:0:
75,186,99581,6,0,B|99:176|136:175|136:175|162:128|162:128|203:127|242:117,1,178.560004359375,6|0,1:2|1:0,0:0:0:0:
384,229,100083,2,0,P|395:185|413:144,1,89.2800021796876,8|0,0:0|1:0,0:0:0:0:
240,227,100419,1,8,0:0:0:0:
457,311,100586,1,0,1:0:0:0:
213,217,100754,1,8,0:0:0:0:
412,50,100921,6,0,P|479:72|479:200,1,178.560004359375,4|0,1:0|1:0,0:0:0:0:
248,115,101424,2,0,P|298:107|349:86,1,89.2800021796876,8|0,0:0|1:0,0:0:0:0:
238,287,101759,1,10,0:2:0:0:
98,151,101927,2,0,P|142:157|184:172,1,89.2800021796876,2|10,1:2|0:2,0:0:0:0:
50,375,102262,1,6,1:2:0:0:
247,267,102430,6,0,B|297:247|336:277|336:277|374:329|443:298,1,178.560004359375,0|8,0:0|0:0,0:0:0:0:
256,364,102933,1,2,1:2:0:0:
245,137,103100,5,8,0:0:0:0:
476,200,103268,1,0,1:0:0:0:
187,218,103435,5,8,0:0:0:0:
414,109,103603,1,0,1:0:0:0:
235,326,103771,2,0,P|224:275|208:230,1,89.2800021796876,8|0,0:0|1:0,0:0:0:0:
476,200,104106,2,0,P|462:242|453:286,1,89.2800021796876,8|0,0:0|1:0,0:0:0:0:
211,144,104441,1,8,0:0:0:0:
485,76,104608,1,10,0:2:0:0:
211,144,104776,1,10,0:2:0:0:
339,253,104944,6,0,B|349:226|351:194|351:194|377:167|377:167|380:141|392:96,1,159.960002440796,6|0,1:2|1:0,0:0:0:0:
285,0,105446,1,10,0:2:0:0:
200,135,105614,2,0,P|243:118|286:112,1,79.980001220398,2|0,0:2|1:0,0:0:0:0:
149,0,105949,2,0,P|140:48|124:88,1,79.980001220398,2|8,1:2|0:0,0:0:0:0:
18,162,106284,6,0,P|86:154|149:230,1,159.960002440796,2|2,1:2|1:2,0:0:0:0:
92,320,106786,1,10,0:2:0:0:
231,266,106955,2,0,P|216:303|204:348,1,79.980001220398,2|0,1:2|1:0,0:0:0:0:
362,234,107289,1,2,1:2:0:0:
236,139,107457,1,10,0:2:0:0:
386,313,107625,6,0,B|425:299|459:286|459:286|472:244|440:209,1,159.960002440796,6|0,1:2|1:0,0:0:0:0:
254,242,108127,1,10,0:2:0:0:
396,116,108295,2,0,P|410:78|415:39,1,79.980001220398,2|0,0:2|1:0,0:0:0:0:
236,139,108630,2,0,P|273:154|308:174,1,79.980001220398,2|8,1:2|0:0,0:0:0:0:
111,82,108966,6,0,P|138:157|159:234,1,159.960002440796,2|0,1:2|1:0,0:0:0:0:
44,300,109468,2,0,P|82:311|118:327,1,79.980001220398,10|0,0:2|1:0,0:0:0:0:
309,263,109804,2,0,P|272:279|234:290,1,79.980001220398,2|0,1:2|1:0,0:0:0:0:
62,206,110138,1,10,0:2:0:0:
197,384,110307,6,0,P|150:341|168:226,1,178.560004359375,6|0,1:2|1:0,0:0:0:0:
404,253,110810,2,0,P|362:266|315:287,1,89.2800021796876,8|0,0:0|1:0,0:0:0:0:
251,48,111145,1,8,0:0:0:0:
470,143,111312,1,0,1:0:0:0:
255,229,111480,1,8,0:0:0:0:
407,8,111648,6,0,P|390:62|359:204,1,178.560004359375,4|0,1:0|1:0,0:0:0:0:
164,68,112150,2,0,P|209:61|265:41,1,89.2800021796876,8|0,0:0|1:0,0:0:0:0:
146,252,112486,1,8,0:0:0:0:
20,61,112653,1,2,1:2:0:0:
238,147,112821,1,10,0:2:0:0:
42,263,112988,1,6,0:2:0:0:
253,256,113156,6,0,B|287:252|314:242|314:242|360:268|360:268|397:258|434:253,1,178.560004359375,2|8,0:0|0:0,0:0:0:0:
307,125,113659,1,0,1:0:0:0:
229,343,113826,1,8,0:0:0:0:
400,167,113994,1,2,1:2:0:0:
154,226,114162,1,10,0:2:0:0:
388,54,114329,6,0,P|400:100|421:151,1,89.2800021796876,6|0,1:2|0:0,0:0:0:0:
314,227,114664,1,8,0:0:0:0:
217,123,114832,1,8,0:0:0:0:
430,222,115000,1,8,0:0:0:0:
196,332,115167,1,8,0:0:0:0:
298,78,115335,1,8,0:0:0:0:
449,321,115502,1,2,1:2:0:0:
124,240,115670,1,4,1:0:0:0:
124,240,116173,6,0,P|169:230|207:215,1,79.980001220398,0|0,3:3|0:0,0:0:0:0:
194,306,116424,1,0,3:0:0:0:
194,306,116508,2,0,P|239:316|277:331,1,79.980001220398,0|0,1:0|0:0,0:0:0:0:
434,239,116843,1,0,1:0:0:0:
380,348,117011,6,0,P|352:279|338:182,1,159.960002440796,4|0,1:0|1:2,0:0:0:0:
276,72,117514,2,0,P|265:114|248:155,1,79.980001220398,0|0,3:0|0:0,0:0:0:0:
164,132,117765,1,0,3:0:0:0:
164,132,117849,2,0,P|175:174|192:215,1,79.980001220398,0|0,1:0|0:0,0:0:0:0:
131,278,118184,1,0,1:0:0:0:
281,224,118352,6,0,B|312:232|337:236|337:236|364:277|364:277|396:284|428:293,1,159.960002440796,4|0,1:0|1:2,0:0:0:0:
266,315,118854,2,0,P|219:330|182:350,1,79.980001220398,0|0,3:0|0:0,0:0:0:0:
118,384,119106,1,0,3:0:0:0:
118,384,119190,2,0,P|82:366|43:355,1,79.980001220398,0|0,1:0|1:2,0:0:0:0:
158,254,119525,1,0,3:0:0:0:
158,254,119692,1,0,3:0:0:0:
31,150,119860,6,0,P|43:191|61:227,1,79.980001220398,2|0,1:2|1:2,0:0:0:0:
111,48,120195,1,2,3:2:0:0:
245,165,120363,2,0,P|234:203|216:239,1,79.980001220398,2|0,1:2|1:2,0:0:0:0:
353,87,120698,2,0,P|363:125|381:161,1,79.980001220398,2|0,1:2|0:0,0:0:0:0:
507,242,121033,6,0,B|462:224|426:258|435:264|390:306|326:259,1,159.960002440796,4|0,1:0|1:2,0:0:0:0:
271,177,121536,2,0,P|226:189|194:207,1,79.980001220398,2|0,3:2|1:0,0:0:0:0:
125,159,121787,1,0,3:0:0:0:
125,159,121871,2,0,P|86:149|50:131,1,79.980001220398,2|0,1:2|3:0,0:0:0:0:
133,37,122206,1,2,1:2:0:0:
271,177,122374,6,0,P|329:142|423:113,1,159.960002440796,4|0,1:0|1:0,0:0:0:0:
508,205,122877,2,0,P|492:239|477:284,1,79.980001220398,2|0,3:2|0:0,0:0:0:0:
413,348,123128,1,0,3:0:0:0:
413,348,123212,2,0,P|402:308|387:268,1,79.980001220398,2|0,1:2|1:0,0:0:0:0:
196,344,123547,1,2,3:2:0:0:
196,344,123882,6,0,P|131:301|-7:263,1,215.760006584473,4|8,1:0|0:0,0:0:0:0:
201,94,124385,2,0,P|149:118|91:129,1,107.880003292236,6|0,1:2|0:0,0:0:0:0:
271,278,124720,1,8,3:0:0:0:
388,19,124888,1,8,3:0:0:0:
251,180,125055,1,4,3:0:0:0:
474,54,125223,6,0,P|514:90|496:241,1,215.760006584473,6|8,1:2|0:0,0:0:0:0:
277,70,125726,1,6,1:2:0:0:
404,252,125893,1,0,0:0:0:0:
180,117,126061,1,8,0:0:0:0:
128,129,126144,1,8,0:0:0:0:
90,166,126228,1,8,0:0:0:0:
77,218,126312,1,8,0:0:0:0:
88,271,126396,6,0,B|127:281|161:282|161:282|190:324|190:324|226:327|270:335,1,197.160000300842,4|0,1:0|1:0,0:0:0:0:
452,227,126899,2,0,P|403:218|357:200,1,98.5800001504211,10|0,0:0|0:0,0:0:0:0:
185,71,127234,2,0,P|233:62|279:44,1,98.5800001504211,2|0,1:2|1:0,0:0:0:0:
443,112,127569,1,10,0:2:0:0:
159,195,127737,6,0,B|111:179|61:163|61:163|38:100|104:52,1,197.160000300842,2|2,1:2|1:2,0:0:0:0:
276,139,128240,1,8,0:0:0:0:
167,321,128407,1,2,1:2:0:0:
159,301,128491,1,8,0:0:0:0:
152,279,128575,1,0,1:0:0:0:
77,75,128743,1,0,1:0:0:0:
174,344,128910,1,8,0:0:0:0:
276,139,129078,6,0,P|339:129|397:251,1,197.160000300842,4|0,1:0|1:0,0:0:0:0:
164,181,129581,2,0,P|183:130|190:78,1,98.5800001504211,10|0,0:2|0:0,0:0:0:0:
188,50,129832,1,8,0:0:0:0:
188,50,129916,1,2,1:2:0:0:
314,221,130083,1,2,1:2:0:0:
220,303,130251,1,8,0:0:0:0:
307,98,130419,6,0,P|317:146|335:199,1,98.5800001504211,2|0,1:2|0:0,0:0:0:0:
89,98,130754,2,0,P|125:65|162:23,1,98.5800001504211,2|8,1:2|0:0,0:0:0:0:
204,281,131089,2,0,P|157:265|102:254,1,98.5800001504211,2|8,1:2|0:0,0:0:0:0:
210,147,131424,1,2,1:2:0:0:
22,273,131592,1,8,0:0:0:0:
252,361,131759,6,0,B|303:391|350:353|350:353|375:292|451:308,1,197.160000300842,6|0,1:2|1:0,0:0:0:0:
318,105,132262,2,0,P|310:150|290:210,1,98.5800001504211,8|0,0:0|1:0,0:0:0:0:
191,97,132597,1,0,1:0:0:0:
289,12,132765,1,0,1:0:0:0:
433,154,132933,1,10,0:2:0:0:
199,283,133100,6,0,P|129:270|93:132,1,197.160000300842,6|0,1:2|1:0,0:0:0:0:
384,241,133603,2,0,P|330:264|292:292,1,98.5800001504211,8|0,0:0|0:0,0:0:0:0:
289,12,133938,2,0,P|301:61|321:110,1,98.5800001504211,0|0,1:0|1:0,0:0:0:0:
212,207,134273,1,10,0:2:0:0:
411,88,134441,1,2,1:2:0:0:
173,45,134608,6,0,P|121:60|60:96,1,98.5800001504211,2|0,1:2|1:0,0:0:0:0:
238,114,134944,1,10,0:2:0:0:
91,254,135111,2,0,P|39:239|-22:203,1,98.5800001504211,2|0,0:2|1:0,0:0:0:0:
192,215,135447,1,2,1:2:0:0:
81,80,135614,1,8,0:0:0:0:
176,344,135782,6,0,P|192:288|213:243,1,98.5800001504211,6|0,1:2|0:0,0:0:0:0:
453,332,136117,1,2,1:2:0:0:
380,94,136285,1,8,0:0:0:0:
299,293,136452,1,2,1:2:0:0:
512,149,136620,1,0,1:0:0:0:
276,33,136787,1,2,1:2:0:0:
227,38,136870,1,8,0:0:0:0:
190,70,136954,1,8,0:0:0:0:
178,116,137038,1,8,0:0:0:0:
194,162,137122,6,0,B|255:144|307:130|307:130|344:164|321:215,1,197.160000300842,4|0,1:0|1:0,0:0:0:0:
172,338,137625,2,0,P|164:290|147:244,1,98.5800001504211,10|0,0:2|0:0,0:0:0:0:
38,78,137961,1,2,1:2:0:0:
194,162,138128,1,2,1:2:0:0:
61,325,138296,1,8,0:0:0:0:
182,72,138463,6,0,B|245:51|280:97|270:103|320:155|390:104,1,197.160000300842,2|2,1:2|1:2,0:0:0:0:
500,256,138966,1,8,0:0:0:0:
471,42,139134,1,2,1:2:0:0:
461,62,139218,1,8,0:0:0:0:
453,83,139301,1,0,1:0:0:0:
373,264,139469,1,2,1:2:0:0:
480,21,139637,1,8,0:0:0:0:
274,189,139804,6,0,P|219:118|94:145,1,197.160000300842,4|0,1:0|1:0,0:0:0:0:
25,278,140307,2,0,P|91:250|139:239,1,98.5800001504211,10|0,0:2|1:0,0:0:0:0:
150,251,140558,1,8,0:0:0:0:
150,251,140642,1,2,1:2:0:0:
285,350,140810,1,0,1:0:0:0:
447,198,140977,1,10,0:2:0:0:
323,87,141145,6,0,P|334:141|352:191,1,98.5800001504211,2|0,1:2|0:0,0:0:0:0:
170,17,141480,2,0,P|159:71|141:121,1,98.5800001504211,2|8,1:2|0:0,0:0:0:0:
40,273,141815,1,2,1:2:0:0:
40,273,141899,1,8,0:0:0:0:
40,273,141983,2,0,P|84:252|131:238,1,98.5800001504211,0|2,1:0|1:2,0:0:0:0:
341,300,142318,1,8,0:0:0:0:
269,107,142486,6,0,P|245:167|214:311,1,197.160000300842,6|0,1:2|1:0,0:0:0:0:
20,162,142988,2,0,P|68:154|114:137,1,98.5800001504211,8|0,0:0|1:0,0:0:0:0:
144,110,143240,1,8,0:0:0:0:
144,110,143324,1,0,1:0:0:0:
334,206,143491,1,0,1:0:0:0:
215,295,143659,1,10,0:2:0:0:
311,90,143826,6,0,P|387:81|445:206,1,197.160000300842,6|0,1:2|1:0,0:0:0:0:
314,349,144329,2,0,P|360:330|422:320,1,98.5800001504211,8|0,0:0|0:0,0:0:0:0:
439,332,144581,1,8,0:0:0:0:
439,332,144664,1,0,1:0:0:0:
309,186,144832,1,0,1:0:0:0:
211,309,145000,1,8,0:2:0:0:
417,213,145167,1,2,1:2:0:0:
181,59,145335,6,0,P|200:107|215:173,1,98.5800001504211,2|0,1:2|0:0,0:0:0:0:
113,306,145670,1,8,0:0:0:0:
318,143,145838,2,0,P|299:191|284:257,1,98.5800001504211,2|0,0:2|1:0,0:0:0:0:
96,151,146173,1,2,1:2:0:0:
266,48,146340,1,8,0:0:0:0:
93,268,146508,6,0,P|48:242|-8:223,1,98.5800001504211,2|0,1:2|0:0,0:0:0:0:
181,59,146843,1,0,1:0:0:0:
307,300,147011,2,0,P|352:274|408:255,1,98.5800001504211,10|0,0:2|0:0,0:0:0:0:
133,162,147346,1,2,1:2:0:0:
350,4,147514,1,10,0:2:0:0:
392,28,147597,1,8,0:0:0:0:
421,67,147681,1,8,0:0:0:0:
432,115,147765,1,8,0:0:0:0:
422,163,147849,6,0,B|383:173|349:174|349:174|320:216|320:216|284:219|240:227,1,197.160000300842,4|0,1:0|1:0,0:0:0:0:
45,106,148352,5,10,0:2:0:0:
193,344,148519,1,0,1:0:0:0:
164,51,148687,5,10,0:2:0:0:
68,285,148854,1,2,1:2:0:0:
285,88,149022,5,8,0:0:0:0:
399,339,149190,2,0,P|446:312|506:296,1,98.5800001504211,6|0,1:2|0:0,0:0:0:0:
224,211,149525,1,2,1:2:0:0:
402,122,149692,1,8,0:0:0:0:
227,323,149860,2,0,P|180:296|120:280,1,98.5800001504211,2|0,1:2|1:0,0:0:0:0:
349,206,150195,1,2,1:2:0:0:
128,144,150363,2,0,P|81:159|38:184,1,98.5800001504211,10|0,0:2|1:0,0:0:0:0:
205,0,150698,6,0,P|262:44|249:180,1,197.160000300842,6|8,1:2|0:0,0:0:0:0:
78,292,151201,1,2,1:2:0:0:
158,128,151368,2,0,P|169:175|187:221,1,98.5800001504211,2|0,1:2|1:0,0:0:0:0:
257,341,151704,1,10,0:2:0:0:
426,143,151871,6,0,P|414:190|396:236,1,98.5800001504211,6|0,1:2|0:0,0:0:0:0:
237,123,152206,1,2,1:2:0:0:
432,27,152374,1,8,0:0:0:0:
276,261,152541,2,0,P|233:236|186:220,1,98.5800001504211,2|0,1:2|1:0,0:0:0:0:
51,25,152877,5,10,0:2:0:0:
89,54,152960,1,8,0:0:0:0:
111,98,153044,1,8,0:0:0:0:
112,147,153128,1,8,0:0:0:0:
91,191,153212,1,4,3:0:0:0:
86,187,153296,1,8,3:0:0:0:
83,182,153379,6,0,P|134:153|255:126,1,159.960002440796,6|2,1:2|1:2,0:0:0:0:
166,257,153882,1,2,1:2:0:0:
310,176,154050,2,0,P|348:184|385:200,1,79.980001220398,8|0,0:0|0:0,0:0:0:0:
445,288,154385,1,0,1:0:0:0:
445,288,154553,6,0,P|423:241|477:141,1,159.960002440796,0|0,1:0|1:0,0:0:0:0:
309,70,155055,1,0,0:0:0:0:
417,2,155223,1,0,1:0:0:0:
310,176,155391,2,0,P|299:130|286:92,1,79.980001220398,8|0,0:0|0:0,0:0:0:0:
180,50,155726,1,4,3:0:0:0:
180,50,155893,1,8,3:0:0:0:
81,213,156061,5,2,1:2:0:0:
216,140,156229,1,8,0:0:0:0:
177,236,156396,1,0,1:2:0:0:
38,120,156564,1,2,1:2:0:0:
178,325,156731,2,0,B|207:318|233:315|233:315|263:279|263:279|294:277|329:267,1,159.960002440796,8|2,0:0|1:2,0:0:0:0:
465,171,157234,6,0,P|444:209|428:254,1,79.980001220398,0|0,1:0|0:0,0:0:0:0:
351,145,157569,2,0,P|336:107|317:72,1,79.980001220398,0|0,1:0|0:0,0:0:0:0:
231,33,157905,1,0,1:0:0:0:
111,175,158072,1,8,0:0:0:0:
211,277,158240,1,8,3:0:0:0:
146,357,158407,1,0,3:0:0:0:
82,285,158575,1,2,3:2:0:0:
82,285,158659,1,0,3:0:0:0:
82,285,158743,5,6,1:2:0:0:
261,172,158910,1,2,0:2:0:0:
85,80,159078,2,0,P|94:128|110:174,1,98.5800001504211,10|0,0:2|1:0,0:0:0:0:
129,200,159329,1,8,0:0:0:0:
129,200,159413,1,2,1:2:0:0:
302,97,159581,1,0,1:0:0:0:
166,290,159748,1,10,0:2:0:0:
423,218,159916,6,0,P|367:204|309:180,1,98.5800001504211,2|0,1:2|0:0,0:0:0:0:
225,32,160251,1,2,1:2:0:0:
419,120,160419,1,10,0:2:0:0:
231,271,160586,1,2,1:2:0:0:
221,243,160670,1,8,0:0:0:0:
211,215,160754,1,0,1:0:0:0:
147,52,160921,1,0,1:0:0:0:
242,295,161089,1,8,0:0:0:0:
46,94,161257,5,6,1:2:0:0:
293,144,161424,1,2,1:2:0:0:
116,191,161592,1,2,1:2:0:0:
267,46,161759,2,0,P|312:64|360:75,1,98.5800001504211,10|0,0:2|1:0,0:0:0:0:
399,64,162011,1,8,0:0:0:0:
399,64,162095,1,2,1:2:0:0:
289,227,162262,1,0,1:0:0:0:
483,139,162430,1,10,0:2:0:0:
297,335,162597,6,0,P|248:313|187:298,1,98.5800001504211,6|0,1:2|1:0,0:0:0:0:
76,172,162933,1,10,0:2:0:0:
246,77,163100,1,8,0:0:0:0:
107,278,163268,1,10,0:2:0:0:
61,33,163435,1,8,0:0:0:0:
309,176,163603,1,10,0:2:0:0:
12,331,163771,1,8,0:0:0:0:
139,95,163938,1,8,0:0:0:0:
273,302,164106,6,0,P|301:289|330:282,1,61.3799998126831,6|0,1:2|0:0,0:0:0:0:
413,234,164441,2,0,P|442:241|470:253,1,61.3799998126831,0|0,1:0|0:0,0:0:0:0:
331,176,164776,2,0,P|314:127|345:49,1,122.759999625366,10|0,0:2|1:0,0:0:0:0:
144,63,165279,5,0,1:0:0:0:
254,9,165446,1,2,0:2:0:0:
130,156,165614,2,0,P|91:136|-13:109,1,122.759999625366,8|0,0:0|1:0,0:0:0:0:
128,3,166117,2,0,P|139:50|154:85,1,61.3799998126831,10|0,0:2|0:0,0:0:0:0:
229,138,166452,1,0,1:0:0:0:
193,233,166620,1,8,0:0:0:0:
193,233,166703,1,8,0:0:0:0:
193,233,166787,6,0,P|158:241|129:257,2,61.3799998126831,2|8|0,1:2|0:0|1:0,0:0:0:0:
285,281,167290,1,2,1:2:0:0:
285,281,167458,2,0,P|317:295|367:298,1,61.3799998126831,8|0,0:0|0:0,0:0:0:0:
435,174,167793,6,0,B|422:205|410:232|410:232|415:274|467:283,1,122.759999625366,2|0,1:2|0:0,0:0:0:0:
343,157,168296,2,0,B|321:161|301:164|301:164|283:193|283:193|252:196|217:207,1,122.759999625366,8|0,0:0|1:0,0:0:0:0:
90,88,168798,1,8,0:0:0:0:
228,110,168966,1,8,3:0:0:0:
141,217,169134,1,4,3:0:0:0:
156,143,169301,1,4,3:0:0:0:
156,143,169469,6,0,P|190:160|214:180,1,61.3799998126831,6|0,1:2|0:0,0:0:0:0:
295,227,169804,2,0,P|267:240|242:258,1,61.3799998126831,0|0,1:0|0:0,0:0:0:0:
252,343,170139,2,0,P|225:299|144:290,1,122.759999625366,10|0,0:2|1:0,0:0:0:0:
25,210,170642,5,0,1:0:0:0:
136,156,170810,1,2,3:2:0:0:
69,315,170977,2,0,P|53:257|44:185,1,122.759999625366,8|0,0:0|1:0,0:0:0:0:
149,96,171480,2,0,P|142:136|128:173,1,61.3799998126831,10|4,0:2|3:0,0:0:0:0:
64,70,171815,1,4,3:0:0:0:
222,26,171983,6,0,B|257:19|281:42|281:42|294:82|344:86,1,122.759999625366,6|8,1:2|0:0,0:0:0:0:
428,126,172486,2,0,P|386:144|364:162,1,61.3799998126831,0|0,1:0|1:0,0:0:0:0:
285,210,172821,2,0,P|327:228|349:246,1,61.3799998126831,8|0,0:0|0:0,0:0:0:0:
399,313,173156,2,0,P|409:284|425:258,1,61.3799998126831,2|0,1:2|1:0,0:0:0:0:
487,339,173491,1,2,1:2:0:0:
328,381,173659,2,0,P|302:364|273:353,1,61.3799998126831,8|0,0:0|0:0,0:0:0:0:
191,384,173994,1,2,1:2:0:0:
91,326,174162,1,8,0:0:0:0:
91,326,174329,1,8,3:0:0:0:
208,274,174497,6,0,P|161:264|116:201,1,122.759999625366,6|0,1:2|0:0,0:0:0:0:
208,84,175000,1,8,0:0:0:0:
208,84,175167,2,0,P|200:135|195:152,1,61.3799998126831,0|0,1:0|1:0,0:0:0:0:
298,51,175502,2,0,P|306:102|311:119,1,61.3799998126831,8|0,0:0|0:0,0:0:0:0:
410,168,175838,2,0,P|381:178|349:193,1,61.3799998126831,10|0,0:2|1:0,0:0:0:0:
292,267,176173,5,6,1:2:0:0:
468,281,176340,2,0,P|440:268|411:258,1,61.3799998126831,8|0,0:0|0:0,0:0:0:0:
302,362,176676,1,2,1:2:0:0:
194,257,176843,1,8,0:0:0:0:
302,362,177011,1,8,0:0:0:0:
248,194,177178,1,2,1:2:0:0:
112,299,177346,1,8,0:0:0:0:
112,299,177430,1,8,0:0:0:0:
112,299,177514,6,0,P|65:280|25:273,1,70.679999137207,2|0,1:2|0:0,0:0:0:0:
0,171,177849,2,0,P|47:152|87:145,1,70.679999137207,0|0,1:0|0:0,0:0:0:0:
179,59,178184,2,0,P|169:105|159:131,1,70.679999137207,0|0,1:0|0:0,0:0:0:0:
297,196,178519,2,0,P|285:162|278:127,1,70.679999137207,0|0,1:0|0:0,0:0:0:0:
451,67,178854,6,0,P|411:86|383:108,1,70.679999137207,0|0,1:0|0:0,0:0:0:0:
297,196,179190,2,0,P|337:215|365:237,1,70.679999137207,0|0,1:0|0:0,0:0:0:0:
481,299,179525,2,0,P|441:318|413:340,1,70.679999137207,0|0,1:0|0:0,0:0:0:0:
280,279,179860,2,0,P|295:315|303:353,1,70.679999137207,2|8,1:2|0:0,0:0:0:0:
295,371,180111,1,8,0:0:0:0:
295,371,180195,5,6,1:2:0:0:
324,185,180363,1,0,0:0:0:0:
194,252,180530,1,0,1:0:0:0:
374,277,180698,1,0,1:0:0:0:
254,130,180865,5,0,1:0:0:0:
163,336,181033,1,0,1:0:0:0:
324,185,181201,1,0,1:0:0:0:
131,120,181368,1,0,1:0:0:0:
280,279,181536,5,0,1:0:0:0:
373,39,181703,1,0,1:0:0:0:
178,189,181871,1,0,1:0:0:0:
457,93,182039,1,0,1:0:0:0:
235,35,182206,5,0,1:0:0:0:
424,293,182374,1,2,1:2:0:0:
346,112,182541,1,2,1:2:0:0:
204,345,182709,1,0,1:0:0:0:
204,345,182793,1,8,0:0:0:0:
204,345,182877,2,0,P|154:319|80:308,1,107.880003292236,14|0,0:0|0:0,0:0:0:0:
212,95,183212,1,0,1:0:0:0:
327,330,183379,5,12,0:0:0:0:
43,147,183547,1,0,1:0:0:0:
300,228,183715,1,0,1:0:0:0:
34,334,183882,5,12,0:0:0:0:
135,42,184050,1,0,1:0:0:0:
192,306,184217,1,0,1:0:0:0:
401,67,184385,5,12,0:0:0:0:
108,268,184553,1,0,1:0:0:0:
307,66,184720,1,8,0:0:0:0:
324,359,184888,5,8,0:0:0:0:
284,377,184971,1,8,0:0:0:0:
240,376,185055,1,8,0:0:0:0:
201,356,185139,1,8,0:0:0:0:
174,322,185223,1,8,0:0:0:0:
147,288,185307,1,8,0:0:0:0:
108,268,185391,1,8,0:0:0:0:
64,267,185475,1,8,0:0:0:0:
24,285,185558,6,0,P|104:291|157:181,1,197.160000300842,6|10,1:2|0:2,0:0:0:0:
60,106,186061,1,0,0:0:0:0:
209,24,186229,2,0,P|253:45|301:55,1,98.5800001504211,0|0,1:2|1:0,0:0:0:0:
450,152,186564,2,0,P|401:161|357:183,1,98.5800001504211,10|0,0:2|1:0,0:0:0:0:
223,368,186899,5,0,3:0:0:0:
345,280,187067,1,0,1:0:0:0:
161,152,187234,1,10,0:2:0:0:
250,281,187402,1,0,0:0:0:0:
250,281,187486,1,8,0:0:0:0:
250,281,187569,2,0,P|268:224|274:172,1,98.5800001504211,0|0,1:0|1:0,0:0:0:0:
115,243,187905,1,10,0:2:0:0:
246,62,188072,6,0,B|293:44|341:31|341:31|396:67|369:118,1,197.160000300842,6|0,1:2|1:0,0:0:0:0:
157,142,188575,2,0,P|141:86|116:34,1,98.5800001504211,8|0,0:0|0:0,0:0:0:0:
5,214,188910,2,0,P|52:225|95:249,1,98.5800001504211,2|0,1:2|0:0,0:0:0:0:
332,330,189245,2,0,P|284:341|241:365,1,98.5800001504211,10|0,2:0|1:2,0:0:0:0:
237,148,189581,6,0,P|253:204|278:256,1,98.5800001504211,2|0,3:2|1:0,0:0:0:0:
489,82,189916,1,10,0:2:0:0:
402,283,190083,1,10,0:2:0:0:
273,31,190251,1,0,1:0:0:0:
441,182,190419,1,2,1:2:0:0:
195,82,190586,1,8,0:0:0:0:
366,0,190754,6,0,B|367:35|354:76|354:76|376:111|376:111|360:153|357:209,1,197.160000300842,6|0,1:2|1:0,0:0:0:0:
207,297,191257,2,0,P|255:309|300:331,1,98.5800001504211,10|0,0:2|0:0,0:0:0:0:
192,173,191592,2,0,P|144:184|99:206,1,98.5800001504211,2|0,1:2|1:0,0:0:0:0:
250,5,191927,2,0,P|263:66|282:114,1,98.5800001504211,10|0,0:2|1:0,0:0:0:0:
445,244,192262,6,0,P|374:240|299:349,1,197.160000300842,2|10,3:2|0:2,0:0:0:0:
402,344,192765,1,0,0:0:0:0:
459,131,192933,1,2,1:2:0:0:
402,344,193100,1,0,1:0:0:0:
230,167,193268,1,10,0:2:0:0:
445,244,193435,6,0,B|382:223|347:269|357:275|307:327|237:276,1,197.160000300842,6|0,1:2|1:0,0:0:0:0:
330,50,193938,2,0,P|339:103|360:156,1,98.5800001504211,8|0,0:0|1:0,0:0:0:0:
170,263,194273,1,2,1:2:0:0:
90,77,194441,1,2,1:2:0:0:
287,186,194608,1,10,0:2:0:0:
156,368,194776,6,0,P|100:346|84:214,1,197.160000300842,2|0,1:2|1:0,0:0:0:0:
328,262,195279,1,10,0:2:0:0:
170,65,195446,2,0,P|185:131|230:267,1,197.160000300842,2|10,1:2|0:2,0:0:0:0:
248,278,195865,1,8,0:0:0:0:
248,278,195949,1,8,0:0:0:0:
443,111,196117,6,0,P|398:48|269:72,1,197.160000300842,4|2,1:0|1:2,0:0:0:0:
419,257,196620,2,0,P|473:234|517:228,1,98.5800001504211,10|2,0:2|1:2,0:0:0:0:
321,150,196955,5,10,0:2:0:0:
233,372,197122,1,2,1:2:0:0:
139,134,197290,5,10,0:2:0:0:
358,286,197457,1,0,1:0:0:0:
253,54,197625,6,0,P|243:100|226:151,1,98.5800001504211,8|2,0:0|1:2,0:0:0:0:
72,295,197960,2,0,P|120:284|165:266,1,98.5800001504211,10|2,0:2|1:2,0:0:0:0:
190,240,198212,1,8,0:0:0:0:
190,240,198296,5,10,0:2:0:0:
388,144,198463,1,2,1:2:0:0:
271,305,198631,1,10,0:2:0:0:
137,84,198798,6,0,P|74:80|25:193,1,197.160000300842,4|2,1:0|1:2,0:0:0:0:
179,339,199301,2,0,P|224:317|291:302,1,98.5800001504211,10|2,0:2|1:2,0:0:0:0:
302,117,199636,5,10,0:2:0:0:
367,335,199804,1,2,1:2:0:0:
454,111,199972,5,10,0:2:0:0:
218,192,200139,1,0,1:0:0:0:
473,316,200307,6,0,P|490:260|509:220,1,98.5800001504211,8|2,0:0|1:2,0:0:0:0:
369,45,200642,2,0,P|417:37|465:25,1,98.5800001504211,10|2,0:2|1:2,0:0:0:0:
323,241,200977,5,10,0:2:0:0:
216,47,201145,1,2,1:2:0:0:
414,185,201312,1,10,0:2:0:0:
194,323,201480,6,0,B|140:313|86:302|86:302|73:250|121:207,1,197.160000300842,4|2,1:0|1:2,0:0:0:0:
216,47,201983,2,0,P|227:94|246:140,1,98.5800001504211,10|2,0:2|1:2,0:0:0:0:
271,175,202234,1,8,0:0:0:0:
271,175,202318,5,2,1:2:0:0:
125,15,202486,1,2,1:2:0:0:
332,90,202653,1,10,0:2:0:0:
107,221,202821,6,0,P|125:175|137:127,1,98.5800001504211,0|0,1:0|3:0,0:0:0:0:
281,259,203156,1,2,1:2:0:0:
80,329,203324,2,0,P|122:308|176:294,1,98.5800001504211,10|2,0:2|1:2,0:0:0:0:
204,313,203575,1,8,0:0:0:0:
204,313,203659,5,2,1:2:0:0:
421,117,203826,1,4,3:0:0:0:
195,205,203994,1,4,3:0:0:0:
351,27,204162,6,0,P|338:80|311:149,1,98.5800001504211,4|0,1:0|0:0,0:0:0:0:
218,272,204497,1,0,1:0:0:0:
96,66,204664,1,0,1:0:0:0:
317,230,204832,2,0,P|369:211|432:200,1,98.5800001504211,12|0,0:0|1:0,0:0:0:0:
250,44,205167,1,0,1:0:0:0:
148,287,205335,2,0,P|101:269|53:259,1,98.5800001504211,12|0,0:0|1:0,0:0:0:0:
285,115,205670,5,0,1:0:0:0:
362,341,205838,1,12,0:0:0:0:
169,186,206005,1,0,1:0:0:0:
412,49,206173,1,8,0:0:0:0:
412,49,206257,1,8,0:0:0:0:
412,49,206340,5,8,0:0:0:0:
279,310,206508,1,8,0:0:0:0:
412,49,206676,1,8,0:0:0:0:
104,95,206843,1,4,1:0:0:0:
104,95,207178,5,0,1:0:0:0:
299,162,207346,1,0,1:0:0:0:
77,271,207514,1,0,1:0:0:0:
283,125,207681,1,0,1:0:0:0:
360,365,207849,1,0,1:0:0:0:
155,212,208016,1,0,1:0:0:0:
414,49,208184,6,0,P|400:90|388:149,1,98.5800001504211,12|0,0:0|1:0,0:0:0:0:
226,308,208519,1,0,1:0:0:0:
489,192,208687,1,8,0:0:0:0:
218,44,208854,1,8,0:0:0:0:
357,341,209022,1,0,1:0:0:0:
125,72,209190,1,8,0:0:0:0:
76,69,209273,1,8,0:0:0:0:
34,93,209357,1,8,0:0:0:0:
11,136,209441,1,8,0:0:0:0:
16,184,209525,1,0,3:0:0:0:
104,105,210027,5,2,0:0:0:0:
104,105,210363,2,0,P|112:164|128:208,1,104.160001271484,2|2,3:2|0:2,0:0:0:0:
198,241,210865,2,0,P|152:241|111:288,1,104.160001271484,2|0,3:2|0:0,0:0:0:0:
193,338,211368,2,0,P|225:325|253:322,1,52.0800006357422,2|0,3:2|0:0,0:0:0:0:
310,269,211703,2,0,P|333:279|359:284,1,52.0800006357422,2|0,3:2|0:0,0:0:0:0:
460,303,212039,1,2,0:2:0:0:
460,303,212206,2,0,B|455:264|442:232|442:232|475:188|475:188|462:146|457:106,1,208.320002542969,2|0,3:2|0:0,0:0:0:0:
271,28,213379,6,0,P|235:40|206:43,1,52.0800006357422,2|0,3:2|3:0,0:0:0:0:
97,89,213715,2,0,P|151:96|190:145,1,104.160001271484,2|2,3:2|3:2,0:0:0:0:
258,160,214217,2,0,P|204:167|165:216,2,104.160001271484,2|2|2,0:2|0:2|3:2,0:0:0:0:
89,325,215391,5,2,3:2:0:0:
89,325,215727,2,0,P|81:266|65:222,1,104.160001271484,2|2,3:2|0:2,0:0:0:0:
21,119,216229,2,0,P|68:131|133:160,1,104.160001271484,2|0,3:2|3:0,0:0:0:0:
217,193,216731,2,0,P|207:152|204:132,1,52.0800006357422,2|0,3:2|0:0,0:0:0:0:
295,147,217067,2,0,P|301:121|306:96,1,52.0800006357422,2|0,3:2|0:0,0:0:0:0:
391,42,217403,1,0,0:0:0:0:
391,42,217569,2,0,P|457:101|426:210,1,208.320002542969,2|0,3:2|0:0,0:0:0:0:
261,312,218743,6,0,P|216:297|190:293,1,52.0800006357422,2|0,3:2|3:0,0:0:0:0:
111,242,219078,2,0,P|153:231|212:205,1,104.160001271484,2|2,3:2|3:2,0:0:0:0:
300,145,219581,2,0,P|258:134|199:108,1,104.160001271484,2|2,0:2|0:2,0:0:0:0:
134,48,220083,1,2,0:2:0:0:
57,168,220251,1,10,2:2:0:0:
61,176,220335,1,8,2:0:0:0:
65,185,220419,6,0,P|76:224|89:259,1,70.679999137207,6|0,1:2|0:0,0:0:0:0:
178,303,220754,2,0,P|167:342|154:377,1,70.679999137207,2|0,1:2|0:0,0:0:0:0:
325,280,221089,2,0,P|292:267|259:247,1,70.679999137207,2|0,1:2|0:0,0:0:0:0:
240,129,221424,1,2,1:2:0:0:
379,71,221592,1,0,0:0:0:0:
379,71,221676,1,0,0:0:0:0:
379,71,221759,6,0,P|371:111|359:144,1,70.679999137207,2|0,1:2|0:0,0:0:0:0:
491,224,222095,2,0,P|479:190|473:155,1,70.679999137207,2|0,1:2|0:0,0:0:0:0:
331,249,222430,2,0,P|373:264|400:281,1,70.679999137207,2|0,1:2|0:0,0:0:0:0:
273,362,222765,1,2,1:2:0:0:
148,234,222933,1,2,0:0:0:0:
261,164,223100,6,0,P|254:198|243:232,1,70.679999137207,0|0,1:0|0:0,0:0:0:0:
112,92,223435,2,0,P|145:80|179:73,1,70.679999137207,0|0,1:0|0:0,0:0:0:0:
126,251,223771,2,0,P|99:227|75:201,1,70.679999137207,0|0,1:0|0:0,0:0:0:0:
177,170,224106,1,2,1:2:0:0:
177,170,224273,1,0,0:0:0:0:
277,317,224441,6,0,P|312:307|349:294,1,70.679999137207,2|0,1:2|0:0,0:0:0:0:
433,214,224776,1,2,1:2:0:0:
286,135,224944,1,8,0:0:0:0:
286,135,225027,1,8,0:0:0:0:
286,135,225111,1,0,1:0:0:0:
427,52,225279,1,4,3:0:0:0:
390,131,225446,1,8,3:0:0:0:
274,31,225614,1,0,0:0:0:0:
274,31,225782,6,0,P|238:46|198:54,1,70.679999137207,2|0,1:2|0:0,0:0:0:0:
56,122,226117,2,0,P|90:130|122:143,1,70.679999137207,2|0,1:2|0:0,0:0:0:0:
226,211,226452,1,0,1:0:0:0:
115,321,226620,2,0,P|108:286|98:252,1,70.679999137207,2|0,0:2|1:0,0:0:0:0:
292,320,226955,1,8,0:0:0:0:
292,320,227039,1,8,0:0:0:0:
292,320,227122,6,0,P|256:326|214:344,1,70.679999137207,2|8,1:2|0:0,0:0:0:0:
347,229,227458,2,0,P|383:235|425:253,1,70.679999137207,0|0,1:0|0:0,0:0:0:0:
212,151,227793,2,0,P|224:188|233:234,1,70.679999137207,10|0,0:2|0:0,0:0:0:0:
385,90,228128,2,0,P|373:127|364:173,1,70.679999137207,0|10,1:0|0:2,0:0:0:0:
377,188,228379,1,8,0:0:0:0:
377,188,228463,5,4,1:0:0:0:
463,137,228631,1,2,0:2:0:0:
307,45,228798,2,0,P|272:58|230:65,1,70.679999137207,2|0,1:2|0:0,0:0:0:0:
83,94,229134,2,0,P|150:120|179:207,1,141.359998274414,0|0,1:0|1:0,0:0:0:0:
138,307,229636,1,8,0:0:0:0:
135,299,229720,1,8,0:0:0:0:
133,290,229804,5,0,1:0:0:0:
269,209,229972,1,8,0:0:0:0:
387,269,230139,1,0,1:0:0:0:
319,335,230307,1,8,0:0:0:0:
319,335,230391,1,0,0:0:0:0:
319,335,230474,1,8,0:0:0:0:
385,167,230642,1,8,3:0:0:0:
470,219,230810,1,4,3:0:0:0:
470,219,230977,1,4,3:0:0:0:
342,80,231145,6,0,B|242:31|162:113|210:145|115:234|13:162,1,374.789997712463,6|0,0:0|0:0,0:0:0:0:
75,92,233826,1,4,1:0:0:0:
256,192,233910,12,0,236173,0:0:0:0:
388,314,236340,5,4,0:0:0:0:
224,111,236843,6,0,B|198:120|172:122|172:122|155:154|155:154|122:157|97:167,2,141.359998274414,2|2|2,0:0|0:0|0:0,0:0:0:0:
321,82,237681,2,0,P|316:128|301:169,1,70.679999137207,2|0,0:0|0:0,0:0:0:0:
412,36,238016,2,0,P|416:80|429:116,1,70.679999137207,2|0,0:0|0:0,0:0:0:0:
510,170,238352,1,2,0:0:0:0:
334,312,238519,1,8,3:0:0:0:
448,269,238687,1,8,0:0:0:0:
448,269,238771,1,8,0:0:0:0:
448,269,238854,1,8,0:0:0:0:
321,82,239022,6,0,P|258:72|200:194,1,197.160000300842,4|0,1:0|1:0,0:0:0:0:
257,348,239525,2,0,P|207:326|139:317,1,98.5800001504211,10|0,0:2|1:0,0:0:0:0:
136,346,239776,1,8,0:0:0:0:
136,346,239860,1,10,0:2:0:0:
283,183,240027,1,2,1:2:0:0:
396,301,240195,1,8,0:0:0:0:
151,142,240363,6,0,P|166:188|176:236,1,98.5800001504211,6|0,1:2|0:0,0:0:0:0:
434,95,240698,2,0,P|418:141|408:189,1,98.5800001504211,6|0,1:2|0:0,0:0:0:0:
172,45,241033,1,6,1:2:0:0:
336,281,241201,1,8,0:0:0:0:
381,298,241284,1,8,0:0:0:0:
429,293,241368,1,10,0:2:0:0:
470,266,241452,1,8,0:0:0:0:
493,223,241536,1,8,3:0:0:0:
490,217,241620,1,4,3:0:0:0:
487,209,241703,6,0,B|436:179|389:217|389:217|364:278|288:262,1,197.160000300842,6|0,1:2|1:0,0:0:0:0:
189,105,242206,2,0,P|181:150|161:210,1,98.5800001504211,8|0,0:0|0:0,0:0:0:0:
97,344,242541,1,0,1:0:0:0:
231,271,242709,1,0,1:0:0:0:
45,139,242877,1,10,0:2:0:0:
231,374,243044,6,0,B|262:359|303:356|303:356|329:302|329:302|367:302|408:282,1,197.160000300842,6|0,1:2|1:0,0:0:0:0:
312,107,243547,2,0,P|299:161|281:202,1,98.5800001504211,8|0,0:0|0:0,0:0:0:0:
54,44,243882,2,0,P|110:29|151:11,1,98.5800001504211,0|0,1:0|1:0,0:0:0:0:
141,239,244217,1,10,0:2:0:0:
9,126,244385,1,2,1:2:0:0:
218,75,244553,6,0,P|265:87|311:106,1,98.5800001504211,2|0,0:2|1:0,0:0:0:0:
480,247,244888,1,10,0:2:0:0:
289,224,245055,2,0,P|332:201|380:188,1,98.5800001504211,2|0,1:2|1:0,0:0:0:0:
133,108,245391,1,2,1:2:0:0:
314,21,245558,1,10,0:2:0:0:
108,223,245726,6,0,P|64:200|16:187,1,98.5800001504211,2|0,1:2|0:0,0:0:0:0:
218,75,246061,1,2,1:2:0:0:
278,328,246229,1,8,0:0:0:0:
133,108,246396,1,2,1:2:0:0:
75,358,246564,1,0,1:0:0:0:
349,155,246731,1,10,0:2:0:0:
398,160,246814,1,8,0:0:0:0:
435,192,246898,1,0,1:0:0:0:
447,238,246982,1,0,1:0:0:0:
431,284,247067,6,0,B|368:263|333:309|343:315|293:367|223:316,1,197.160000300842,4|0,1:0|1:0,0:0:0:0:
53,203,247569,2,0,P|112:189|152:166,1,98.5800001504211,10|0,0:2|0:0,0:0:0:0:
237,3,247905,1,2,1:2:0:0:
73,92,248072,1,2,1:2:0:0:
226,277,248240,1,8,0:0:0:0:
375,130,248407,6,0,B|322:106|269:79|269:79|219:100|226:155,1,197.160000300842,2|2,1:2|1:2,0:0:0:0:
476,245,248910,1,8,0:0:0:0:
436,24,249078,1,2,1:2:0:0:
426,44,249162,1,0,0:0:0:0:
418,65,249245,1,0,1:0:0:0:
336,250,249413,1,2,1:2:0:0:
445,0,249581,1,8,0:0:0:0:
204,238,249748,6,0,P|147:202|149:70,1,197.160000300842,4|0,1:0|1:0,0:0:0:0:
336,250,250251,2,0,P|322:303|301:350,1,98.5800001504211,10|0,0:2|1:2,0:0:0:0:
295,371,250502,1,0,0:0:0:0:
295,371,250586,1,2,1:2:0:0:
454,212,250754,1,2,1:2:0:0:
303,114,250921,1,8,0:0:0:0:
416,327,251089,6,0,P|462:303|516:291,1,98.5800001504211,2|0,1:2|0:0,0:0:0:0:
273,201,251424,2,0,P|227:177|173:165,1,98.5800001504211,2|8,1:2|0:0,0:0:0:0:
405,63,251759,1,2,1:2:0:0:
239,4,251927,2,0,P|261:50|275:105,1,98.5800001504211,0|2,1:0|1:2,0:0:0:0:
166,265,252262,1,8,0:0:0:0:
374,140,252430,6,0,P|342:200|302:340,1,197.160000300842,6|0,1:2|1:0,0:0:0:0:
64,158,252932,2,0,P|112:150|158:133,1,98.5800001504211,8|0,0:0|1:0,0:0:0:0:
188,106,253184,1,8,0:0:0:0:
188,106,253268,1,0,1:0:0:0:
77,260,253435,1,0,1:0:0:0:
0,56,253603,1,10,0:2:0:0:
242,40,253771,6,0,B|278:50|319:51|319:51|347:97|347:97|380:96|416:108,1,197.160000300842,6|0,1:2|1:0,0:0:0:0:
301,276,254273,2,0,P|281:203|265:168,1,98.5800001504211,8|0,0:0|1:0,0:0:0:0:
259,162,254525,1,8,0:0:0:0:
259,162,254608,1,0,1:0:0:0:
393,268,254776,1,0,1:0:0:0:
232,377,254944,1,10,0:2:0:0:
110,209,255111,1,2,1:2:0:0:
367,171,255279,6,0,P|413:188|461:196,1,98.5800001504211,2|0,0:2|1:0,0:0:0:0:
335,32,255614,1,10,0:2:0:0:
211,246,255782,2,0,P|164:263|116:271,1,98.5800001504211,2|0,1:2|1:2,0:0:0:0:
247,88,256117,1,2,1:2:0:0:
311,316,256284,1,8,0:0:0:0:
119,139,256452,6,0,P|130:91|147:45,1,98.5800001504211,2|0,1:2|0:0,0:0:0:0:
314,193,256787,1,2,1:2:0:0:
44,241,256955,2,0,P|26:195|15:147,1,98.5800001504211,8|2,0:0|1:2,0:0:0:0:
194,309,257290,1,0,1:0:0:0:
313,94,257458,1,2,1:2:0:0:
357,74,257541,1,8,0:0:0:0:
405,80,257625,1,8,0:0:0:0:
443,111,257709,1,8,0:0:0:0:
459,157,257793,6,0,B|442:208|421:269|421:269|380:282|337:231,1,197.160000300842,4|0,1:0|1:0,0:0:0:0:
176,68,258296,5,10,0:2:0:0:
271,316,258463,1,0,1:0:0:0:
102,123,258631,5,10,0:2:0:0:
27,360,258798,1,2,1:2:0:0:
21,60,258966,5,8,0:0:0:0:
175,313,259134,2,0,P|194:266|200:212,1,98.5800001504211,6|0,1:2|0:0,0:0:0:0:
54,344,259469,1,2,1:2:0:0:
291,224,259636,1,8,0:0:0:0:
90,135,259804,2,0,P|96:183|115:229,1,98.5800001504211,2|0,1:2|1:0,0:0:0:0:
313,125,260139,1,2,1:2:0:0:
25,63,260307,2,0,P|6:108|0:157,1,98.5800001504211,10|0,0:2|1:0,0:0:0:0:
54,344,260642,6,0,P|79:297|212:286,1,197.160000300842,6|8,1:2|0:0,0:0:0:0:
397,187,261145,1,2,1:2:0:0:
249,108,261312,2,0,P|257:160|274:209,1,98.5800001504211,2|0,1:2|1:0,0:0:0:0:
427,76,261648,1,10,0:2:0:0:
452,287,261815,6,0,P|406:266|357:258,1,98.5800001504211,6|0,1:2|0:0,0:0:0:0:
174,153,262150,1,2,1:2:0:0:
347,59,262318,1,8,0:0:0:0:
178,280,262486,2,0,P|162:233|156:185,1,98.5800001504211,2|0,1:2|1:0,0:0:0:0:
435,15,262821,5,10,1:2:0:0:
447,61,262904,1,8,0:0:0:0:
437,109,262988,1,8,0:0:0:0:
407,148,263072,1,8,0:0:0:0:
364,170,263156,1,4,3:0:0:0:
362,164,263240,1,4,3:0:0:0:
362,157,263324,6,0,P|380:210|399:316,1,159.960002440796,4|0,1:0|1:0,0:0:0:0:
266,185,263826,1,2,1:2:0:0:
176,305,263994,2,0,P|215:313|251:329,1,79.980001220398,8|0,0:0|0:0,0:0:0:0:
113,223,264329,1,0,1:0:0:0:
113,223,264497,6,0,P|71:288|93:362,1,159.960002440796,0|0,1:0|1:0,0:0:0:0:
200,213,264999,1,0,3:0:0:0:
63,118,265167,1,0,3:0:0:0:
141,27,265335,2,0,P|153:65|162:103,1,79.980001220398,8|0,0:0|0:0,0:0:0:0:
114,224,265670,1,2,1:2:0:0:
114,224,265837,1,0,1:2:0:0:
243,125,266005,5,2,1:2:0:0:
337,239,266173,1,8,0:0:0:0:
472,146,266340,1,0,1:2:0:0:
349,97,266508,1,2,1:2:0:0:
451,279,266676,2,0,P|487:249|466:142,1,159.960002440796,8|2,0:0|1:2,0:0:0:0:
277,186,267178,6,0,P|321:199|360:219,1,79.980001220398,0|0,1:0|0:0,0:0:0:0:
258,50,267514,2,0,P|219:60|183:77,1,79.980001220398,0|0,1:0|0:0,0:0:0:0:
61,285,267849,1,0,1:0:0:0:
167,179,268016,1,8,0:0:0:0:
68,39,268184,1,8,0:0:0:0:
5,139,268351,1,8,3:0:0:0:
89,25,268519,1,2,3:2:0:0:
89,25,268603,1,0,0:0:0:0:
89,25,268687,5,4,1:2:0:0:
256,196,268854,1,2,0:2:0:0:
100,116,269022,2,0,P|109:164|125:210,1,98.5800001504211,10|0,0:2|1:2,0:0:0:0:
144,236,269273,1,0,0:0:0:0:
144,236,269357,1,2,1:2:0:0:
329,94,269525,1,0,1:0:0:0:
232,289,269692,1,10,0:2:0:0:
428,166,269860,6,0,P|419:214|403:260,1,98.5800001504211,2|0,1:2|0:0,0:0:0:0:
228,91,270195,1,2,1:2:0:0:
417,44,270363,1,10,0:2:0:0:
237,229,270530,1,2,1:2:0:0:
209,219,270614,1,0,0:0:0:0:
181,209,270698,1,0,1:0:0:0:
16,153,270865,1,0,1:0:0:0:
271,242,271033,1,8,0:0:0:0:
89,70,271201,5,6,1:2:0:0:
64,295,271368,1,2,0:2:0:0:
219,124,271536,1,2,1:2:0:0:
300,327,271703,2,0,P|345:308|393:297,1,98.5800001504211,10|2,0:2|1:2,0:0:0:0:
429,307,271955,1,8,0:0:0:0:
429,307,272039,1,2,1:2:0:0:
297,102,272206,1,0,1:0:0:0:
493,221,272374,1,10,0:2:0:0:
416,43,272541,6,0,P|406:91|390:137,1,98.5800001504211,4|0,1:2|1:0,0:0:0:0:
218,230,272877,1,10,0:2:0:0:
142,83,273044,1,8,0:0:0:0:
337,204,273212,1,10,0:2:0:0:
104,332,273379,1,8,0:0:0:0:
249,62,273547,1,10,0:2:0:0:
423,336,273715,1,8,0:0:0:0:
40,168,273882,6,0,B|95:150|129:185|116:194|162:237|231:201,1,178.560004359375,6|0,1:2|1:0,0:0:0:0:
394,56,274385,2,0,P|383:109|368:153,1,89.2800021796876,10|0,0:2|1:0,0:0:0:0:
303,336,274720,1,2,1:2:0:0:
189,112,274888,1,0,1:0:0:0:
324,236,275055,1,10,0:2:0:0:
114,380,275223,6,0,P|53:344|63:232,1,178.560004359375,6|0,1:2|1:0,0:0:0:0:
320,235,275726,2,0,P|257:249|218:272,1,89.2800021796876,10|0,0:2|1:0,0:0:0:0:
139,38,276061,1,2,1:2:0:0:
377,128,276229,1,8,0:0:0:0:
233,165,276396,1,2,1:2:0:0:
452,0,276564,6,0,B|450:32|441:67|441:67|472:108|472:108|464:138|458:184,1,178.560004359375,6|0,1:2|1:0,0:0:0:0:
234,78,277067,2,0,P|285:62|320:46,1,89.2800021796876,10|0,0:2|1:0,0:0:0:0:
220,286,277402,1,2,1:2:0:0:
65,112,277569,1,8,0:0:0:0:
233,165,277737,1,2,1:2:0:0:
70,340,277905,6,0,P|56:294|33:246,1,89.2800021796876,6|0,1:2|0:0,0:0:0:0:
172,99,278240,1,10,0:2:0:0:
168,111,278324,1,8,0:0:0:0:
162,123,278407,1,0,1:0:0:0:
311,295,278575,1,10,0:2:0:0:
305,283,278658,1,8,0:0:0:0:
301,271,278742,1,0,1:0:0:0:
416,48,278910,1,10,0:2:0:0:
456,65,278993,1,8,0:0:0:0:
483,100,279077,1,8,0:0:0:0:
491,144,279161,1,8,0:0:0:0:
477,186,279245,6,0,B|431:170|372:152|372:152|336:182|349:228,1,178.560004359375,6|0,1:2|1:0,0:0:0:0:
494,332,279748,2,0,P|449:345|411:370,1,89.2800021796876,10|0,0:2|1:0,0:0:0:0:
197,194,280083,1,2,1:2:0:0:
422,258,280251,1,8,0:0:0:0:
298,332,280419,1,2,1:2:0:0:
299,81,280586,6,0,P|308:136|341:259,1,178.560004359375,6|0,1:2|1:0,0:0:0:0:
137,117,281089,2,0,P|150:74|157:30,1,89.2800021796876,10|0,0:2|1:0,0:0:0:0:
147,1,281340,1,0,1:0:0:0:
147,1,281424,1,2,1:2:0:0:
89,210,281592,1,8,0:0:0:0:
234,140,281759,1,2,1:2:0:0:
88,310,281927,6,0,P|40:296|0:182,1,178.560004359375,6|0,1:2|1:0,0:0:0:0:
230,243,282430,2,0,P|223:290|209:339,1,89.2800021796876,10|0,0:2|1:0,0:0:0:0:
358,127,282765,1,2,1:2:0:0:
446,331,282933,1,8,0:0:0:0:
318,224,283100,1,2,1:2:0:0:
481,67,283268,6,0,P|488:114|502:163,1,89.2800021796876,6|0,1:2|0:0,0:0:0:0:
272,54,283603,1,10,0:2:0:0:
272,54,283687,1,8,0:0:0:0:
272,54,283771,1,10,0:2:0:0:
423,223,283938,2,0,P|414:254|403:280,2,44.6400010898438,2|4|8,1:2|3:0|3:0,0:0:0:0:
297,322,284273,1,2,0:0:0:0:
132,183,284441,1,2,0:0:0:0:
132,183,284525,1,8,2:0:0:0:
132,183,284608,2,0,P|200:171|310:130,1,178.560004359375,6|2,1:2|1:2,0:0:0:0:
152,353,285111,5,10,0:2:0:0:
54,111,285279,1,2,1:2:0:0:
54,111,285363,1,0,1:0:0:0:
54,111,285446,5,2,1:2:0:0:
279,238,285614,1,10,0:2:0:0:
191,88,285782,1,2,1:2:0:0:
315,354,285949,6,0,B|343:344|371:340|371:340|401:285|401:285|439:280|479:268,1,178.560004359375,6|2,1:2|1:2,0:0:0:0:
362,104,286452,5,10,0:2:0:0:
246,302,286620,1,0,1:0:0:0:
221,43,286787,5,2,1:2:0:0:
348,234,286955,1,10,0:2:0:0:
195,148,287122,1,2,1:2:0:0:
398,9,287290,6,0,P|451:47|430:170,1,178.560004359375,6|2,1:2|1:2,0:0:0:0:
139,234,287793,5,10,0:2:0:0:
343,117,287960,1,2,1:2:0:0:
343,117,288044,1,0,1:2:0:0:
343,117,288128,5,2,1:2:0:0:
142,0,288295,1,10,0:2:0:0:
279,37,288463,1,2,1:2:0:0:
247,257,288631,6,0,P|216:181|189:73,1,178.560004359375,6|2,1:2|1:2,0:0:0:0:
29,226,289134,2,0,P|76:236|126:261,1,89.2800021796876,10|0,0:2|1:0,0:0:0:0:
244,363,289469,1,10,0:2:0:0:
382,147,289636,1,2,1:2:0:0:
426,148,289719,1,8,0:0:0:0:
464,170,289803,1,8,0:0:0:0:
487,208,289887,1,8,0:0:0:0:
488,252,289972,6,0,B|444:267|407:278|407:278|375:328|425:370,1,178.560004359375,6|0,1:2|1:0,0:0:0:0:
289,143,290474,2,0,P|276:193|254:236,1,89.2800021796876,10|0,0:2|1:0,0:0:0:0:
231,251,290726,1,0,1:0:0:0:
231,251,290810,1,2,1:2:0:0:
402,140,290977,1,10,0:2:0:0:
171,51,291145,1,2,1:2:0:0:
403,243,291312,6,0,P|464:221|485:100,1,178.560004359375,6|0,1:2|1:0,0:0:0:0:
234,149,291815,2,0,P|281:160|324:185,1,89.2800021796876,8|0,0:0|1:0,0:0:0:0:
336,197,292067,1,0,1:0:0:0:
336,197,292150,1,2,1:2:0:0:
166,291,292318,1,10,0:2:0:0:
43,125,292486,1,2,1:2:0:0:
176,15,292653,6,0,P|151:100|135:188,1,178.560004359375,6|0,1:2|1:0,0:0:0:0:
337,312,293156,2,0,P|285:329|244:354,1,89.2800021796876,10|0,0:2|1:0,0:0:0:0:
367,127,293491,1,10,0:2:0:0:
452,349,293659,1,0,1:0:0:0:
367,127,293826,1,10,0:2:0:0:
188,278,293994,6,0,B|133:260|99:295|112:304|66:347|-3:311,1,178.560004359375,2|0,1:2|1:0,0:0:0:0:
156,61,294497,2,0,P|170:112|189:157,1,89.2800021796876,10|0,0:2|1:0,0:0:0:0:
205,177,294748,1,0,1:0:0:0:
205,177,294832,1,10,0:2:0:0:
357,265,295000,1,2,1:2:0:0:
449,72,295167,1,8,0:0:0:0:
233,272,295335,6,0,P|147:267|113:169,1,178.560004359375,6|0,1:2|1:0,0:0:0:0:
338,245,295838,2,0,P|335:300|319:358,1,89.2800021796876,10|0,0:2|1:0,0:0:0:0:
248,86,296173,1,10,0:2:0:0:
483,224,296340,1,0,1:0:0:0:
410,79,296508,1,10,0:2:0:0:
213,334,296676,6,0,B|169:319|132:308|132:308|100:258|150:216,1,178.560004359375,6|0,1:2|1:0,0:0:0:0:
415,200,297178,2,0,P|372:221|323:257,1,89.2800021796876,10|0,0:2|1:0,0:0:0:0:
311,274,297430,1,0,1:0:0:0:
311,274,297514,1,10,0:2:0:0:
462,79,297681,1,10,0:2:0:0:
375,344,297849,1,8,0:0:0:0:
205,77,298016,6,0,P|193:134|175:183,1,89.2800021796876,6|0,1:2|0:0,0:0:0:0:
65,321,298352,1,10,0:2:0:0:
286,200,298519,1,10,0:2:0:0:
64,52,298687,2,0,P|76:109|94:158,1,89.2800021796876,6|0,1:2|0:0,0:0:0:0:
269,336,299022,1,10,0:2:0:0:
364,88,299190,1,10,0:2:0:0:
125,272,299357,6,0,P|175:252|221:240,1,89.2800021796876,6|0,1:2|0:0,0:0:0:0:
438,334,299692,1,10,0:2:0:0:
279,112,299860,1,10,0:2:0:0:
177,375,300027,1,10,0:2:0:0:
177,375,300111,1,10,0:2:0:0:
177,375,300195,1,10,0:2:0:0:
415,181,300363,1,10,0:2:0:0:
117,32,300530,1,10,0:2:0:0:
287,352,300698,1,10,0:2:0:0:
