osu file format v14

[General]
AudioFilename: audio.mp3
AudioLeadIn: 0
PreviewTime: 236889
Countdown: 0
SampleSet: Soft
StackLeniency: 0.7
Mode: 0
LetterboxInBreaks: 0
WidescreenStoryboard: 1

[Editor]
Bookmarks: 126526,164236
DistanceSpacing: 0.7
BeatDivisor: 4
GridSize: 8
TimelineZoom: 3.099999

[Metadata]
Title:tiny lamp
TitleUnicode:tiny lamp
Artist:fhana
ArtistUnicode:fhána
Creator:Sotarks
Version:Melancholy
Source:ぎんぎつね
Tags:lantis Junichi Sato yuxuki waga kevin mitsunaga towana gingitsune opening op full ver version kalibe collab collaboration
BeatmapID:1267222
BeatmapSetID:599627

[Difficulty]
HPDrainRate:6.2
CircleSize:3.8
OverallDifficulty:9
ApproachRate:9.2
SliderMultiplier:1.82
SliderTickRate:1

[Events]
//Background and Video events
0,0,"BG.jpg",0,0
//Break Periods
//Storyboard Layer 0 (Background)
//Storyboard Layer 1 (Fail)
//Storyboard Layer 2 (Pass)
//Storyboard Layer 3 (Foreground)
//Storyboard Sound Samples

[TimingPoints]
-680,335.195530726257,4,2,22,42,1,0
491,-161.290322580645,4,2,22,42,0,0
2588,-161.290322580645,4,2,22,12,0,0
2671,-161.290322580645,4,2,22,52,0,0
3174,-89.2857142857143,4,2,22,72,0,0
14236,-138.888888888889,4,2,22,42,0,0
19264,-98.0392156862745,4,2,22,62,0,0
24627,-98.0392156862745,4,2,22,52,0,0
29990,-98.0392156862745,4,2,22,62,0,0
35353,-121.951219512195,4,2,22,42,0,0
43565,-108.695652173913,4,2,22,52,0,0
44906,-121.951219512195,4,2,22,52,0,0
45912,-108.695652173913,4,2,22,52,0,0
46079,-89.2857142857142,4,2,22,72,0,1
73063,-108.695652173913,4,2,22,62,0,0
78426,-98.0392156862745,4,2,22,62,0,1
82280,-98.0392156862745,4,2,22,72,0,1
83621,-89.2857142857142,4,2,22,72,0,0
93928,-89.2857142857142,4,2,22,5,0,0
94012,-89.2857142857142,4,2,22,72,0,0
94347,-108.695652173913,4,2,22,52,0,0
99711,-98.0392156862745,4,2,22,62,0,0
105074,-98.0392156862745,4,2,22,52,0,0
110437,-98.0392156862745,4,2,22,62,0,0
115800,-121.951219512195,4,2,22,62,0,0
116303,-121.951219512195,4,2,22,42,0,0
124012,-108.695652173913,4,2,22,52,0,0
126526,-89.2857142857143,4,2,22,72,0,1
153509,-108.695652173913,4,2,22,62,0,0
158873,-98.0392156862745,4,2,22,72,0,1
164236,-161.290322580645,4,2,22,62,0,0
180660,-161.290322580645,4,2,22,32,0,0
180995,-161.290322580645,4,2,22,42,0,0
181666,-161.290322580645,4,2,22,52,0,0
182336,-161.290322580645,4,2,22,62,0,0
183007,-98.0392156862744,4,2,22,72,0,0
185688,-98.0392156862744,4,2,22,62,0,0
205800,-98.0392156862744,4,2,22,72,0,0
206973,-98.0392156862744,4,2,22,82,0,0
208314,-98.0392156862744,4,2,22,92,0,0
209822,-192.307692307692,4,2,22,42,0,0
220548,-108.695652173913,4,2,22,62,0,0
231274,-192.307692307692,4,2,22,32,0,0
231861,-192.307692307692,4,2,22,5,0,0
231944,-192.307692307692,4,2,22,32,0,0
232531,-192.307692307692,4,2,22,5,0,0
232615,-192.307692307692,4,2,22,32,0,0
233201,-192.307692307692,4,2,22,5,0,0
233285,-192.307692307692,4,2,22,32,0,0
233872,-192.307692307692,4,2,22,5,0,0
233956,-192.307692307692,4,2,22,32,0,0
236470,-192.307692307692,4,2,22,52,0,0
236972,-161.290322580645,4,2,22,32,0,0
237224,-161.290322580645,4,2,22,5,0,0
237308,-121.951219512195,4,2,22,32,0,0
237559,-121.951219512195,4,2,22,5,0,0
237643,-192.307692307692,4,2,22,32,0,0
237727,-192.307692307692,4,2,22,5,0,0
237810,-108.695652173913,4,2,22,32,0,0
238062,-108.695652173913,4,2,22,5,0,0
238146,-121.951219512195,4,2,22,32,0,0
238397,-121.951219512195,4,2,22,5,0,0
238481,-138.888888888889,4,2,22,32,0,0
238648,-138.888888888889,4,2,22,42,0,0
238816,-108.695652173913,4,2,22,52,0,0
239152,-89.2857142857143,4,2,22,72,0,1
240409,-89.2857142857143,4,2,22,72,0,0
240493,-65.7894736842105,4,2,22,72,0,1
240744,-65.7894736842105,4,2,22,5,0,0
240828,-65.7894736842105,4,2,22,72,0,1
241079,-65.7894736842105,4,2,22,5,0,0
241163,-65.7894736842105,4,2,22,72,0,1
241414,-81.9672131147541,4,2,22,72,0,0
241833,-89.2857142857143,4,2,22,72,0,1
263454,-108.695652173913,4,2,22,62,0,0
268817,-98.0392156862745,4,2,22,62,0,1
274012,-89.2857142857143,4,2,22,72,0,0
284738,-89.2857142857143,4,2,22,72,0,1
289934,-89.2857142857143,4,2,22,72,0,0
290102,-89.2857142857143,4,2,22,72,0,1
295297,-89.2857142857143,4,2,22,72,0,0
295465,-89.2857142857143,4,2,22,72,0,1
297979,-89.2857142857143,4,2,22,72,0,0
298146,-75.7575757575758,4,2,22,82,0,1
298398,-75.7575757575758,4,2,22,12,0,1
298482,-75.7575757575758,4,2,22,72,0,1
298649,-75.7575757575758,4,2,22,72,0,0
298817,-75.7575757575758,4,2,22,82,0,1
299068,-75.7575757575758,4,2,22,12,0,1
299152,-75.7575757575758,4,2,22,72,0,1
299320,-75.7575757575758,4,2,22,72,0,0
299487,-75.7575757575758,4,2,22,82,0,1
299738,-75.7575757575758,4,2,22,12,0,1
299822,-75.7575757575758,4,2,22,72,0,1
299990,-75.7575757575758,4,2,22,72,0,0
300157,-75.7575757575758,4,2,22,72,0,1
300241,-75.7575757575758,4,2,22,82,0,0
300325,-75.7575757575758,4,2,22,92,0,1
300409,-75.7575757575758,4,2,22,92,0,0
300493,-75.7575757575758,4,2,22,92,0,1
300576,-75.7575757575758,4,2,22,92,0,0
300660,-75.7575757575758,4,2,22,92,0,1
300744,-75.7575757575758,4,2,22,92,0,0
300828,-75.7575757575758,4,2,22,92,0,1
300912,-75.7575757575758,4,2,22,72,0,0

[Colours]
Combo1 : 221,215,193
Combo2 : 52,149,228
Combo3 : 255,251,91
Combo4 : 226,29,29
SliderBorder : 250,255,253
SliderTrackOverride : 0,0,15

[HitObjects]
95,119,493,6,0,P|167:111|220:109,1,112.839995523316,2|0,0:0|0:0,0:0:0:0:
294,223,995,2,0,P|246:214|222:206,1,56.4199977616578,2|0,0:0|0:0,0:0:0:0:
279,75,1331,2,0,P|287:113|291:144,2,56.4199977616578,2|2|2,0:0|0:0|0:0,0:0:0:0:
382,21,1833,2,0,P|395:80|405:146,1,112.839995523316,2|0,0:0|0:0,0:0:0:0:
400,295,2336,2,0,P|388:253|373:207,1,84.6299966424867,2|0,0:0|0:0,0:0:0:0:
320,152,2671,5,0,1:0:0:0:
357,371,2839,1,8,0:0:0:0:
234,124,3007,1,8,0:0:0:0:
117,272,3174,6,0,B|218:320|219:226|318:273,1,203.840002488281,6|0,1:2|1:0,0:0:0:0:
167,178,3677,1,10,0:2:0:0:
267,337,3845,2,0,P|215:359|209:359,1,50.9600006220703,0|8,1:0|0:0,0:0:0:0:
93,262,4012,1,2,1:2:0:0:
296,184,4180,1,8,0:0:0:0:
267,337,4347,1,2,1:2:0:0:
167,178,4515,6,0,P|241:180|365:132,1,203.840002488281,6|0,1:2|1:0,0:0:0:0:
132,87,5018,2,0,P|92:132|71:175,1,101.920001244141,10|0,0:2|1:0,0:0:0:0:
70,206,5269,1,8,0:0:0:0:
79,242,5353,1,2,0:2:0:0:
163,75,5521,1,8,0:0:0:0:
99,274,5688,1,2,1:2:0:0:
231,11,5856,6,0,B|248:84|248:84|222:136|222:136|238:215,1,203.840002488281,6|0,1:2|1:0,0:0:0:0:
351,308,6359,1,10,0:2:0:0:
329,158,6526,1,0,1:0:0:0:
334,194,6609,1,8,0:0:0:0:
339,231,6693,1,2,1:2:0:0:
324,122,6861,1,8,0:0:0:0:
345,269,7029,2,0,L|275:270,1,50.9600006220703,2|8,1:2|0:0,0:0:0:0:
124,359,7197,6,0,B|198:348|198:348|259:365|259:365|329:352,1,203.840002488281,6|10,1:2|0:2,0:0:0:0:
358,347,7616,1,8,0:0:0:0:
390,341,7699,1,0,1:0:0:0:
379,147,7867,1,10,0:2:0:0:
351,166,7950,1,8,0:0:0:0:
334,194,8034,1,0,1:0:0:0:
456,193,8202,2,0,P|466:136|465:126,1,50.9600006220703,10|8,0:2|0:0,0:0:0:0:
327,91,8370,2,0,P|329:116|337:140,1,50.9600006220703,8|8,0:0|0:0,0:0:0:0:
445,50,8537,6,0,L|214:43,1,203.840002488281,6|0,1:2|1:0,0:0:0:0:
70,139,9040,1,10,0:2:0:0:
160,17,9208,2,0,L|166:77,1,50.9600006220703,0|8,1:0|0:0,0:0:0:0:
108,215,9375,1,2,1:2:0:0:
28,69,9543,1,8,0:0:0:0:
152,289,9711,1,2,1:2:0:0:
318,86,9878,6,0,B|164:67|164:67|112:89,1,203.840002488281,6|0,1:2|1:0,0:0:0:0:
297,172,10381,2,0,L|410:158,1,101.920001244141,10|0,0:2|1:0,0:0:0:0:
473,256,10632,1,8,0:0:0:0:
488,283,10716,2,0,L|375:269,1,101.920001244141,2|8,1:2|0:0,0:0:0:0:
276,325,10968,1,8,0:0:0:0:
256,351,11051,2,0,L|186:343,1,50.9600006220703,10|0,0:2|0:0,0:0:0:0:
115,250,11219,2,0,L|64:255,1,50.9600006220703,0|0,1:0|1:0,0:0:0:0:
8,334,11387,6,0,P|-13:273|-14:204,1,101.920001244141,4|0,1:0|1:0,0:0:0:0:
60,43,11722,1,8,0:0:0:0:
235,225,11889,2,0,P|168:236|97:136,1,203.840002488281,4|0,1:0|1:0,0:0:0:0:
265,32,12392,1,8,0:0:0:0:
410,233,12560,2,0,B|266:270|266:270|219:201,1,203.840002488281,4|0,1:0|1:0,0:0:0:0:
430,52,13063,1,8,0:0:0:0:
395,325,13230,1,4,1:0:0:0:
337,116,13565,5,8,0:0:0:0:
395,325,13732,1,8,0:0:0:0:
411,172,13901,1,0,1:0:0:0:
411,172,14236,5,2,0:0:0:0:
354,232,14403,2,0,L|216:218,1,131.040003199219,2|2,0:0|0:0,0:0:0:0:
125,156,14906,2,0,P|138:199|141:243,1,65.5200015996094,2|0,0:0|0:0,0:0:0:0:
64,340,15241,2,0,P|58:280|65:200,1,131.040003199219,2|0,0:0|0:0,0:0:0:0:
0,91,15744,2,0,L|109:80,1,98.2800023994141,2|0,0:0|0:0,0:0:0:0:
134,76,16079,1,2,0:0:0:0:
214,182,16247,1,2,0:0:0:0:
214,182,16582,6,0,B|311:144|306:234|418:174,1,196.560004798828,2|0,0:0|0:0,0:0:0:0:
503,132,17252,1,2,0:0:0:0:
503,132,17420,1,2,0:0:0:0:
391,245,17588,2,0,L|403:181,1,65.5200015996094,2|0,0:0|0:0,0:0:0:0:
465,308,17923,2,0,P|416:335|326:326,1,131.040003199219,2|2,0:0|0:0,0:0:0:0:
246,249,18426,2,0,P|200:247|167:256,1,65.5200015996094,2|0,0:0|0:0,0:0:0:0:
98,333,18761,1,2,3:2:0:0:
81,305,18844,1,0,3:0:0:0:
72,273,18928,1,0,3:0:0:0:
72,240,19012,1,0,3:0:0:0:
80,208,19096,2,0,P|87:164|88:148,1,32.7600007998047,2|0,3:2|3:0,3:0:0:0:
26,86,19264,6,0,B|80:74|80:74|131:90|131:90|211:69,1,185.640001133057,6|0,1:2|1:0,0:0:0:0:
369,147,19766,2,0,P|307:144|267:130,1,92.8200005665283,8|0,0:0|1:0,0:0:0:0:
468,98,20102,1,8,0:0:0:0:
326,67,20269,1,0,1:0:0:0:
413,228,20437,1,8,0:0:0:0:
480,35,20604,6,0,L|506:242,1,185.640001133057,4|0,1:0|1:0,0:0:0:0:
395,335,21107,2,0,L|399:231,1,92.8200005665283,8|0,0:0|1:0,0:0:0:0:
310,106,21442,1,10,0:2:0:0:
319,277,21610,1,2,1:2:0:0:
386,79,21778,1,10,0:2:0:0:
249,214,21945,6,0,P|195:238|99:164,1,185.640001133057,6|0,1:2|1:0,0:0:0:0:
36,32,22448,1,8,0:0:0:0:
19,161,22616,1,2,1:2:0:0:
160,24,22783,1,8,0:0:0:0:
189,146,22951,1,0,1:0:0:0:
47,42,23118,1,8,0:0:0:0:
31,176,23286,2,0,L|40:228,1,46.4100002832642,0|0,1:0|1:0,0:0:0:0:
151,36,23454,5,8,0:0:0:0:
218,224,23621,1,0,1:0:0:0:
253,65,23789,1,8,0:0:0:0:
111,129,23956,1,0,1:0:0:0:
304,189,24124,1,10,0:2:0:0:
246,31,24292,1,10,0:2:0:0:
231,247,24459,1,10,0:2:0:0:
376,46,24627,6,0,B|341:127|418:135|377:242,1,185.640001133057,6|0,1:2|1:0,0:0:0:0:
449,88,25130,1,10,0:0:0:0:
465,220,25297,2,0,P|450:277|418:306,1,92.8200005665283,2|0,0:0|1:0,0:0:0:0:
302,187,25632,1,2,1:2:0:0:
342,355,25800,1,8,0:0:0:0:
199,186,25968,2,0,L|389:148,1,185.640001133057,2|2,1:2|1:2,0:0:0:0:
282,254,26470,1,8,0:0:0:0:
218,92,26638,1,2,1:2:0:0:
14,181,26806,1,0,1:0:0:0:
170,198,26973,1,2,1:2:0:0:
41,62,27141,1,10,0:2:0:0:
114,267,27308,6,0,P|190:284|257:206,1,185.640001133057,6|0,1:2|1:0,0:0:0:0:
223,55,27811,1,10,0:0:0:0:
312,143,27979,2,0,P|331:193|339:249,1,92.8200005665283,2|0,0:0|1:0,0:0:0:0:
274,352,28314,1,2,1:2:0:0:
245,193,28482,1,8,0:0:0:0:
374,338,28649,2,0,P|293:336|170:310,1,185.640001133057,2|0,1:2|1:0,0:0:0:0:
97,144,29152,2,0,P|113:205|122:250,1,92.8200005665283,10|0,0:2|0:0,0:0:0:0:
8,360,29487,2,0,P|17:314|30:269,1,92.8200005665283,2|0,1:2|1:0,0:0:0:0:
111,117,29822,1,10,0:2:0:0:
169,318,29990,6,0,B|314:308|314:308|357:276,1,185.640001133057,6|0,1:2|1:0,0:0:0:0:
392,99,30493,1,8,0:0:0:0:
430,228,30660,1,0,1:0:0:0:
195,168,30828,1,8,0:0:0:0:
357,177,30995,1,0,1:0:0:0:
259,331,31163,1,8,0:0:0:0:
274,67,31331,6,0,B|312:212|312:212|295:260,1,185.640001133057,4|0,1:0|1:0,0:0:0:0:
168,334,31833,1,8,0:0:0:0:
339,322,32001,1,0,1:0:0:0:
218,172,32169,1,8,0:0:0:0:
248,308,32336,1,2,1:2:0:0:
357,177,32504,1,10,0:2:0:0:
439,340,32671,6,0,B|447:292|447:292|438:254|438:254|471:203|447:141,1,185.640001133057,6|0,1:2|1:0,0:0:0:0:
369,16,33174,2,0,P|384:74|400:121,1,92.8200005665283,8|0,0:0|1:0,0:0:0:0:
239,67,33509,1,8,0:0:0:0:
457,41,33677,1,2,1:2:0:0:
344,165,33845,1,10,0:2:0:0:
160,35,34012,6,0,B|130:98|190:113|158:194,1,139.230000849792,6|0,1:2|0:0,0:0:0:0:
84,170,34347,2,0,P|95:219|98:230,1,46.4100002832642,8|0,0:0|0:0,0:0:0:0:
165,317,34515,2,0,P|125:285|116:277,1,46.4100002832642,8|0,0:0|0:0,0:0:0:0:
186,71,34682,2,0,P|172:120|170:131,1,46.4100002832642,8|0,0:0|0:0,0:0:0:0:
189,239,34850,2,0,P|168:192|164:181,1,46.4100002832642,8|0,0:0|0:0,0:0:0:0:
353,57,35018,2,0,P|311:85|294:105,1,46.4100002832642,8|0,0:0|0:0,0:0:0:0:
249,187,35185,2,0,P|281:145|288:138,1,46.4100002832642,0|0,3:0|0:0,0:0:0:0:
475,92,35353,5,6,0:0:0:0:
380,349,35856,2,0,P|315:345|279:336,1,74.6200011386109,2|0,3:2|0:0,0:0:0:0:
238,277,36107,1,0,3:0:0:0:
213,257,36191,2,0,P|158:259|112:283,1,74.6200011386109,2|0,1:2|3:0,0:0:0:0:
0,367,36526,1,2,1:2:0:0:
30,180,36694,6,0,L|199:158,1,149.240002277222,6|0,1:2|0:0,0:0:0:0:
317,233,37197,2,0,L|408:243,1,74.6200011386109,2|0,3:2|0:0,0:0:0:0:
466,163,37448,1,0,3:0:0:0:
483,143,37532,2,0,L|392:153,1,74.6200011386109,2|0,1:2|3:0,0:0:0:0:
254,171,37867,1,2,1:2:0:0:
313,14,38035,6,0,P|327:79|331:183,1,149.240002277222,6|0,1:2|0:0,0:0:0:0:
293,339,38537,2,0,P|277:276|268:250,1,74.6200011386109,0|0,3:0|0:0,0:0:0:0:
187,177,38789,1,0,3:0:0:0:
203,204,38872,2,0,P|192:239|184:276,1,74.6200011386109,0|0,1:0|0:0,0:0:0:0:
305,163,39208,1,2,3:2:0:0:
361,284,39375,1,2,3:2:0:0:
380,98,39543,6,0,L|300:80,1,74.6200011386109,2|0,1:2|0:0,0:0:0:0:
169,151,39878,1,2,3:2:0:0:
304,44,40046,2,0,L|231:60,1,74.6200011386109,2|0,1:2|0:0,0:0:0:0:
80,167,40381,2,0,L|152:183,1,74.6200011386109,2|0,1:2|3:0,0:0:0:0:
172,9,40716,6,0,B|148:64|148:64|173:171,1,149.240002277222,6|0,1:2|1:0,0:0:0:0:
271,286,41219,1,2,3:2:0:0:
241,108,41387,1,0,1:0:0:0:
250,136,41470,1,0,3:0:0:0:
255,165,41554,1,2,1:2:0:0:
279,29,41722,1,0,3:0:0:0:
199,238,41889,1,0,1:0:0:0:
343,83,42057,6,0,B|307:114|239:108|239:108|199:68,1,149.240002277222,6|0,1:2|1:0,0:0:0:0:
418,26,42560,2,0,P|434:85|430:126,1,74.6200011386109,2|0,0:2|0:0,0:0:0:0:
367,176,42811,1,0,3:0:0:0:
385,202,42895,2,0,P|393:240|396:256,1,37.3100005693054,2|0,1:2|3:0,0:0:0:0:
458,326,43063,2,0,P|461:307|465:289,1,37.3100005693054,0|0,1:0|3:0,0:0:0:0:
293,231,43230,2,0,P|301:269|304:285,1,37.3100005693054,2|0,3:2|0:0,0:0:0:0:
366,355,43398,2,0,P|369:336|373:318,1,37.3100005693054,0|0,1:0|0:0,0:0:0:0:
191,200,43565,6,0,P|216:265|234:364,1,167.439994379151,6|8,1:2|0:0,0:0:0:0:
312,149,44068,2,0,P|295:214|291:247,1,83.7199971895753,6|0,1:2|0:0,0:0:0:0:
172,165,44403,1,8,3:0:0:0:
313,304,44571,1,8,3:0:0:0:
371,210,44738,1,4,3:0:0:0:
205,333,44906,6,0,L|25:312,1,149.240002277222,6|8,1:2|0:0,0:0:0:0:
316,140,45409,2,0,P|393:124|449:194,1,149.240002277222,6|8,1:2|0:0,0:0:0:0:
430,294,45828,1,8,0:0:0:0:
415,327,45912,2,0,L|348:313,1,41.8599985947876,8|8,0:0|0:0,0:0:0:0:
191,257,46079,6,0,P|266:272|373:206,1,203.840002488281,4|0,1:0|1:0,0:0:0:0:
289,49,46582,2,0,P|265:108|261:154,1,101.920001244141,10|0,0:2|0:0,0:0:0:0:
467,213,46917,2,0,P|434:144|405:119,1,101.920001244141,2|0,1:2|1:0,0:0:0:0:
194,79,47252,1,10,0:2:0:0:
273,241,47420,2,0,B|319:212|319:212|337:162,1,101.920001244141,2|0,1:2|0:0,0:0:0:0:
259,24,47755,1,2,1:2:0:0:
180,198,47923,2,0,L|191:304,1,101.920001244141,8|2,0:0|1:2,0:0:0:0:
203,334,48174,1,0,1:0:0:0:
203,334,48258,1,8,0:0:0:0:
166,169,48426,1,0,1:0:0:0:
217,368,48593,1,8,0:0:0:0:
73,145,48761,6,0,B|134:133|134:133|201:148|201:148|284:129,1,203.840002488281,4|0,1:0|1:0,0:0:0:0:
470,91,49264,2,0,L|366:78,1,101.920001244141,10|0,0:2|0:0,0:0:0:0:
329,59,49515,1,8,0:0:0:0:
287,51,49599,1,2,1:2:0:0:
353,155,49766,2,0,P|365:203|374:265,1,101.920001244141,2|8,1:2|0:0,0:0:0:0:
287,51,50102,1,2,1:2:0:0:
262,275,50269,1,8,0:0:0:0:
405,89,50437,1,2,1:2:0:0:
206,125,50604,1,8,0:0:0:0:
315,187,50772,1,2,1:2:0:0:
315,187,50856,1,0,1:0:0:0:
315,187,50940,1,8,0:0:0:0:
260,29,51107,1,2,1:2:0:0:
241,259,51275,1,8,0:0:0:0:
391,124,51442,6,0,B|449:219|341:220|436:342,1,203.840002488281,6|0,1:2|1:0,0:0:0:0:
321,178,51945,2,0,B|248:164|199:166,1,101.920001244141,8|0,0:0|0:0,0:0:0:0:
111,289,52280,2,0,B|184:275|233:277,1,101.920001244141,0|0,1:0|1:0,0:0:0:0:
407,336,52616,1,10,0:2:0:0:
130,170,52783,6,0,B|82:311|82:311|112:370,1,203.840002488281,6|0,1:2|1:0,0:0:0:0:
227,193,53286,2,0,P|224:144|212:66,1,101.920001244141,8|0,0:0|0:0,0:0:0:0:
39,146,53621,2,0,P|29:196|20:246,1,101.920001244141,0|0,1:0|1:0,0:0:0:0:
194,309,53956,1,10,0:2:0:0:
128,127,54124,1,2,1:2:0:0:
125,295,54292,2,0,L|236:278,1,101.920001244141,2|0,0:2|1:0,0:0:0:0:
347,164,54627,1,10,0:2:0:0:
460,303,54794,2,0,L|349:286,1,101.920001244141,2|0,1:2|1:0,0:0:0:0:
241,161,55130,1,2,1:2:0:0:
294,341,55297,1,10,0:2:0:0:
340,122,55465,5,2,1:2:0:0:
271,258,55632,1,0,0:0:0:0:
309,41,55800,1,2,1:2:0:0:
381,250,55968,1,8,0:0:0:0:
232,76,56135,2,0,P|172:71|120:68,1,101.920001244141,2|0,1:2|1:0,0:0:0:0:
340,141,56470,1,10,0:2:0:0:
378,130,56554,1,8,0:0:0:0:
419,115,56638,2,0,P|475:113|482:114,1,50.9600006220703,0|0,1:0|1:0,1:0:0:0:
381,250,56806,6,0,L|155:231,1,203.840002488281,4|0,1:0|1:0,0:0:0:0:
25,156,57308,2,0,L|149:145,1,101.920001244141,10|0,0:2|0:0,0:0:0:0:
300,154,57644,1,2,1:2:0:0:
190,29,57811,2,0,P|206:97|216:147,1,101.920001244141,2|8,1:2|0:0,0:0:0:0:
104,246,58146,2,0,P|114:196|126:146,1,101.920001244141,2|0,1:2|0:0,0:0:0:0:
342,55,58482,2,0,P|332:124|323:174,1,101.920001244141,2|8,1:2|0:0,0:0:0:0:
183,226,58817,2,0,P|210:183|239:141,1,101.920001244141,2|0,0:2|1:0,0:0:0:0:
452,115,59152,1,2,1:2:0:0:
277,228,59320,1,8,0:0:0:0:
465,207,59487,6,0,B|401:178|401:178|266:232,1,203.840002488281,4|0,1:0|1:0,0:0:0:0:
100,351,59990,2,0,P|108:289|104:232,1,101.920001244141,10|0,0:2|0:0,0:0:0:0:
97,216,60241,1,8,0:0:0:0:
97,216,60325,1,2,1:2:0:0:
35,74,60493,1,2,1:2:0:0:
24,296,60660,1,8,0:0:0:0:
103,125,60828,2,0,P|168:115|222:115,1,101.920001244141,2|0,1:2|0:0,0:0:0:0:
383,215,61163,2,0,P|318:205|264:205,1,101.920001244141,2|8,1:2|0:0,0:0:0:0:
119,249,61498,1,2,1:2:0:0:
154,247,61582,1,8,0:0:0:0:
189,254,61665,1,0,1:0:0:0:
22,295,61833,1,2,1:2:0:0:
270,329,62001,1,8,0:0:0:0:
69,176,62169,6,0,P|151:164|278:215,1,203.840002488281,6|0,1:2|1:0,0:0:0:0:
470,100,62671,2,0,P|395:98|334:115,1,101.920001244141,8|0,0:0|1:0,0:0:0:0:
186,137,63007,1,0,1:0:0:0:
365,183,63174,1,0,1:0:0:0:
173,248,63342,1,10,0:2:0:0:
277,49,63509,6,0,B|291:118|291:118|277:179|277:179|295:260,1,203.840002488281,6|0,1:2|1:0,0:0:0:0:
461,336,64012,2,0,B|407:313|407:313|349:325,1,101.920001244141,8|0,0:0|1:0,0:0:0:0:
329,330,64264,1,8,0:0:0:0:
329,330,64347,1,0,1:0:0:0:
493,261,64515,1,0,1:0:0:0:
292,248,64683,1,10,0:2:0:0:
459,179,64850,1,2,1:2:0:0:
219,177,65018,6,0,P|201:237|201:290,1,101.920001244141,2|0,0:2|1:0,0:0:0:0:
281,101,65353,1,10,0:2:0:0:
102,213,65521,2,0,P|106:275|125:324,1,101.920001244141,2|0,0:2|1:0,0:0:0:0:
301,138,65856,2,0,P|296:200|277:249,1,101.920001244141,2|8,1:2|0:0,0:0:0:0:
174,68,66191,2,0,P|178:130|197:179,1,101.920001244141,2|0,1:2|0:0,0:0:0:0:
354,52,66526,1,2,1:2:0:0:
277,253,66694,1,8,0:0:0:0:
423,135,66861,1,2,1:2:0:0:
273,102,67029,1,0,1:2:0:0:
348,321,67197,1,2,1:2:0:0:
309,345,67280,1,8,0:0:0:0:
264,349,67364,1,8,0:0:0:0:
222,331,67448,1,8,0:0:0:0:
192,297,67532,6,0,B|144:198|236:201|177:66,1,203.840002488281,4|0,1:0|1:0,0:0:0:0:
259,243,68035,1,10,0:2:0:0:
122,155,68202,1,0,1:0:0:0:
339,203,68370,1,10,0:2:0:0:
94,233,68537,1,2,1:2:0:0:
344,286,68705,1,8,0:0:0:0:
41,160,68873,6,0,B|101:135|101:135|150:147|199:248,1,203.840002488281,6|2,1:2|1:2,0:0:0:0:
150,62,69375,1,8,0:0:0:0:
94,233,69543,2,0,B|81:286|81:286|100:345,1,101.920001244141,2|0,1:2|1:0,0:0:0:0:
22,170,69878,1,2,1:2:0:0:
178,314,70046,2,0,L|297:294,1,101.920001244141,10|0,0:2|1:0,0:0:0:0:
391,240,70297,1,8,0:0:0:0:
408,202,70381,6,0,P|308:209|287:319,1,203.840002488281,6|8,1:2|0:0,0:0:0:0:
356,70,70884,1,2,1:2:0:0:
408,202,71051,2,0,L|395:315,1,101.920001244141,2|0,1:2|1:0,0:0:0:0:
266,98,71387,1,10,0:2:0:0:
156,239,71554,6,0,B|308:225|308:225|237:197,1,203.840002488281,6|2,1:2|1:2,0:0:0:0:
67,148,72057,1,8,0:0:0:0:
109,325,72225,2,0,L|217:317,1,101.920001244141,2|0,1:2|0:0,0:0:0:0:
418,182,72560,1,2,1:2:0:0:
374,168,72643,1,8,0:0:0:0:
330,178,72727,1,8,0:0:0:0:
290,202,72811,1,8,0:0:0:0:
250,223,72895,1,4,3:0:0:0:
204,225,72978,1,4,3:0:0:0:
164,203,73063,6,0,B|88:172|85:248|-4:206,1,167.439994379151,6|2,1:2|1:2,0:0:0:0:
42,132,73565,1,2,1:2:0:0:
131,283,73733,2,0,B|263:271|263:271|323:234,1,167.439994379151,8|0,0:0|1:0,0:0:0:0:
344,118,74236,2,0,P|302:143|306:268,1,167.439994379151,0|0,1:0|1:0,0:0:0:0:
422,160,74738,2,0,B|444:110|413:68,1,83.7199971895753,0|0,3:0|3:0,0:0:0:0:
217,119,75074,2,0,P|244:154|345:110,1,167.439994379151,8|2,0:0|1:2,0:0:0:0:
66,37,75744,5,2,1:2:0:0:
122,112,75912,2,0,L|94:278,1,167.439994379151,8|2,0:0|1:2,0:0:0:0:
266,126,76414,2,0,P|225:154|202:200,1,83.7199971895753,8|0,0:0|0:0,0:0:0:0:
212,266,76750,1,2,1:2:0:0:
458,188,76917,2,0,B|364:155|393:238|262:192,2,167.439994379151,0|0|0,1:0|1:0|1:0,0:0:0:0:
329,119,77755,1,8,0:0:0:0:
424,260,77923,1,8,0:0:0:0:
376,190,78090,1,8,3:0:0:0:
335,311,78258,1,2,3:2:0:0:
238,159,78426,6,0,L|128:147,1,92.8200005665283,4|2,1:2|0:2,0:0:0:0:
83,312,78761,2,0,L|193:300,1,92.8200005665283,10|0,0:2|0:0,0:0:0:0:
76,95,79096,2,0,B|61:154|61:154|75:208,1,92.8200005665283,2|0,1:2|1:0,0:0:0:0:
209,297,79431,1,10,0:2:0:0:
198,77,79599,2,0,B|153:116|153:116|141:165,1,92.8200005665283,2|0,1:2|0:0,0:0:0:0:
243,295,79934,1,2,1:2:0:0:
324,94,80102,1,10,0:2:0:0:
228,162,80269,1,2,1:2:0:0:
228,162,80353,1,8,0:0:0:0:
228,162,80437,1,0,1:0:0:0:
358,180,80604,1,0,1:0:0:0:
147,224,80772,1,8,0:0:0:0:
231,58,80940,5,6,1:2:0:0:
268,297,81107,1,2,0:2:0:0:
303,109,81275,1,2,1:2:0:0:
184,331,81442,1,10,0:2:0:0:
225,163,81610,1,2,1:2:0:0:
225,163,81694,1,8,0:0:0:0:
225,163,81778,2,0,P|242:217|253:274,1,92.8200005665283,2|0,1:2|1:0,0:0:0:0:
308,78,82113,1,10,0:2:0:0:
163,234,82280,5,6,1:2:0:0:
314,191,82448,1,0,1:0:0:0:
163,148,82616,1,10,0:2:0:0:
361,269,82783,1,8,0:0:0:0:
159,315,82951,1,10,0:2:0:0:
360,121,83118,1,8,0:0:0:0:
66,161,83286,1,10,0:2:0:0:
364,351,83454,1,8,0:0:0:0:
257,84,83621,6,0,B|205:184|304:180|247:294,1,203.840002488281,6|0,1:2|1:0,0:0:0:0:
323,137,84124,1,10,0:2:0:0:
184,233,84292,2,0,P|170:181|170:174,1,50.9600006220703,0|8,1:0|0:0,0:0:0:0:
197,29,84459,2,0,P|266:4|306:22,1,101.920001244141,2|0,1:2|1:0,0:0:0:0:
352,232,84794,1,10,0:2:0:0:
96,156,84962,6,0,L|307:121,1,203.840002488281,6|0,1:2|1:0,0:0:0:0:
451,254,85465,2,0,L|344:230,1,101.920001244141,10|0,0:2|1:0,0:0:0:0:
245,315,85716,1,8,0:0:0:0:
220,336,85800,2,0,L|120:313,1,101.920001244141,2|8,1:2|0:0,0:0:0:0:
371,315,86135,1,2,1:2:0:0:
52,258,86303,6,0,B|71:234|122:206|179:247|179:247|222:242|267:214,1,203.840002488281,6|0,1:2|1:0,0:0:0:0:
326,54,86806,1,10,0:2:0:0:
413,216,86973,1,0,1:0:0:0:
385,222,87057,1,8,0:0:0:0:
355,229,87141,1,2,1:2:0:0:
505,265,87308,1,8,0:0:0:0:
246,205,87476,1,10,0:2:0:0:
397,67,87644,6,0,B|422:174|422:174|410:226,1,152.880001866211,6|0,1:2|0:0,0:0:0:0:
321,316,87979,2,0,P|261:307|255:305,1,50.9600006220703,10|8,0:2|0:0,0:0:0:0:
129,210,88146,2,0,L|251:183,1,101.920001244141,0|10,1:0|0:2,0:0:0:0:
314,89,88398,1,8,0:0:0:0:
293,118,88482,2,0,L|171:91,1,101.920001244141,0|10,1:0|0:2,0:0:0:0:
92,29,88733,1,8,0:0:0:0:
107,52,88817,2,0,L|115:114,1,50.9600006220703,8|8,0:0|0:0,0:0:0:0:
4,205,88984,6,0,B|70:146|161:206|161:206|101:212,1,203.840002488281,6|0,1:2|1:0,0:0:0:0:
293,118,89487,2,0,P|362:103|418:103,1,101.920001244141,10|0,0:2|1:0,0:0:0:0:
472,245,89738,1,8,0:0:0:0:
452,218,89822,2,0,P|383:203|327:203,1,101.920001244141,6|8,1:2|0:0,0:0:0:0:
219,338,90157,1,2,1:2:0:0:
394,283,90325,6,0,P|338:255|221:326,1,203.840002488281,6|0,1:2|1:0,0:0:0:0:
43,218,90828,2,0,P|121:208|159:229,1,101.920001244141,10|0,0:2|1:0,0:0:0:0:
159,235,91079,1,8,0:0:0:0:
171,262,91163,1,2,1:2:0:0:
94,79,91331,1,8,0:0:0:0:
89,289,91498,1,8,0:0:0:0:
113,327,91581,1,8,0:0:0:0:
154,347,91665,1,8,0:0:0:0:
199,343,91749,1,8,0:0:0:0:
236,317,91833,6,0,B|333:267|340:366|445:304,1,203.840002488281,4|8,1:0|0:0,0:0:0:0:
379,68,92336,2,0,B|335:105|335:105|381:243,1,203.840002488281,4|0,1:0|1:0,0:0:0:0:
463,76,92839,1,8,0:0:0:0:
277,203,93007,6,0,B|130:183|130:183|192:171,1,203.840002488281,4|0,1:0|1:0,0:0:0:0:
435,152,93509,1,8,0:0:0:0:
157,271,93677,2,0,L|309:291,1,152.880001866211,4|0,1:0|0:0,0:0:0:0:
344,297,94012,1,8,0:0:0:0:
118,267,94180,1,8,0:0:0:0:
440,238,94347,6,0,P|359:215|277:203,1,167.439994379151,4|0,1:0|1:0,0:0:0:0:
130,163,94850,2,0,P|204:144|235:137,1,83.7199971895753,10|0,0:2|1:0,0:0:0:0:
295,123,95185,1,2,1:2:0:0:
134,75,95353,2,0,P|77:96|44:114,1,83.7199971895753,2|8,1:2|0:0,0:0:0:0:
118,267,95688,2,0,P|124:198|123:168,1,83.7199971895753,2|0,1:2|3:0,0:0:0:0:
42,221,96023,1,0,1:0:0:0:
81,351,96191,2,0,P|138:347|182:335,1,83.7199971895753,10|0,0:2|1:0,0:0:0:0:
231,271,96526,1,2,1:2:0:0:
380,342,96694,2,0,P|323:338|279:326,1,83.7199971895753,2|8,1:2|0:0,0:0:0:0:
447,196,97029,6,0,B|409:297|491:278|455:389,1,167.439994379151,6|0,1:2|1:0,0:0:0:0:
354,205,97532,1,8,0:0:0:0:
380,342,97699,1,2,1:2:0:0:
511,243,97867,1,2,1:2:0:0:
315,283,98035,2,0,L|215:270,1,83.7199971895753,2|8,1:2|0:0,0:0:0:0:
123,165,98370,2,0,P|146:232|157:334,1,167.439994379151,2|0,1:2|1:0,0:0:0:0:
40,210,98873,2,0,P|42:150|56:103,1,83.7199971895753,10|0,0:2|1:0,0:0:0:0:
213,118,99208,2,0,P|220:159|220:200,1,83.7199971895753,2|0,1:2|1:0,0:0:0:0:
125,139,99459,1,8,0:0:0:0:
128,109,99543,2,0,L|140:64,1,41.8599985947876,10|8,0:2|0:0,0:0:0:0:
345,100,99711,6,0,P|287:162|209:92,1,185.640001133057,6|0,1:2|1:0,0:0:0:0:
398,36,100213,2,0,P|427:83|420:127,1,92.8200005665283,8|0,0:0|1:0,0:0:0:0:
340,290,100549,1,8,0:0:0:0:
214,118,100716,1,0,1:0:0:0:
268,349,100884,1,8,0:0:0:0:
448,201,101051,6,0,L|249:190,1,185.640001133057,4|0,1:0|1:0,0:0:0:0:
78,277,101554,1,8,0:0:0:0:
202,272,101722,1,0,1:0:0:0:
140,76,101889,1,10,0:2:0:0:
100,195,102057,1,2,1:2:0:0:
244,94,102225,1,10,0:2:0:0:
289,284,102392,6,0,P|245:352|138:329,1,185.640001133057,6|0,1:2|1:0,0:0:0:0:
256,202,102895,1,8,0:0:0:0:
376,296,103063,1,2,1:2:0:0:
202,272,103230,1,8,0:0:0:0:
349,215,103398,1,0,1:0:0:0:
244,94,103565,1,8,0:0:0:0:
117,199,103733,2,0,L|173:189,1,46.4100002832642,0|0,1:0|1:0,0:0:0:0:
331,96,103901,5,8,0:0:0:0:
132,113,104068,1,0,1:0:0:0:
331,96,104236,1,8,0:0:0:0:
176,38,104403,1,0,1:0:0:0:
334,143,104571,1,8,0:0:0:0:
263,14,104738,1,10,0:2:0:0:
338,186,104906,1,10,0:2:0:0:
352,45,105074,6,0,L|374:263,1,185.640001133057,6|0,1:2|1:0,0:0:0:0:
268,61,105576,1,10,0:2:0:0:
285,281,105744,2,0,L|272:187,1,92.8200005665283,2|0,0:2|1:0,0:0:0:0:
182,76,106079,1,2,1:2:0:0:
194,252,106247,1,8,0:0:0:0:
268,61,106414,2,0,L|250:152,1,92.8200005665283,2|0,1:2|0:0,0:0:0:0:
184,274,106750,1,2,1:2:0:0:
178,92,106917,1,10,0:2:0:0:
290,301,107085,1,2,1:2:0:0:
255,169,107252,1,0,1:0:0:0:
173,299,107420,1,2,1:2:0:0:
266,67,107588,1,10,0:2:0:0:
295,323,107755,6,0,B|339:214|247:252|297:126,1,185.640001133057,6|0,1:2|1:0,0:0:0:0:
446,49,108258,1,10,0:2:0:0:
361,185,108426,2,0,L|468:173,1,92.8200005665283,2|0,0:2|1:0,0:0:0:0:
216,278,108761,2,0,L|109:266,1,92.8200005665283,2|8,1:2|0:0,0:0:0:0:
178,92,109096,2,0,B|206:51|206:51|185:212,1,185.640001133057,2|0,1:2|1:0,0:0:0:0:
302,80,109599,1,10,0:2:0:0:
188,185,109766,1,0,1:0:0:0:
312,223,109934,1,2,1:2:0:0:
178,92,110102,1,0,1:0:0:0:
142,332,110269,1,10,0:2:0:0:
393,312,110437,6,0,B|248:302|248:302|205:270,1,185.640001133057,6|0,1:2|1:0,0:0:0:0:
178,92,110940,1,8,0:0:0:0:
165,215,111107,1,0,1:0:0:0:
377,154,111275,1,8,0:0:0:0:
253,137,111442,1,0,1:0:0:0:
313,317,111610,1,8,0:0:0:0:
298,53,111778,6,0,B|260:198|260:198|277:246,1,185.640001133057,4|0,1:0|1:0,0:0:0:0:
404,320,112280,1,8,0:0:0:0:
233,308,112448,1,0,1:0:0:0:
354,158,112616,1,8,0:0:0:0:
324,294,112783,1,2,1:2:0:0:
215,163,112951,1,10,0:2:0:0:
133,326,113118,6,0,B|114:268|114:268|134:213|134:213|103:133,1,185.640001133057,6|0,0:2|1:0,0:0:0:0:
212,37,113621,2,0,B|209:88|209:88|181:142,1,92.8200005665283,8|0,0:0|1:0,0:0:0:0:
333,53,113956,1,8,0:0:0:0:
115,27,114124,1,2,1:2:0:0:
242,189,114292,1,10,0:2:0:0:
420,19,114459,6,0,L|433:189,1,139.230000849792,6|0,1:2|0:0,0:0:0:0:
417,257,114794,2,0,L|355:252,1,46.4100002832642,8|0,0:0|0:0,0:0:0:0:
219,292,114962,2,0,L|281:277,1,46.4100002832642,8|0,0:0|0:0,0:0:0:0:
377,171,115130,2,0,L|315:177,1,46.4100002832642,8|0,0:0|0:0,0:0:0:0:
147,242,115298,2,0,L|204:215,1,46.4100002832642,8|0,3:0|0:0,0:0:0:0:
316,93,115465,2,0,L|259:118,1,46.4100002832642,8|0,0:0|0:0,0:0:0:0:
76,197,115633,2,0,L|122:153,1,46.4100002832642,0|0,3:0|3:0,0:0:0:0:
240,35,115800,1,4,1:0:0:0:
133,360,116303,6,0,L|234:347,1,74.6200011386109,0|0,3:3|0:0,0:0:0:0:
267,272,116554,1,0,3:0:0:0:
292,252,116638,2,0,L|395:262,1,74.6200011386109,0|0,1:0|0:0,0:0:0:0:
504,364,116973,1,0,1:0:0:0:
478,195,117141,6,0,L|309:173,1,149.240002277222,4|0,1:0|0:0,0:0:0:0:
197,245,117644,2,0,P|159:253|106:255,1,74.6200011386109,0|0,3:0|0:0,0:0:0:0:
46,163,117895,1,0,3:0:0:0:
29,143,117979,2,0,P|68:144|120:153,1,74.6200011386109,0|0,1:0|0:0,0:0:0:0:
258,171,118314,1,0,1:0:0:0:
197,16,118482,6,0,B|175:65|175:65|179:185,1,149.240002277222,4|0,1:0|0:0,0:0:0:0:
219,339,118984,2,0,P|235:276|244:250,1,74.6200011386109,0|0,3:0|0:0,0:0:0:0:
325,177,119236,1,0,3:0:0:0:
309,204,119319,2,0,P|320:239|328:276,1,74.6200011386109,0|0,1:0|0:0,0:0:0:0:
207,163,119655,1,0,3:0:0:0:
151,284,119822,1,0,3:0:0:0:
132,98,119990,6,0,L|212:80,1,74.6200011386109,2|0,1:2|0:0,0:0:0:0:
343,151,120325,1,2,3:2:0:0:
204,42,120493,2,0,L|277:58,1,74.6200011386109,2|0,1:2|0:0,0:0:0:0:
432,167,120828,2,0,L|360:183,1,74.6200011386109,2|0,1:2|0:0,0:0:0:0:
340,3,121163,6,0,B|364:58|339:165,1,149.240002277222,4|0,1:0|0:0,0:0:0:0:
241,286,121666,1,2,3:2:0:0:
271,108,121834,1,0,1:0:0:0:
262,136,121917,1,0,3:0:0:0:
257,165,122001,1,2,1:2:0:0:
243,17,122169,1,0,3:0:0:0:
313,238,122336,1,2,1:2:0:0:
174,77,122504,6,0,B|270:107|270:107|318:62,1,149.240002277222,4|0,1:0|1:0,0:0:0:0:
99,25,123007,2,0,P|83:84|87:125,1,74.6200011386109,2|0,3:2|0:0,0:0:0:0:
152,203,123258,1,0,3:0:0:0:
118,183,123342,2,0,P|73:179|56:179,1,37.3100005693054,2|0,1:2|3:0,0:0:0:0:
144,286,123509,2,0,P|163:285|182:283,1,37.3100005693054,0|0,1:0|0:0,0:0:0:0:
248,145,123677,2,0,P|235:164|227:184,1,37.3100005693054,2|0,3:2|0:0,0:0:0:0:
231,355,123844,2,0,P|242:334|256:314,1,37.3100005693054,0|0,1:0|0:0,0:0:0:0:
383,230,124012,6,0,P|392:288|476:250,1,167.439994379151,4|8,1:0|0:0,0:0:0:0:
456,154,124515,2,0,P|390:138|357:134,1,83.7199971895753,6|0,1:2|0:0,0:0:0:0:
435,24,124850,1,8,3:0:0:0:
300,212,125018,1,8,3:0:0:0:
456,154,125185,1,4,3:0:0:0:
278,59,125353,6,0,L|93:41,1,167.439994379151,6|8,1:2|0:0,0:0:0:0:
300,212,125856,2,0,P|317:288|234:360,1,167.439994379151,6|8,1:2|0:0,0:0:0:0:
171,282,126275,1,8,0:0:0:0:
171,282,126359,2,0,L|220:267,1,41.8599985947876,8|8,0:0|0:0,0:0:0:0:
407,200,126526,6,0,B|342:226|311:192|277:157|212:193,1,203.840002488281,4|0,1:0|1:0,0:0:0:0:
24,112,127029,2,0,P|62:140|118:133,1,101.920001244141,10|0,0:0|0:0,0:0:0:0:
261,259,127364,2,0,P|211:253|170:282,1,101.920001244141,2|0,1:2|1:0,0:0:0:0:
0,360,127699,1,10,0:2:0:0:
88,312,127867,2,0,P|168:296|296:352,1,203.840002488281,2|2,1:2|1:2,0:0:0:0:
464,256,128370,1,8,0:0:0:0:
312,208,128537,1,2,1:2:0:0:
312,208,128621,1,8,0:0:0:0:
312,208,128705,1,0,1:0:0:0:
416,336,128873,1,0,1:0:0:0:
368,128,129040,1,8,0:0:0:0:
232,272,129208,6,0,P|328:248|448:232,1,203.840002488281,4|0,1:0|1:0,0:0:0:0:
340,48,129711,2,0,P|280:115|301:180,1,152.880001866211,10|8,0:2|0:0,0:0:0:0:
312,208,130046,1,2,1:2:0:0:
408,112,130213,1,2,1:2:0:0:
296,16,130381,1,8,0:0:0:0:
166,136,130549,2,0,B|246:88|286:184|366:124,1,203.840002488281,6|2,1:2|1:2,0:0:0:0:
488,256,131051,1,8,0:0:0:0:
376,344,131219,2,0,P|328:323|275:313,1,101.920001244141,2|8,1:2|0:0,0:0:0:0:
72,200,131554,2,0,P|121:189|168:169,1,101.920001244141,2|8,1:2|0:0,0:0:0:0:
392,32,131889,6,0,P|304:88|296:184,1,203.840002488281,6|0,1:2|1:0,0:0:0:0:
408,328,132392,1,8,0:0:0:0:
216,240,132560,1,0,1:0:0:0:
440,160,132727,1,0,1:0:0:0:
288,48,132895,1,0,1:0:0:0:
384,248,133063,1,10,0:2:0:0:
200,144,133230,6,0,B|128:136|128:136|80:168|80:168|-2:157,1,203.840002488281,6|0,1:2|1:0,0:0:0:0:
56,56,133733,1,8,0:0:0:0:
168,256,133901,1,0,0:0:0:0:
216,112,134068,1,0,1:0:0:0:
40,240,134236,1,0,1:0:0:0:
256,336,134403,1,10,0:2:0:0:
128,168,134571,1,2,1:2:0:0:
40,336,134738,6,0,P|88:312|136:296,1,101.920001244141,2|0,1:2|1:0,0:0:0:0:
344,248,135074,1,10,0:2:0:0:
224,352,135241,1,10,0:2:0:0:
224,352,135325,1,8,0:0:0:0:
224,352,135409,1,0,1:0:0:0:
280,176,135576,1,2,1:2:0:0:
392,376,135744,1,8,0:0:0:0:
472,240,135912,6,0,P|408:248|264:288,1,203.840002488281,6|2,1:2|1:2,0:0:0:0:
72,192,136414,1,8,0:0:0:0:
288,144,136582,1,2,1:2:0:0:
112,336,136750,1,0,1:0:0:0:
116,90,136917,1,2,1:2:0:0:
116,90,137001,1,8,0:0:0:0:
116,90,137085,2,0,L|140:146,1,50.9600006220703,8|8,0:0|0:0,0:0:0:0:
184,250,137252,6,0,P|112:184|16:232,1,203.840002488281,4|0,1:0|1:0,0:0:0:0:
141,359,137755,2,0,L|250:338,1,101.920001244141,10|0,0:2|0:0,0:0:0:0:
391,191,138090,1,2,1:2:0:0:
496,320,138258,2,0,L|384:288,1,101.920001244141,2|8,1:2|0:0,0:0:0:0:
194,194,138593,2,0,B|258:226|292:195|331:158|396:194,1,203.840002488281,2|2,1:2|1:2,0:0:0:0:
240,112,139096,1,8,0:0:0:0:
352,280,139264,1,2,1:2:0:0:
352,280,139347,1,8,0:0:0:0:
352,280,139431,1,0,1:0:0:0:
136,336,139599,2,0,L|194:323,1,50.9600006220703,2|0,1:2|0:0,0:0:0:0:
313,201,139766,2,0,L|249:217,1,50.9600006220703,8|0,0:0|0:0,0:0:0:0:
70,283,139934,6,0,B|163:250|162:356|274:288,1,203.840002488281,4|0,1:0|1:0,0:0:0:0:
440,168,140437,1,10,0:2:0:0:
264,112,140604,1,0,1:0:0:0:
264,112,140688,1,8,0:0:0:0:
264,112,140772,1,2,1:2:0:0:
360,256,140940,1,0,1:0:0:0:
376,48,141107,1,10,0:2:0:0:
184,192,141275,2,0,P|280:128|360:152,1,203.840002488281,2|2,1:2|1:2,0:0:0:0:
472,264,141778,1,8,0:0:0:0:
288,360,141945,2,0,L|312:296,1,50.9600006220703,2|8,1:2|0:0,0:0:0:0:
384,224,142113,1,0,1:0:0:0:
488,352,142280,1,2,1:2:0:0:
358,150,142448,1,8,0:0:0:0:
109,307,142616,6,0,B|177:297|177:297|232:323|232:323|314:310,1,203.840002488281,6|0,1:2|1:0,0:0:0:0:
128,208,143118,1,8,0:0:0:0:
304,88,143286,1,0,1:0:0:0:
304,88,143370,1,8,0:0:0:0:
304,88,143454,1,0,1:0:0:0:
208,240,143621,1,0,1:0:0:0:
184,24,143789,1,10,0:2:0:0:
0,168,143956,6,0,P|88:128|200:120,1,203.840002488281,6|0,1:2|1:0,0:0:0:0:
128,328,144459,2,0,P|96:285|97:227,1,101.920001244141,8|0,0:0|0:0,0:0:0:0:
307,102,144794,2,0,P|303:152|272:191,1,101.920001244141,2|0,0:0|1:0,0:0:0:0:
176,257,145130,1,8,0:2:0:0:
221,120,145297,1,10,0:2:0:0:
127,327,145465,6,0,B|202:381|245:286|322:328,1,203.840002488281,2|8,1:2|0:0,0:0:0:0:
504,240,145968,2,0,P|453:230|404:218,1,101.920001244141,2|0,0:2|1:0,0:0:0:0:
320,88,146303,2,0,P|262:100|198:113,1,101.920001244141,2|8,1:2|0:0,0:0:0:0:
0,192,146638,6,0,P|108:171|166:241,1,203.840002488281,2|0,1:2|1:0,0:0:0:0:
80,384,147141,2,0,P|48:304|80:240,1,152.880001866211,10|0,0:2|0:0,0:0:0:0:
185,325,147476,6,0,L|131:312,1,50.9600006220703,2|0,1:2|0:0,0:0:0:0:
0,192,147644,1,10,0:2:0:0:
38,167,147727,1,8,0:0:0:0:
83,164,147811,1,8,0:0:0:0:
125,180,147895,1,8,0:0:0:0:
156,213,147979,6,0,P|218:243|340:191,1,203.840002488281,4|0,1:0|1:0,0:0:0:0:
440,72,148482,1,10,0:2:0:0:
264,144,148649,1,0,1:0:0:0:
448,264,148817,1,10,0:2:0:0:
347,96,148984,1,2,1:2:0:0:
176,312,149152,1,8,0:0:0:0:
331,190,149320,1,6,1:2:0:0:
336,195,149655,5,2,1:2:0:0:
160,112,149822,1,8,0:0:0:0:
304,48,149990,1,2,1:2:0:0:
160,224,150157,1,8,0:0:0:0:
64,72,150325,1,2,1:2:0:0:
256,160,150493,1,10,0:2:0:0:
48,280,150660,5,0,1:0:0:0:
48,280,150744,1,8,0:0:0:0:
48,280,150828,2,0,P|96:256|152:256,1,101.920001244141,6|0,1:2|1:0,0:0:0:0:
288,360,151163,1,8,0:0:0:0:
472,264,151331,1,2,1:2:0:0:
472,264,151414,1,8,0:0:0:0:
472,264,151498,2,0,P|421:261|376:238,1,101.920001244141,2|0,1:2|1:0,0:0:0:0:
296,96,151833,1,10,0:2:0:0:
32,176,152001,6,0,P|86:160|160:136,1,101.920001244141,6|0,1:2|0:0,0:0:0:0:
376,238,152336,2,0,P|321:222|248:198,1,101.920001244141,2|8,1:2|0:0,0:0:0:0:
48,280,152671,2,0,P|103:264|176:240,1,101.920001244141,2|0,1:2|1:0,0:0:0:0:
267,335,153007,5,10,0:2:0:0:
230,307,153090,1,8,0:0:0:0:
184,299,153174,1,8,0:0:0:0:
143,320,153258,1,8,0:0:0:0:
103,342,153342,1,4,3:0:0:0:
57,338,153426,1,8,3:0:0:0:
24,312,153509,6,0,P|0:245|49:162,1,167.439994379151,6|2,1:2|1:2,0:0:0:0:
99,247,154012,1,2,1:2:0:0:
8,72,154180,2,0,P|52:83|88:94,1,83.7199971895753,8|0,0:0|0:0,0:0:0:0:
208,208,154515,1,0,1:0:0:0:
208,208,154683,2,0,P|156:227|95:249,1,83.7199971895753,0|0,1:0|0:0,0:0:0:0:
200,112,155018,1,0,1:0:0:0:
200,112,155185,2,0,P|239:126|278:141,1,83.7199971895753,0|0,0:0|1:0,0:0:0:0:
102,340,155521,2,0,P|62:326|23:311,1,83.7199971895753,8|0,0:0|0:0,0:0:0:0:
129,236,155856,1,4,3:0:0:0:
200,360,156023,1,8,3:0:0:0:
304,240,156191,5,2,1:2:0:0:
304,240,156359,2,0,B|207:215|207:215|142:243,1,167.439994379151,8|2,0:0|1:2,0:0:0:0:
200,360,156861,2,0,L|286:382,1,83.7199971895753,8|0,0:0|0:0,0:0:0:0:
332,155,157197,1,2,1:2:0:0:
332,155,157364,2,0,L|235:129,1,83.7199971895753,0|0,1:0|0:0,0:0:0:0:
48,264,157699,1,0,1:0:0:0:
160,216,157867,1,0,0:0:0:0:
64,152,158035,1,0,1:0:0:0:
136,336,158202,1,8,0:0:0:0:
232,183,158370,1,8,3:0:0:0:
352,368,158537,5,0,3:0:0:0:
338,341,158621,1,0,3:0:0:0:
336,311,158705,1,2,3:2:0:0:
345,283,158789,1,0,3:0:0:0:
367,259,158873,6,0,L|472:286,1,92.8200005665283,6|2,1:2|0:2,0:0:0:0:
225,359,159208,2,0,L|135:335,1,92.8200005665283,10|0,0:2|1:0,0:0:0:0:
104,328,159459,1,8,0:0:0:0:
104,328,159543,1,2,1:2:0:0:
232,224,159711,1,0,1:0:0:0:
80,128,159878,1,10,0:2:0:0:
16,240,160046,2,0,P|120:208|200:192,1,185.640001133057,2|2,1:2|1:2,0:0:0:0:
368,304,160549,1,10,0:2:0:0:
264,376,160716,1,2,1:2:0:0:
264,376,160800,1,8,0:0:0:0:
264,376,160884,2,0,P|249:330|240:272,1,92.8200005665283,0|0,1:0|1:0,0:0:0:0:
320,144,161219,1,8,0:0:0:0:
136,288,161387,5,6,1:2:0:0:
312,232,161554,1,2,1:2:0:0:
152,128,161722,1,2,1:2:0:0:
241,286,161889,1,10,0:2:0:0:
392,208,162057,1,0,1:0:0:0:
392,208,162141,1,8,0:0:0:0:
392,208,162225,2,0,L|456:224,2,46.4100002832642,2|8|0,1:2|0:0|1:0,0:0:0:0:
224,176,162560,1,10,0:2:0:0:
320,136,162727,5,6,1:2:0:0:
144,208,162895,1,0,1:0:0:0:
320,264,163063,1,10,0:2:0:0:
152,120,163230,1,0,1:0:0:0:
336,128,163398,1,2,1:2:0:0:
96,232,163565,1,0,1:0:0:0:
344,352,163733,1,10,0:2:0:0:
104,248,163901,1,8,0:0:0:0:
376,152,164068,1,8,0:0:0:0:
200,48,164236,6,0,P|196:93|192:169,1,112.839995523316,6|0,1:2|1:0,0:0:0:0:
423,326,164906,2,0,P|420:269|415:213,1,112.839995523316,10|0,0:2|1:0,0:0:0:0:
340,289,165409,1,0,1:0:0:0:
340,289,165576,1,2,0:2:0:0:
218,222,165744,2,0,L|335:206,1,112.839995523316,8|0,0:0|1:0,0:0:0:0:
247,312,166247,2,0,L|135:296,1,112.839995523316,10|0,0:2|1:0,0:0:0:0:
51,171,166750,5,8,0:0:0:0:
51,171,166833,1,8,0:0:0:0:
51,171,166917,1,2,1:2:0:0:
126,55,167085,2,0,L|130:112,2,56.4199977616578,8|0|2,0:0|1:0|1:2,0:0:0:0:
134,192,167588,2,0,L|256:171,1,112.839995523316,8|2,0:0|1:2,0:0:0:0:
308,106,168090,1,0,1:0:0:0:
308,106,168258,1,0,0:0:0:0:
407,222,168426,2,0,P|399:176|406:93,1,112.839995523316,8|0,0:0|1:0,0:0:0:0:
417,76,168845,1,8,0:0:0:0:
417,76,168928,1,8,0:0:0:0:
477,160,169096,1,8,3:0:0:0:
449,300,169264,1,4,3:0:0:0:
404,205,169431,1,4,3:0:0:0:
332,321,169599,6,0,P|289:339|205:320,2,112.839995523316,6|0|10,1:2|1:0|0:2,0:0:0:0:
254,132,170604,1,0,1:0:0:0:
203,205,170772,2,0,L|129:202,1,56.4199977616578,0|2,1:0|3:2,0:0:0:0:
75,139,171107,2,0,P|89:182|88:263,1,112.839995523316,8|0,0:0|1:0,0:0:0:0:
163,120,171610,1,10,0:2:0:0:
228,286,171778,1,4,3:0:0:0:
245,179,171945,1,4,3:0:0:0:
169,344,172113,6,0,P|237:335|293:331,1,112.839995523316,6|8,1:2|0:0,0:0:0:0:
374,358,172616,1,0,1:0:0:0:
374,358,172783,1,0,1:0:0:0:
345,269,172951,2,0,P|342:232|342:197,1,56.4199977616578,8|0,0:0|0:0,0:0:0:0:
418,165,173286,2,0,P|420:136|421:108,1,56.4199977616578,2|0,1:2|1:0,0:0:0:0:
357,39,173621,1,2,1:2:0:0:
310,128,173789,2,0,L|188:112,1,112.839995523316,8|2,0:0|1:2,0:0:0:0:
116,53,174292,1,8,0:0:0:0:
83,140,174459,1,8,3:0:0:0:
131,283,174627,6,0,L|258:274,1,112.839995523316,6|0,1:2|0:0,0:0:0:0:
369,231,175130,1,8,0:0:0:0:
279,196,175297,1,0,1:0:0:0:
279,196,175465,1,0,1:0:0:0:
360,316,175632,2,0,P|409:311|449:254,1,112.839995523316,8|10,0:0|0:2,0:0:0:0:
432,172,176135,1,0,1:0:0:0:
480,40,176303,1,6,1:2:0:0:
381,89,176470,2,0,P|343:97|262:61,1,112.839995523316,0|2,0:0|1:2,0:0:0:0:
132,22,176973,1,8,0:0:0:0:
236,151,177141,1,8,0:0:0:0:
266,55,177308,1,2,1:2:0:0:
150,135,177476,1,8,0:0:0:0:
152,177,177560,1,8,0:0:0:0:
173,214,177644,5,2,1:2:0:0:
425,281,177979,1,0,1:0:0:0:
98,259,178314,1,0,1:0:0:0:
432,194,178649,1,0,1:0:0:0:
150,135,178984,1,0,1:0:0:0:
342,342,179320,1,0,1:0:0:0:
293,61,179655,1,0,1:0:0:0:
243,348,179990,1,2,1:2:0:0:
153,230,180157,5,8,0:0:0:0:
186,224,180241,1,8,0:0:0:0:
219,218,180325,1,6,1:2:0:0:
219,218,180660,5,0,1:0:0:0:
309,164,180828,1,0,1:0:0:0:
189,128,180995,1,0,1:0:0:0:
181,297,181163,1,0,1:0:0:0:
104,104,181331,1,0,1:0:0:0:
282,277,181498,1,0,1:0:0:0:
391,51,181666,5,0,1:0:0:0:
189,128,181833,1,0,1:0:0:0:
439,128,182001,1,0,1:0:0:0:
282,277,182169,1,0,1:0:0:0:
137,51,182336,1,0,1:0:0:0:
203,329,182504,1,2,1:2:0:0:
351,62,182671,1,2,1:2:0:0:
423,331,182839,5,0,1:0:0:0:
423,331,182923,1,8,0:0:0:0:
423,331,183007,2,0,P|350:350|281:265,1,185.640001133057,14|0,0:2|1:0,0:0:0:0:
376,45,183509,2,0,P|391:108|395:154,1,92.8200005665283,12|0,0:0|1:0,0:0:0:0:
369,264,183845,1,0,1:0:0:0:
228,73,184012,2,0,L|129:61,1,92.8200005665283,12|0,0:0|1:0,0:0:0:0:
306,190,184347,5,0,1:0:0:0:
59,140,184515,1,12,0:0:0:0:
305,103,184683,1,0,1:0:0:0:
31,148,184850,1,8,0:0:0:0:
241,21,185018,1,0,1:0:0:0:
210,55,185102,1,8,0:0:0:0:
199,100,185185,1,8,0:0:0:0:
207,145,185269,1,8,0:0:0:0:
235,182,185353,1,8,0:0:0:0:
263,213,185437,1,8,0:0:0:0:
275,257,185521,1,0,1:0:0:0:
266,303,185605,1,8,0:0:0:0:
239,340,185688,6,0,B|139:304|165:389|35:342,2,185.640001133057,6|10|0,1:2|0:2|1:2,0:0:0:0:
100,272,186525,1,0,1:0:0:0:
307,275,186693,2,0,P|325:329|325:374,1,92.8200005665283,10|0,0:2|1:0,0:0:0:0:
233,331,187028,1,0,3:0:0:0:
380,220,187196,1,0,1:0:0:0:
222,239,187364,2,0,L|208:135,1,92.8200005665283,10|0,0:2|0:0,0:0:0:0:
204,114,187615,1,8,0:0:0:0:
204,114,187698,1,0,1:0:0:0:
227,281,187866,1,0,1:0:0:0:
198,72,188034,1,10,0:2:0:0:
152,329,188201,6,0,L|345:299,1,185.640001133057,6|0,1:2|1:0,0:0:0:0:
453,155,188705,2,0,P|428:212|417:262,1,92.8200005665283,8|0,0:0|0:0,0:0:0:0:
319,327,188956,1,8,0:0:0:0:
335,300,189040,2,0,P|322:255|302:213,1,92.8200005665283,2|0,1:2|0:0,0:0:0:0:
135,147,189375,1,10,2:0:0:0:
241,272,189543,1,0,1:2:0:0:
210,77,189711,2,0,P|223:144|229:183,1,92.8200005665283,2|0,3:2|1:0,0:0:0:0:
178,337,190046,1,10,0:2:0:0:
302,213,190213,2,0,L|362:204,1,46.4100002832642,10|8,0:2|0:0,0:0:0:0:
160,230,190381,1,0,1:0:0:0:
418,260,190549,1,2,1:2:0:0:
226,168,190716,1,8,0:0:0:0:
441,325,190884,6,0,L|451:128,1,185.640001133057,6|0,1:2|1:0,0:0:0:0:
288,29,191387,2,0,L|305:131,1,92.8200005665283,10|0,0:2|0:0,0:0:0:0:
286,304,191722,2,0,L|301:212,1,92.8200005665283,2|0,1:2|1:0,0:0:0:0:
203,38,192057,2,0,L|220:140,1,92.8200005665283,10|0,0:2|1:0,0:0:0:0:
197,305,192392,2,0,L|212:213,1,92.8200005665283,2|0,3:2|1:0,0:0:0:0:
395,131,192727,2,0,P|329:121|286:120,1,92.8200005665283,10|0,0:2|0:0,0:0:0:0:
120,224,193063,2,0,P|186:214|229:213,1,92.8200005665283,2|0,1:2|1:0,0:0:0:0:
442,274,193398,1,10,0:2:0:0:
291,58,193565,6,0,B|243:159|336:138|295:257,1,185.640001133057,6|0,1:2|1:0,0:0:0:0:
364,106,194068,1,8,0:0:0:0:
222,207,194236,2,0,L|159:200,1,46.4100002832642,0|8,1:0|0:0,0:0:0:0:
393,187,194404,1,2,1:2:0:0:
192,119,194571,1,2,1:2:0:0:
305,263,194738,1,10,0:2:0:0:
254,50,194906,2,0,P|278:99|222:206,1,185.640001133057,2|0,1:2|1:0,0:0:0:0:
370,79,195409,1,10,0:2:0:0:
192,119,195577,2,0,L|79:104,1,92.8200005665283,2|0,1:2|0:0,0:0:0:0:
330,165,195912,1,10,0:2:0:0:
376,159,195995,1,8,0:0:0:0:
422,154,196079,1,8,0:0:0:0:
139,193,196247,5,4,1:0:0:0:
139,193,196582,1,2,1:2:0:0:
388,239,196750,1,10,0:2:0:0:
302,169,196917,1,2,1:2:0:0:
146,305,197085,1,10,0:2:0:0:
226,118,197252,1,2,1:2:0:0:
340,317,197420,1,10,0:2:0:0:
383,118,197588,2,0,L|476:104,1,92.8200005665283,0|8,1:0|0:0,0:0:0:0:
151,60,197923,5,2,1:2:0:0:
267,255,198090,1,10,0:2:0:0:
330,42,198258,1,2,1:2:0:0:
330,42,198342,1,8,0:0:0:0:
330,42,198427,1,10,0:2:0:0:
182,288,198594,1,2,1:2:0:0:
240,50,198761,1,10,0:2:0:0:
350,212,198928,6,0,P|360:278|241:342,1,185.640001133057,4|2,1:0|1:2,0:0:0:0:
455,258,199431,1,10,0:2:0:0:
267,255,199599,2,0,P|212:239|202:233,1,46.4100002832642,2|8,1:2|0:0,0:0:0:0:
433,178,199766,1,10,0:2:0:0:
263,166,199934,1,2,1:2:0:0:
484,102,200102,1,10,0:2:0:0:
198,88,200269,2,0,P|170:140|170:180,1,92.8200005665283,0|8,1:0|0:0,0:0:0:0:
316,341,200604,5,2,1:2:0:0:
323,103,200772,1,10,0:2:0:0:
367,234,200940,1,2,1:2:0:0:
266,33,201107,1,10,0:2:0:0:
268,249,201275,1,2,1:2:0:0:
367,22,201442,1,10,0:2:0:0:
221,215,201610,6,0,L|439:188,1,185.640001133057,4|2,1:0|1:2,0:0:0:0:
219,130,202113,1,10,0:2:0:0:
354,283,202280,1,2,1:2:0:0:
354,283,202364,1,8,0:0:0:0:
354,283,202448,1,2,1:2:0:0:
287,79,202616,1,2,1:2:0:0:
190,305,202783,1,10,0:2:0:0:
144,80,202951,2,0,P|133:150|158:193,1,92.8200005665283,0|0,1:0|3:0,0:0:0:0:
271,296,203286,5,2,1:2:0:0:
374,76,203454,1,10,0:2:0:0:
380,266,203621,1,2,1:2:0:0:
385,229,203704,1,8,0:0:0:0:
388,192,203788,1,2,1:2:0:0:
358,348,203957,1,4,3:0:0:0:
306,130,204124,1,4,3:0:0:0:
159,342,204292,5,4,1:0:0:0:
159,342,204627,1,0,1:0:0:0:
260,269,204794,1,0,1:0:0:0:
63,211,204962,5,12,0:0:0:0:
182,84,205130,1,0,1:0:0:0:
177,243,205297,1,0,1:0:0:0:
108,32,205465,5,12,0:0:0:0:
253,134,205632,1,0,1:0:0:0:
63,211,205800,1,0,1:0:0:0:
329,184,205968,5,12,0:0:0:0:
156,174,206135,1,0,1:0:0:0:
315,273,206303,1,8,0:0:0:0:
369,262,206387,1,8,0:0:0:0:
409,222,206470,1,8,0:0:0:0:
150,260,206638,1,8,0:0:0:0:
414,132,206806,1,8,0:0:0:0:
220,322,206973,5,4,1:0:0:0:
220,322,207308,1,0,1:0:0:0:
437,42,207476,1,0,1:0:0:0:
144,79,207644,1,0,1:0:0:0:
404,184,207811,1,0,1:0:0:0:
129,323,207979,1,0,1:0:0:0:
223,42,208147,1,0,1:0:0:0:
435,282,208314,5,12,0:0:0:0:
67,121,208482,1,0,1:0:0:0:
423,91,208649,1,0,1:0:0:0:
315,350,208817,1,8,0:0:0:0:
297,2,208985,1,8,0:0:0:0:
129,323,209152,1,0,1:0:0:0:
62,34,209320,2,0,P|108:61|115:66,1,46.4100002832642,8|8,0:0|0:0,0:0:0:0:
247,221,209487,2,0,P|201:194|194:189,1,46.4100002832642,8|8,0:0|0:0,0:0:0:0:
168,114,209655,5,0,3:0:0:0:
37,363,210157,1,2,0:0:0:0:
197,262,210492,2,0,L|300:270,1,94.6399994223633,2|2,3:2|0:2,0:0:0:0:
371,324,210995,2,0,P|383:282|370:215,1,94.6399994223633,2|0,3:2|0:0,0:0:0:0:
301,186,211497,2,0,P|289:144|302:77,1,94.6399994223633,2|2,3:2|3:2,0:0:0:0:
100,35,212168,1,2,0:2:0:0:
163,99,212335,6,0,P|173:132|160:206,1,94.6399994223633,2|0,3:2|0:0,0:0:0:0:
99,250,212839,2,0,P|91:283|92:314,1,47.3199997111816,0|0,3:0|0:0,0:0:0:0:
146,369,213174,1,0,3:0:0:0:
396,318,213509,2,0,P|401:286|402:260,1,47.3199997111816,2|0,3:2|3:0,0:0:0:0:
452,193,213844,2,0,L|344:181,1,94.6399994223633,2|2,3:2|3:2,0:0:0:0:
298,109,214347,2,0,L|356:101,1,47.3199997111816,2|0,0:2|3:0,0:0:0:0:
394,30,214682,2,0,L|336:22,1,47.3199997111816,2|0,0:2|0:0,0:0:0:0:
255,33,215018,1,2,3:2:0:0:
127,221,215520,6,0,P|150:232|223:219,2,94.6399994223633,2|2|2,3:2|3:2|0:2,0:0:0:0:
67,147,216358,2,0,B|41:191|41:191|43:244,1,94.6399994223633,2|0,3:2|3:0,0:0:0:0:
95,304,216861,1,2,3:2:0:0:
254,173,217196,2,0,L|264:281,1,94.6399994223633,2|0,3:2|0:0,0:0:0:0:
344,319,217699,2,0,L|352:224,1,94.6399994223633,2|0,3:2|0:0,0:0:0:0:
378,136,218202,2,0,L|319:122,1,47.3199997111816
254,173,218537,2,0,P|212:191|152:168,1,94.6399994223633,0|2,3:0|3:2,0:0:0:0:
98,120,219040,1,0,3:0:0:0:
77,207,219207,6,0,L|86:275,1,47.3199997111816,2|0,3:2|3:0,0:0:0:0:
138,321,219542,1,2,3:2:0:0:
210,262,219710,2,0,L|274:258,1,47.3199997111816,2|0,0:2|3:0,0:0:0:0:
330,319,220045,1,2,0:2:0:0:
399,262,220213,1,2,0:2:0:0:
472,321,220380,1,2,0:2:0:0:
487,277,220464,1,0,0:0:0:0:
482,231,220548,6,0,L|471:143,1,83.7199971895753,2|0,1:2|0:0,0:0:0:0:
393,71,220883,2,0,L|382:154,1,83.7199971895753,2|0,1:2|0:0,0:0:0:0:
303,218,221219,2,0,P|247:222|212:215,1,83.7199971895753,2|0,1:2|0:0,0:0:0:0:
176,140,221554,2,0,P|232:136|267:143,1,83.7199971895753,2|0,1:2|0:0,0:0:0:0:
136,220,221889,6,0,L|122:309,1,83.7199971895753,2|0,1:2|0:0,0:0:0:0:
233,300,222224,2,0,L|219:217,1,83.7199971895753,2|0,1:2|0:0,0:0:0:0:
176,140,222559,2,0,P|111:141|75:155,1,83.7199971895753,2|0,1:2|0:0,0:0:0:0:
36,217,222894,1,2,1:2:0:0:
8,126,223062,1,2,0:0:0:0:
69,55,223230,6,0,P|134:44|165:45,1,83.7199971895753,0|0,1:0|0:0,0:0:0:0:
246,85,223565,2,0,P|311:96|342:95,1,83.7199971895753,0|0,1:0|0:0,0:0:0:0:
407,31,223900,2,0,L|428:120,1,83.7199971895753,0|0,1:0|0:0,0:0:0:0:
361,175,224235,2,0,L|340:264,1,83.7199971895753,2|0,1:2|0:0,0:0:0:0:
404,336,224570,2,0,P|352:348|235:326,1,167.439994379151,2|2,1:2|1:2,0:0:0:0:
138,220,225074,1,8,0:0:0:0:
138,220,225157,1,8,0:0:0:0:
138,220,225241,1,0,1:0:0:0:
258,229,225409,1,4,3:0:0:0:
99,295,225576,2,0,L|11:267,1,83.7199971895753,8|0,3:0|0:0,0:0:0:0:
194,329,225911,6,0,P|250:324|281:311,1,83.7199971895753,2|0,1:2|0:0,0:0:0:0:
386,292,226246,2,0,P|318:300|258:216,1,167.439994379151,2|0,1:2|1:0,0:0:0:0:
288,136,226749,1,2,0:2:0:0:
194,165,226917,2,0,L|88:154,1,83.7199971895753,0|8,1:0|0:0,0:0:0:0:
35,212,227168,1,8,0:0:0:0:
35,212,227252,2,0,P|28:155|17:112,2,83.7199971895753,2|8|0,1:2|0:0|1:0,0:0:0:0:
227,333,227922,2,0,L|399:309,1,167.439994379151,10|0,0:2|1:0,0:0:0:0:
503,244,228425,2,0,P|452:244|427:239,1,41.8599985947876,10|8,0:2|0:0,0:0:0:0:
368,217,228593,6,0,P|316:206|279:210,1,83.7199971895753,4|2,1:0|0:2,0:0:0:0:
187,250,228928,2,0,P|200:130|176:95,2,167.439994379151,2|0|0,1:2|1:0|1:0,0:0:0:0:
286,133,229766,1,8,0:0:0:0:
319,129,229849,1,8,0:0:0:0:
352,126,229933,1,0,1:0:0:0:
468,222,230101,2,0,L|359:210,1,83.7199971895753,8|0,0:0|1:0,0:0:0:0:
267,276,230437,2,0,L|337:265,1,41.8599985947876,8|0,0:0|0:0,0:0:0:0:
163,336,230604,1,8,0:0:0:0:
315,351,230771,1,8,3:0:0:0:
276,178,230939,1,4,3:0:0:0:
237,279,231106,1,4,3:0:0:0:
215,114,231274,6,0,P|248:95|354:142,1,165.619998989136,6|0,0:0|0:0,0:0:0:0:
276,178,231945,6,0,P|243:159|137:206,1,165.619998989136,2|0,0:0|0:0,0:0:0:0:
217,236,232615,6,0,P|250:217|356:264,1,165.619998989136,2|0,0:0|0:0,0:0:0:0:
278,293,233286,6,0,P|245:274|139:321,1,165.619998989136,2|0,0:0|0:0,0:0:0:0:
217,355,233956,5,4,1:0:0:0:
256,192,234039,12,4,236470,0:0:0:0:
217,121,236973,6,0,L|317:110,1,84.6299966424867,2|0,0:0|0:0,0:0:0:0:
265,209,237308,2,0,L|133:199,1,111.930001707916,2|0,0:0|0:0,0:0:0:0:
192,284,237643,6,0,L|227:289,1,23.6599998555908,2|0,0:0|0:0,0:0:0:0:
278,225,237811,6,0,P|329:198|401:239,1,125.579995784363,2|0,0:0|0:0,0:0:0:0:
461,287,238146,2,0,L|469:145,1,111.930001707916,2|0,0:0|0:0,0:0:0:0:
503,92,238481,2,0,P|457:94|412:80,1,65.5200015996094,2|8,0:0|3:0,0:0:0:0:
237,41,238817,6,0,P|256:84|259:95,1,41.8599985947876,8|8,0:0|0:0,0:0:0:0:
278,225,238984,1,8,0:0:0:0:
80,223,239152,6,0,B|155:239|155:239|216:216|216:216|278:225,1,203.840002488281,4|0,1:0|1:0,0:0:0:0:
364,329,239654,2,0,L|253:317,1,101.920001244141,10|0,0:2|1:0,0:0:0:0:
233,313,239905,1,8,0:0:0:0:
233,313,239989,1,10,0:2:0:0:
452,260,240157,1,2,1:2:0:0:
196,224,240324,1,8,0:0:0:0:
441,119,240493,6,0,B|460:113|480:121|480:121|401:74|392:150|310:121,1,207.479997467285,6|0,1:2|0:0,0:0:0:0:
196,224,240828,6,0,B|40:203|40:203|120:182,1,207.479997467285,6|0,1:2|0:0,0:0:0:0:
401,199,241163,6,0,P|424:253|325:294,1,138.319998311523,6|8,1:2|0:0,0:0:0:0:
302,233,241414,5,8,0:0:0:0:
297,198,241498,2,0,L|304:134,1,55.5099977130586,10|8,0:2|0:0,0:0:0:0:
252,15,241666,2,0,L|245:70,1,55.5099977130586,8|4,3:0|3:0,0:0:0:0:
107,150,241833,6,0,B|198:112|214:201|313:137,1,203.840002488281,6|0,1:2|1:0,0:0:0:0:
403,245,242336,2,0,B|330:231|281:233,1,101.920001244141,8|0,0:0|0:0,0:0:0:0:
139,353,242671,2,0,B|212:339|261:341,1,101.920001244141,0|0,1:0|1:0,0:0:0:0:
421,343,243007,1,10,0:2:0:0:
163,164,243174,6,0,B|115:305|115:305|145:364,1,203.840002488281,6|0,1:2|1:0,0:0:0:0:
254,162,243677,2,0,L|269:289,1,101.920001244141,8|0,0:0|0:0,0:0:0:0:
450,149,244012,2,0,L|431:249,1,101.920001244141,0|0,1:0|1:0,0:0:0:0:
365,66,244347,1,10,0:2:0:0:
350,258,244515,1,2,1:2:0:0:
354,146,244683,2,0,L|243:163,1,101.920001244141,2|0,0:2|1:0,0:0:0:0:
132,226,245018,1,10,0:2:0:0:
19,87,245185,2,0,L|130:104,1,101.920001244141,2|0,1:2|1:0,0:0:0:0:
220,242,245521,1,2,1:2:0:0:
185,49,245688,1,10,0:2:0:0:
139,268,245856,5,2,1:2:0:0:
208,132,246023,1,0,0:0:0:0:
170,349,246191,1,2,1:2:0:0:
98,140,246359,1,8,0:0:0:0:
247,314,246526,2,0,P|307:319|359:322,1,101.920001244141,2|0,1:2|1:0,0:0:0:0:
139,249,246861,1,10,0:2:0:0:
101,260,246945,1,8,0:0:0:0:
60,275,247029,2,0,P|4:277|-3:276,1,50.9600006220703,0|0,1:0|1:0,1:0:0:0:
99,167,247197,6,0,B|160:137|217:197|217:197|264:234|320:185,1,203.840002488281,4|0,1:0|1:0,0:0:0:0:
449,111,247699,2,0,P|384:124|351:160,1,101.920001244141,10|0,0:2|0:0,0:0:0:0:
316,298,248035,1,2,1:2:0:0:
279,118,248202,1,2,1:2:0:0:
437,199,248370,1,8,0:0:0:0:
296,206,248537,2,0,L|186:186,1,101.920001244141,2|0,1:2|0:0,0:0:0:0:
264,108,248873,1,2,1:2:0:0:
406,288,249040,2,0,L|516:274,1,101.920001244141,8|2,0:0|0:2,0:0:0:0:
379,131,249375,2,0,L|373:75,1,50.9600006220703,0|0,1:0|0:0,0:0:0:0:
285,284,249543,2,0,P|222:278|204:272,1,50.9600006220703,2|0,1:2|0:0,0:0:0:0:
213,104,249711,2,0,P|276:110|294:116,1,50.9600006220703,8|0,0:0|0:0,0:0:0:0:
146,220,249878,6,0,P|80:216|120:115,1,203.840002488281,4|0,1:0|1:0,0:0:0:0:
234,280,250381,2,0,P|311:268|335:234,1,101.920001244141,10|0,0:2|0:0,0:0:0:0:
372,92,250716,1,2,1:2:0:0:
396,197,250884,1,2,1:2:0:0:
286,32,251051,1,8,0:0:0:0:
195,183,251219,2,0,L|324:168,1,101.920001244141,2|0,1:2|0:0,0:0:0:0:
473,103,251554,2,0,L|344:88,1,101.920001244141,2|8,1:2|0:0,0:0:0:0:
151,104,251889,1,2,1:2:0:0:
121,131,251973,1,8,0:0:0:0:
106,169,252056,1,0,1:0:0:0:
119,20,252225,1,2,1:2:0:0:
170,258,252392,1,8,0:0:0:0:
224,47,252560,6,0,B|276:128|196:139|238:214|238:214|252:183,1,203.840002488281,6|0,1:2|1:0,0:0:0:0:
151,104,253063,2,0,L|46:94,1,101.920001244141,8|0,0:0|1:0,0:0:0:0:
99,187,253314,1,8,0:0:0:0:
118,213,253398,2,0,L|99:341,1,101.920001244141,0|0,1:0|1:0,0:0:0:0:
172,107,253733,1,10,0:2:0:0:
195,286,253901,6,0,B|365:274|365:274|317:231,1,203.840002488281,6|0,1:2|1:0,0:0:0:0:
185,120,254403,1,8,0:0:0:0:
96,263,254571,1,0,1:0:0:0:
99,298,254655,1,8,0:0:0:0:
104,334,254738,1,0,1:0:0:0:
169,106,254906,1,0,1:0:0:0:
195,286,255074,1,10,0:2:0:0:
79,117,255241,1,2,1:2:0:0:
258,204,255409,6,0,L|379:181,1,101.920001244141,2|0,0:2|1:0,0:0:0:0:
428,109,255744,1,10,0:2:0:0:
445,305,255912,2,0,L|324:282,1,101.920001244141,2|0,1:2|0:0,0:0:0:0:
226,107,256247,2,0,P|251:173|262:234,1,101.920001244141,2|8,1:2|0:0,0:0:0:0:
301,64,256582,1,2,1:2:0:0:
254,285,256750,1,0,0:0:0:0:
218,92,256917,1,2,1:2:0:0:
333,324,257085,1,8,0:0:0:0:
363,128,257251,1,2,1:2:0:0:
239,205,257420,2,0,L|123:194,1,101.920001244141,0|2,1:0|1:2,0:0:0:0:
28,140,257671,1,8,0:0:0:0:
44,166,257755,2,0,L|53:228,1,50.9600006220703,8|8,0:0|0:0,0:0:0:0:
60,315,257923,6,0,P|37:247|150:203,1,203.840002488281,4|0,1:0|1:0,0:0:0:0:
365,292,258426,1,10,0:2:0:0:
176,275,258593,1,0,1:0:0:0:
407,211,258761,1,10,0:2:0:0:
230,181,258928,1,2,1:2:0:0:
451,285,259096,1,8,0:0:0:0:
282,113,259264,6,0,B|217:92|217:92|162:110|132:207,1,203.840002488281,6|2,1:2|1:2,0:0:0:0:
354,184,259766,1,8,0:0:0:0:
341,50,259934,2,0,L|224:10,1,101.920001244141,2|0,1:2|1:0,0:0:0:0:
135,194,260269,1,2,1:2:0:0:
282,113,260437,1,10,0:2:0:0:
81,117,260604,2,0,P|49:166|44:187,1,50.9600006220703,0|0,1:0|1:0,0:0:0:0:
137,279,260772,6,0,P|186:265|218:219,1,101.920001244141,6|0,1:2|1:0,0:0:0:0:
160,60,261107,1,8,0:0:0:0:
135,194,261275,1,2,1:2:0:0:
267,106,261442,2,0,L|392:98,1,101.920001244141,2|0,1:2|1:0,0:0:0:0:
459,151,261778,1,10,0:2:0:0:
314,185,261945,6,0,P|367:217|369:352,1,203.840002488281,6|2,1:2|1:2,0:0:0:0:
374,118,262448,1,8,0:0:0:0:
306,283,262616,1,2,1:2:0:0:
279,96,262783,1,0,1:0:0:0:
227,316,262951,1,2,1:2:0:0:
181,336,263034,1,8,0:0:0:0:
132,327,263118,1,8,0:0:0:0:
96,292,263202,1,8,0:0:0:0:
88,242,263286,1,4,3:0:0:0:
109,197,263369,1,4,3:0:0:0:
153,172,263454,6,0,B|239:143|227:232|347:169,1,167.439994379151,4|0,1:0|1:0,0:0:0:0:
439,131,263956,1,2,1:2:0:0:
349,275,264124,2,0,B|212:268|212:268|157:226,1,167.439994379151,8|0,0:0|1:0,0:0:0:0:
137,116,264627,2,0,P|179:141|175:266,1,167.439994379151,0|0,1:0|1:0,0:0:0:0:
59,159,265129,2,0,B|37:109|68:67,1,83.7199971895753,0|0,3:0|3:0,0:0:0:0:
263,117,265465,2,0,P|236:152|135:108,1,167.439994379151,8|2,0:0|1:2,0:0:0:0:
420,38,266135,5,2,1:2:0:0:
359,112,266303,2,0,L|381:291,1,167.439994379151,8|2,0:0|1:2,0:0:0:0:
206,120,266805,2,0,P|247:148|264:195,1,83.7199971895753,8|0,0:0|0:0,0:0:0:0:
269,265,267141,1,2,1:2:0:0:
23,187,267308,2,0,B|77:183|77:183|123:212|123:212|219:191,2,167.439994379151,0|0|0,1:0|1:0|1:0,0:0:0:0:
162,116,268146,1,8,0:0:0:0:
56,269,268314,1,8,0:0:0:0:
89,77,268481,1,8,3:0:0:0:
137,306,268649,1,2,3:2:0:0:
274,159,268817,6,0,P|317:150|378:147,1,92.8200005665283,4|2,1:2|0:2,0:0:0:0:
429,312,269152,2,0,P|373:309|323:301,1,92.8200005665283,10|0,0:2|0:0,0:0:0:0:
436,95,269487,2,0,B|450:153|437:208,1,92.8200005665283,2|0,1:2|1:0,0:0:0:0:
303,297,269822,1,10,0:2:0:0:
312,72,269990,2,0,B|357:111|369:160,1,92.8200005665283,2|0,1:2|0:0,0:0:0:0:
269,295,270325,1,2,1:2:0:0:
188,94,270493,1,10,0:2:0:0:
284,162,270660,1,2,1:2:0:0:
284,162,270744,1,8,0:0:0:0:
284,162,270828,1,0,1:0:0:0:
154,180,270995,1,0,1:0:0:0:
365,224,271163,1,8,0:0:0:0:
281,58,271331,5,6,1:2:0:0:
244,297,271498,1,2,0:2:0:0:
209,109,271666,1,2,1:2:0:0:
328,331,271833,1,10,0:2:0:0:
284,162,272001,1,2,1:2:0:0:
284,162,272085,1,8,0:0:0:0:
284,162,272169,2,0,P|267:216|256:273,1,92.8200005665283,2|0,1:2|1:0,0:0:0:0:
204,78,272504,1,10,0:2:0:0:
348,238,272671,5,0,1:0:0:0:
183,203,272839,1,0,1:0:0:0:
318,44,273007,1,8,0:0:0:0:
335,325,273174,1,0,1:0:0:0:
111,133,273342,1,0,1:0:0:0:
426,56,273509,1,8,0:0:0:0:
167,341,273677,1,8,0:0:0:0:
243,7,273845,1,0,1:0:0:0:
383,256,274012,6,0,B|282:210|291:308|189:263,1,203.840002488281,6|0,1:2|1:0,0:0:0:0:
335,325,274515,1,10,0:2:0:0:
232,191,274683,2,0,P|255:180|279:174,1,50.9600006220703,0|8,1:0|0:0,0:0:0:0:
436,193,274850,2,0,P|462:235|458:285,1,101.920001244141,2|0,1:2|1:0,0:0:0:0:
241,359,275185,1,10,0:2:0:0:
318,97,275353,6,0,L|311:309,1,203.840002488281,6|0,1:2|1:0,0:0:0:0:
399,128,275856,2,0,L|411:240,1,101.920001244141,10|0,0:2|1:0,0:0:0:0:
242,238,276107,1,8,0:0:0:0:
219,214,276191,2,0,L|236:112,1,101.920001244141,2|8,1:2|0:0,0:0:0:0:
311,300,276526,1,2,1:2:0:0:
286,28,276694,6,0,B|337:108|316:197|316:197|292:150,1,203.840002488281,6|0,1:2|1:0,0:0:0:0:
383,44,277197,1,10,0:2:0:0:
236,113,277364,1,0,1:0:0:0:
212,108,277448,1,8,0:0:0:0:
192,104,277532,1,2,1:2:0:0:
303,172,277699,1,8,0:0:0:0:
159,24,277867,1,2,1:2:0:0:
385,238,278035,6,0,B|279:268|279:268|241:241,1,152.880001866211,6|0,1:2|0:0,0:0:0:0:
157,269,278370,2,0,P|157:243|160:218,1,50.9600006220703,10|8,0:2|0:0,0:0:0:0:
200,67,278537,2,0,P|222:124|227:165,1,101.920001244141,0|10,1:0|0:2,0:0:0:0:
127,141,278789,1,8,0:0:0:0:
96,121,278873,2,0,P|99:74|112:20,1,101.920001244141,0|10,1:0|0:2,0:0:0:0:
218,27,279124,1,8,0:0:0:0:
240,56,279208,2,0,L|288:43,1,50.9600006220703,8|8,0:0|0:0,0:0:0:0:
404,89,279375,6,0,B|432:105|432:105|324:123|288:42,1,203.840002488281,6|0,1:2|1:0,0:0:0:0:
481,45,279878,2,0,P|508:91|502:144,1,101.920001244141,10|0,0:2|1:0,0:0:0:0:
444,210,280129,1,8,0:0:0:0:
421,186,280213,2,0,P|369:183|322:219,1,101.920001244141,2|8,1:2|0:0,0:0:0:0:
223,336,280548,1,2,1:2:0:0:
72,263,280716,6,0,B|120:233|169:268|169:268|220:234|280:266,1,203.840002488281,6|0,1:2|1:0,0:0:0:0:
64,178,281219,2,0,P|122:169|175:185,1,101.920001244141,10|0,0:2|1:0,0:0:0:0:
292,136,281470,1,8,0:0:0:0:
309,109,281554,2,0,P|251:100|198:116,1,101.920001244141,2|8,1:2|0:0,0:0:0:0:
114,335,281889,1,2,1:2:0:0:
383,235,282057,6,0,B|231:219|231:219|279:275,1,203.840002488281,6|0,1:2|1:0,0:0:0:0:
454,292,282560,2,0,P|472:230|456:184,1,101.920001244141,10|0,0:2|1:0,0:0:0:0:
441,166,282811,1,8,0:0:0:0:
414,149,282895,1,2,1:2:0:0:
264,257,283063,1,8,0:0:0:0:
351,93,283230,2,0,L|277:84,1,50.9600006220703,2|0,1:2|1:0,0:0:0:0:
133,181,283398,6,0,P|208:161|259:269,1,203.840002488281,6|10,1:2|0:2,0:0:0:0:
192,339,283817,1,8,0:0:0:0:
151,349,283901,2,0,L|84:332,1,50.9600006220703,10|0,0:2|0:0,0:0:0:0:
82,205,284068,2,0,L|149:188,1,50.9600006220703,2|4,1:2|3:0,0:0:0:0:
262,267,284236,1,8,3:0:0:0:
29,279,284403,1,2,0:0:0:0:
225,158,284571,1,2,0:0:0:0:
334,331,284738,6,0,P|350:264|346:216,1,101.920001244141,6|0,1:2|0:0,0:0:0:0:
280,83,285074,1,2,1:2:0:0:
170,234,285241,2,0,L|41:214,1,101.920001244141,10|2,0:2|1:2,0:0:0:0:
37,211,285493,1,8,0:0:0:0:
37,211,285576,1,2,1:2:0:0:
225,158,285744,1,10,0:2:0:0:
114,313,285912,1,2,1:2:0:0:
159,91,286079,6,0,P|229:71|271:77,1,101.920001244141,6|0,1:2|0:0,0:0:0:0:
392,198,286414,1,2,1:2:0:0:
225,158,286582,2,0,L|214:290,1,101.920001244141,10|0,0:2|1:0,0:0:0:0:
224,297,286833,1,8,0:0:0:0:
224,297,286917,1,2,1:2:0:0:
320,135,287085,1,10,0:2:0:0:
465,267,287252,1,2,1:2:0:0:
225,158,287420,6,0,B|158:172|76:160|76:160|89:195|136:199,1,203.840002488281,6|2,1:2|1:2,0:0:0:0:
361,217,287923,1,10,0:2:0:0:
240,72,288090,1,2,1:2:0:0:
202,257,288258,1,2,1:2:0:0:
338,76,288426,1,10,0:2:0:0:
296,299,288593,1,2,1:2:0:0:
156,114,288761,6,0,B|88:134|55:179|55:179|112:201|109:274,1,203.840002488281,6|2,1:2|1:2,0:0:0:0:
93,43,289264,1,10,0:2:0:0:
24,259,289431,1,0,1:0:0:0:
24,259,289515,1,0,1:0:0:0:
24,259,289599,1,10,0:2:0:0:
156,114,289766,1,2,1:2:0:0:
205,119,289849,1,8,0:0:0:0:
245,149,289933,1,8,0:0:0:0:
276,191,290017,1,8,0:0:0:0:
315,210,290102,6,0,B|366:198|380:152|380:152|403:217|391:293,1,203.840002488281,6|0,1:2|1:0,0:0:0:0:
301,123,290604,1,10,0:2:0:0:
343,325,290772,1,0,1:0:0:0:
343,325,290856,1,8,0:0:0:0:
343,325,290940,1,2,1:2:0:0:
175,206,291107,2,0,L|287:200,1,101.920001244141,10|2,0:2|1:2,0:0:0:0:
74,242,291442,6,0,L|300:225,1,203.840002488281,6|0,1:2|1:0,0:0:0:0:
467,171,291945,2,0,L|349:152,1,101.920001244141,8|0,0:0|1:0,0:0:0:0:
333,148,292197,1,8,0:0:0:0:
300,142,292280,1,2,1:2:0:0:
179,313,292448,1,10,0:2:0:0:
246,64,292616,1,2,1:2:0:0:
404,285,292783,6,0,P|356:317|282:214,1,203.840002488281,6|0,1:2|1:0,0:0:0:0:
387,59,293286,1,10,0:2:0:0:
421,277,293454,1,0,1:0:0:0:
201,198,293621,1,10,0:2:0:0:
363,155,293789,1,0,1:0:0:0:
197,347,293956,1,10,0:2:0:0:
201,102,294124,1,2,1:2:0:0:
323,303,294292,1,8,0:0:0:0:
128,270,294459,1,0,1:0:0:0:
311,65,294627,2,0,P|336:141|348:192,1,101.920001244141,10|0,0:2|1:0,0:0:0:0:
315,320,294878,1,0,1:0:0:0:
302,346,294962,2,0,L|241:340,1,50.9600006220703,10|0,0:2|0:0,0:0:0:0:
203,144,295130,2,0,L|264:138,1,50.9600006220703,2|0,1:2|0:0,0:0:0:0:
402,258,295297,1,8,0:0:0:0:
181,219,295465,6,0,P|133:186|194:66,1,203.840002488281,6|0,1:2|1:0,0:0:0:0:
327,197,295968,1,10,0:2:0:0:
129,296,296135,1,0,1:0:0:0:
266,87,296303,1,10,0:2:0:0:
281,279,296470,1,0,1:0:0:0:
175,69,296638,1,10,0:2:0:0:
123,314,296806,1,6,1:2:0:0:
81,151,296973,1,8,0:0:0:0:
270,182,297141,1,0,1:0:0:0:
13,217,297308,2,0,P|-10:151|-3:103,1,101.920001244141,10|0,0:2|1:0,0:0:0:0:
87,33,297560,1,0,1:0:0:0:
119,51,297644,2,0,L|186:55,1,50.9600006220703,10|0,0:2|0:0,0:0:0:0:
320,178,297811,2,0,L|253:182,1,50.9600006220703,10|0,0:2|0:0,0:0:0:0:
124,324,297979,2,0,L|174:320,1,50.9600006220703,8|0,0:0|0:0,0:0:0:0:
377,246,298146,6,0,P|408:188|346:90,1,180.179999450134,6|0,1:2|0:0,0:0:0:0:
322,80,298482,5,10,0:2:0:0:
309,315,298649,1,10,0:2:0:0:
19,144,298817,6,0,B|80:132|80:132|125:153|125:153|193:136,1,180.179999450134,6|0,1:2|0:0,0:0:0:0:
230,125,299152,5,10,0:2:0:0:
124,324,299320,1,10,0:2:0:0:
305,68,299487,6,0,B|356:168|272:161|317:263,1,180.179999450134,6|0,1:2|0:0,0:0:0:0:
327,283,299822,5,10,0:2:0:0:
377,16,299990,1,10,0:2:0:0:
226,313,300157,5,10,0:2:0:0:
177,329,300240,1,10,0:2:0:0:
124,324,300324,1,10,0:2:0:0:
451,208,300493,1,10,0:2:0:0:
42,180,300660,1,10,0:2:0:0:
442,87,300828,1,10,0:2:0:0:
